<?xml version="1.0" standalone="no"?>
<!DOCTYPE svg PUBLIC "-//W3C//DTD SVG 1.1//EN" "http://www.w3.org/Graphics/SVG/1.1/DTD/svg11.dtd" >
<svg xmlns="http://www.w3.org/2000/svg" xmlns:xlink="http://www.w3.org/1999/xlink" version="1.1">
<metadata>
Created by FontForge 20170812 at Fri Jul  3 07:06:41 2020
 By www-data
Copyright (c) 2017 by Konstantina Louka. All rights reserved.
</metadata>
<defs>
<font id="NF-PetitNuage-Regular" horiz-adv-x="0" >
  <font-face 
    font-family="Petit Nuage"
    font-weight="400"
    font-stretch="normal"
    units-per-em="1000"
    panose-1="0 0 5 0 0 0 0 0 0 0"
    ascent="520"
    descent="-480"
    x-height="163"
    cap-height="681"
    bbox="-990.462 -762 1756 936.235"
    underline-thickness="50"
    underline-position="-200"
    unicode-range="U+0020-2265"
  />
<missing-glyph horiz-adv-x="849" 
d="M696 936v-1698h-538v1698h538zM565 822h-280v-56h111v-63h-112v-56h281v56h-112v63h112v56zM453 603h-169v-176h281v57h-112v119zM396 545v-61h-56v61h56zM565 381h-281v-56h112v-63h-112v-56h169v119h112v56zM565 279h-56v-112h-225v-58h281v170zM565 72h-169v-95h57v39
h56v-80h-169v136h-56v-192h281v192zM565 -222h-281v-192h281v192zM509 -278v-80h-169v80h169zM565 -453h-281v-56h118l-118 -80v-56h281v56h-173l119 80h54v56z" />
    <glyph glyph-name="C_h.liga" unicode="Ch" horiz-adv-x="1396" 
d="M750 -83q-18 -15 -43 -8t-25 31q0 11 5 24q2 5 48 88l30 53q3 6 13 27l-237 -132q-75 -42 -151 -68q-45 -15 -93.5 -22.5t-101 -2.5t-82.5 28q-49 38 -58.5 111.5t16.5 154t78 150.5q77 105 184.5 184t217.5 91q109 12 125 -70q15 -76 -34 -162q-3 -4 -7 -4
q-5 0 -8.5 4.5t-0.5 8.5q19 31 29 67.5t6 71t-25 51.5q-23 20 -62 20q-73 0 -192 -73q-103 -63 -183.5 -153t-111.5 -194q-45 -149 17 -224q21 -25 53 -36.5t62.5 -10.5t62.5 3q81 9 166 47q24 11 72 35q237 129 279 157q6 9 16.5 27t11.5 20l38 61l82 128q118 176 205 275
q48 55 91 90q45 34 72 34q38 0 56 -25.5t18 -53.5q0 -60 -63 -148.5t-153 -171t-188.5 -151.5t-168.5 -97q-102 -166 -110 -187q-7 -20 1.5 -31t29.5 -2q9 4 58 43t102.5 80t115 75.5t97.5 34.5q19 0 36.5 -14.5t17.5 -37.5q0 -17 -9 -39.5t-9 -27.5q0 -12 8 -19t20 -5
q124 23 268 95q4 2 7 -1.5t3 -7.5t-3 -6q-105 -57 -278 -104q-19 0 -32 12t-13 29q0 15 8.5 31.5t9.5 22.5q3 68 -59 50q-63 -17 -238 -152q-10 -7 -30 -22zM833 180l25 13q77 40 169.5 112.5t169.5 150t127 152.5t46 118q-5 53 -46 53q-40 0 -80 -40q-155 -155 -293 -374
q-11 -17 -53 -82t-65 -103z" />
    <glyph glyph-name="C_u.liga" unicode="Cu" horiz-adv-x="1367" 
d="M388 -69q-45 -15 -92 -23t-100 -3t-85 29q-50 38 -59.5 111t17 154t78.5 151q76 103 183.5 182t218.5 93q108 12 125 -70q15 -76 -34 -162q-3 -4 -7 -4q-5 0 -8.5 4.5t-0.5 8.5q19 31 29 67.5t6 71t-25 51.5q-23 20 -62 20q-73 0 -192 -73q-103 -63 -182.5 -153
t-112.5 -194q-45 -149 17 -224q32 -39 99.5 -45t129 9t114.5 39q34 14 72 35q5 3 35 20q-9 28 17 71t61.5 66.5t49.5 5.5q10 -21 -10 -52.5t-95 -95.5q10 -8 24 -8q35 0 163 48.5t224 92.5q1 1 4 1q5 0 8 -4t0 -9q-1 -3 -11 -19.5t-16.5 -29t-12.5 -29.5t-6 -28
q0 -27 31 -27q71 0 211 49t198 94q2 2 3 2q7 0 10.5 -5t-2.5 -10q-71 -51 -175.5 -89.5t-212.5 -54.5q-38 -8 -60.5 4t-22.5 42q0 29 37 86q-78 -35 -194.5 -79t-154.5 -51q-40 -7 -60 14l-21 -12q-79 -44 -151 -68zM568 36q119 99 100 122q-5 5 -11 3q-26 -7 -61.5 -51
t-27.5 -74z" />
    <glyph glyph-name="C_y.liga" unicode="Cy" horiz-adv-x="1556" 
d="M417 -647q-62 -4 -62 61q0 46 27 105q34 72 90.5 136.5t129 118t138.5 92.5t148 80q30 14 62 28l99 158q-86 -38 -179 -67q-9 -3 -35.5 -10.5t-40.5 -11.5t-36 -9t-41 -7.5t-37 -3.5q-52 0 -75 23q-24 -20 -66 -44q-77 -44 -151 -68q-82 -28 -158 -28t-119 31
q-50 38 -59.5 111t17 154t78.5 151q76 103 183.5 182t218.5 93q108 12 125 -70q15 -76 -34 -162q-3 -4 -7 -4q-5 0 -8.5 4.5t-0.5 8.5q19 31 29 67.5t6 71t-25 51.5q-23 20 -62 20q-73 0 -192 -73q-103 -63 -182.5 -153t-112.5 -194q-45 -149 17 -224q22 -26 54 -37t62 -10
t62 3q78 8 166 47q24 11 72 35q45 24 69 45l7 6q-10 22 -10 33q0 27 32 57.5t44 30.5q14 2 20 -8q5 -8 1 -20q-3 -15 -19 -39q-13 -19 -29 -38q-4 -6 -14 -16q15 -16 40 -18q38 -2 132 20q145 35 276 97q2 1 5 1q5 0 7.5 -4t-0.5 -9l-101 -160q283 123 588 155h2q8 0 8 -10
q0 -7 -7 -7q-319 -32 -607 -164q-157 -248 -300 -402q-76 -83 -138 -136q-3 -3 -14.5 -14t-17 -16t-17 -14t-19.5 -13.5t-18.5 -8.5t-20.5 -4zM610 75q16 16 38 50t17 39q-4 0 -17.5 -10t-27.5 -27.5t-14 -33.5q0 -8 4 -18zM401 -630q35 0 89 46q125 105 227 233
q101 122 214 298q-138 -65 -255 -146q-155 -106 -224 -198q-55 -77 -72 -142q-9 -25 -9 -50q0 -41 30 -41z" />
    <glyph glyph-name="S_e.liga" unicode="Se" horiz-adv-x="1190" 
d="M-36 -176q-20 23 -20 54t18 56q32 47 110 84q14 7 28 13t31 11.5t28 9t32.5 7.5t29.5 5.5t33 5t30 4t33.5 4t30.5 3.5q-1 33 -8 92q-2 19 -20 107.5t-15 135.5q2 25 7 45q16 61 57.5 114t97.5 78q63 29 169 23q178 -10 245 -77q3 -3 2.5 -8.5t-4 -7.5t-8.5 1
q-17 14 -36 24q-85 46 -191 52q-54 3 -101 -4q-85 -13 -149.5 -80t-70.5 -153q-1 -21 1 -45.5t4.5 -39.5t9 -46t8.5 -41q19 -101 19 -168q63 7 173 7.5t147 -5.5q7 14 19 29q59 75 123 75q57 0 68 -37q10 -34 -28 -64q-61 -47 -171 -22q-18 -48 6 -79.5t89 -31.5
q77 0 222.5 50.5t238.5 104.5q2 1 4 1q6 0 8.5 -5t-3.5 -9q-100 -62 -244.5 -111t-223.5 -49q-59 0 -91 26t-32 66q0 18 8 40q-46 6 -137.5 6.5t-176.5 -9.5q-3 -59 -34.5 -116.5t-78.5 -96.5t-99 -61.5t-103 -15t-85 47.5zM703 84q77 -14 122.5 2t52.5 57q3 15 -15.5 21.5
t-35.5 6.5q-34 0 -68.5 -25.5t-55.5 -61.5zM-28 -159q33 -38 81 -45.5t95.5 13t91 57.5t73 90t35.5 108q-1 0 -27.5 -3t-39 -4.5t-43 -6.5t-50.5 -10.5t-50.5 -15t-53 -20.5t-48 -27t-45.5 -35q-24 -22 -30 -52q-5 -26 11 -49z" />
    <glyph glyph-name="S_i.liga" unicode="Si" horiz-adv-x="1116" 
d="M196 -182q-38 -23 -78.5 -32.5t-82.5 0.5t-71 43q-20 23 -20 54t18 56q32 47 110 84q14 7 28 13t31 11.5t28 9t32.5 7.5t29.5 5.5t33 5t30 4t33.5 4t30.5 3.5q-1 33 -8 92q-2 19 -20 107.5t-15 135.5q2 25 7 45q16 61 57.5 113.5t97.5 78.5q63 29 169 23q178 -10 245 -77
q3 -3 2.5 -8.5t-4 -7.5t-8.5 1q-17 13 -36 24q-85 46 -191 52q-54 3 -101 -4q-85 -13 -149.5 -80t-70.5 -153q-1 -21 1 -45.5t4.5 -39.5t9 -46t8.5 -41q21 -104 19 -168q15 0 23 1q109 5 189 16t154 40q1 0 1 1q1 1 1 2q3 4 7 4q5 0 8.5 -4t1.5 -9q-10 -16 -54.5 -57
t-53.5 -62q-4 -9 -4 -19q0 -19 19.5 -27.5t42.5 -6.5q85 6 258 61.5t242 97.5q2 1 4 1q7 0 10.5 -4.5t-2.5 -9.5q-74 -47 -264 -105t-251 -58q-73 0 -78 56q0 10 5 21t16.5 24.5t20 22t25 24.5t22.5 21l-5 -2q-116 -38 -339 -46q0 -3 -0.5 -7t-0.5 -7q-10 -73 -55.5 -136.5
t-111.5 -102.5zM875 287l-2 2q-3 3 -3 6q0 5 5 7.5t10 -1.5l2 -2q3 -3 3 -6q0 -6 -15 -6zM-28 -154q33 -38 81 -45.5t95.5 13t91 57.5t73 90t35.5 108q-1 0 -27.5 -3t-39 -4.5t-43 -6.5t-50.5 -10.5t-50.5 -15t-53 -20.5t-48 -27t-45.5 -35q-24 -22 -30 -52q-5 -26 11 -49z
" />
    <glyph glyph-name="S_l.liga" unicode="Sl" horiz-adv-x="1137" 
d="M196 -182q-38 -23 -78.5 -32.5t-82.5 0.5t-71 43q-20 23 -20 54t18 56q32 47 110 84q14 7 28 13t31 11.5t28 9t32.5 7.5t29.5 5.5t33 5t30 4t33.5 4t30.5 3.5q-1 33 -8 92q-2 19 -20 107.5t-15 135.5q2 25 7 45q16 61 57.5 113.5t97.5 78.5q63 29 169 23q178 -10 245 -77
q3 -3 2.5 -8.5t-4 -7.5t-8.5 1q-17 13 -36 24q-85 46 -191 52q-54 3 -101 -4q-85 -13 -149.5 -80t-70.5 -153q-1 -21 1 -45.5t4.5 -39.5t9 -46t8.5 -41q21 -104 19 -168q103 2 193 15.5t120 31.5q21 107 126 274q44 69 101.5 141.5t124.5 131.5t108 59q31 0 31 -40
q0 -43 -58 -126q-217 -311 -413 -450l-3 -16q-1 -7 -1 -20q0 -48 30.5 -73t82.5 -25q116 0 376 129q2 1 5 1q6 0 8.5 -6t-3.5 -9q-272 -136 -393 -136q-124 0 -124 124q0 14 1 20q-79 -39 -313 -43q0 -3 -0.5 -7t-0.5 -7q-10 -73 -55.5 -136.5t-111.5 -102.5zM704 151
q170 124 345 368q69 95 89 136q14 28 14 44q0 20 -21 20q-49 0 -132 -92q-123 -137 -180 -227q-85 -136 -115 -249zM-28 -154q33 -38 81 -45.5t95.5 13t91 57.5t73 90t35.5 108q-1 0 -27.5 -3t-39 -4.5t-43 -6.5t-50.5 -10.5t-50.5 -15t-53 -20.5t-48 -27t-45.5 -35
q-24 -22 -30 -52q-5 -26 11 -49z" />
    <glyph glyph-name="S_t.liga" unicode="St" horiz-adv-x="1357" 
d="M196 -182q-38 -23 -78.5 -32.5t-82.5 0.5t-71 43q-20 23 -20 54t18 56q32 47 110 84q14 7 28 13t31 11.5t28 9t32.5 7.5t29.5 5.5t33 5t30 4t33.5 4t30.5 3.5q-1 33 -8 92q-2 19 -20 107.5t-15 135.5q2 25 7 45q16 61 57.5 113.5t97.5 78.5q63 29 169 23q178 -10 245 -77
q3 -3 2.5 -8.5t-4 -7.5t-8.5 1q-17 13 -36 24q-85 46 -191 52q-54 3 -101 -4q-85 -13 -149.5 -80t-70.5 -153q-1 -21 1 -45.5t4.5 -39.5t9 -46t8.5 -41q21 -104 19 -168q15 0 23 1q301 16 386 54q46 142 156 307l-263 -3q-8 0 -8 9t8 9q46 0 138 1t137 1q54 78 123 155
q3 3 6 3q5 0 8 -5.5t-1 -9.5q-64 -71 -115 -143q108 2 161 2q8 0 8 -9t-8 -9q-29 0 -87 -0.5t-86 -0.5q-56 -81 -98 -169q-44 -90 -61.5 -138.5t-17.5 -86.5q0 -32 14.5 -56t46.5 -29q55 -12 276.5 42t348.5 128l1 1h2q7 0 7 -8q0 -6 -6 -10q-135 -82 -358 -132t-276 -38
q-32 8 -52.5 33t-21.5 64q0 31 12 70q-108 -38 -404 -50q0 -3 -0.5 -7t-0.5 -7q-10 -73 -55.5 -136.5t-111.5 -102.5zM-28 -154q33 -38 81 -45.5t95.5 13t91 57.5t73 90t35.5 108q-1 0 -27.5 -3t-39 -4.5t-43 -6.5t-50.5 -10.5t-50.5 -15t-53 -20.5t-48 -27t-45.5 -35
q-24 -22 -30 -52q-5 -26 11 -49z" />
    <glyph glyph-name="e_t.liga" unicode="et" horiz-adv-x="1232" 
d="M756 -50q-38 0 -66 19q-39 25 -41 82q0 59 40 149q9 21 29 63q-93 -108 -278 -201q-191 -97 -320 -99q-121 -1 -118 92v5q3 46 34 85q59 75 123 75q49 0 63 -29q10 -19 -11 -45.5t-46 -37.5q-66 -30 -137 -9h-1q-30 -106 75 -117q108 -11 293 75q190 88 304 206
q24 25 42 48q38 73 82 139l-263 -3q-8 0 -8 9t8 9q184 2 275 2q54 78 123 155q3 3 6 3q5 0 8 -5.5t-1 -9.5q-64 -71 -115 -143q27 1 80.5 1t80.5 1q8 0 8 -9t-8 -9q-29 0 -87 -0.5t-86 -0.5q-56 -81 -98 -169q-69 -143 -76 -195q-8 -36 4.5 -72.5t53.5 -42.5q33 -7 90 6
q320 75 535 160q1 0 3 1q7 0 7 -8t-6 -10q-153 -68 -499 -151q-76 -19 -102 -19zM35 115q24 -9 60.5 -7.5t60.5 15.5q45 26 49 52q2 10 -7.5 17t-19.5 8.5t-19 1.5q-34 0 -68.5 -25.5t-55.5 -61.5z" />
    <glyph glyph-name="f_f.liga" unicode="ff" horiz-adv-x="1340" 
d="M-189 -709q-26 -34 -57 -46.5t-54 1.5t-26 49q-2 25 53 117.5t154 239.5t120 180q3 86 -16 168v2q0 9 8 9q51 -3 122 -3q162 244 240 347q201 268 282 268q24 0 38 -19t14 -44q0 -36 -33.5 -94t-91 -121.5t-150 -123.5t-195.5 -91l-79 -122q164 4 361 36.5t303 95.5
q278 408 387 408q42 0 58 -23t1 -65.5t-62 -92.5q-159 -174 -367 -238q-1 0 -3 -1l-78 -121q248 12 421.5 45t274.5 105q2 2 4 2q6 0 9 -5.5t-3 -10.5q-78 -56 -218.5 -92.5t-260 -48t-239.5 -12.5l-109 -168q-10 -155 -43 -250t-119 -208q-26 -34 -57 -46.5t-54 1.5t-26 49
q-2 25 42.5 100.5t129 199.5t109.5 163q3 86 -16 168v2q0 9 8 9q51 -3 122 -3l66 100q-112 -56 -305 -85t-348 -31l-109 -168q-6 -138 -61.5 -275t-146.5 -257zM235 153q153 52 276 165q86 78 134 168q52 98 -1 113q-8 2 -18 2q-33 0 -108.5 -80.5t-146.5 -175.5t-136 -192z
M836 153h1q152 53 274 164q110 100 123 162q2 45 -54 48q-49 0 -147 -112.5t-197 -261.5zM19 -140l85 130q-51 0 -100 3q15 -66 15 -133zM619 -141l85 130q-50 0 -100 3q15 -66 15 -133zM-272 -744q13 0 24.5 5.5t25 19.5t17 18.5l17.5 22.5q167 229 187 472
q-50 -77 -110.5 -167.5t-89.5 -134.5t-58 -89.5t-39.5 -67.5t-10.5 -33q0 -17 10.5 -31.5t26.5 -14.5zM374 -671q17 0 34.5 13t25.5 23t23 30q73 100 102 183.5t40 214.5q-33 -49 -72.5 -107.5t-61 -90.5t-47 -69.5t-37.5 -57.5t-24 -40.5t-16 -32.5t-4 -20
q0 -17 10.5 -31.5t26.5 -14.5z" />
    <glyph glyph-name="l_l.liga" unicode="ll" horiz-adv-x="998" 
d="M145 -28q-62 0 -95 28.5t-29 87.5q1 3 1 9t1 9q-1 -1 -10 -7q-2 -1 -4 -1q-6 0 -8 6t3 10q10 9 23 16q25 127 122 281q85 134 209 259q17 19 57.5 46t67.5 27q31 0 31 -40q0 -43 -58 -126q-108 -153 -204.5 -265.5t-208.5 -191.5l-3 -16q-1 -7 -1 -20q0 -91 113 -91
q71 0 171 34t195 85l2 2q10 9 23 16q16 84 80 205t150.5 217t152.5 96q31 0 31 -40q0 -68 -128.5 -228t-269.5 -260l-3 -16q-1 -7 -1 -20q0 -91 113 -91q73 0 176 35.5t200 88.5q2 1 5 1q6 0 8.5 -6t-3.5 -9q-246 -131 -393 -131q-62 0 -95 28.5t-29 87.5q1 5 1 15
q-246 -131 -393 -131zM49 146q91 66 172 158t173 217q72 100 89 136q14 28 14 44q0 20 -21 20q-24 0 -49 -17q-36 -23 -83 -75q-123 -137 -180 -227q-82 -131 -115 -256zM565 146q118 87 246.5 245.5t128.5 214.5q0 20 -21 20q-23 0 -49 -17q-93 -57 -182.5 -196.5
t-122.5 -266.5z" />
    <glyph glyph-name="p_p.liga" unicode="pp" horiz-adv-x="1429" 
d="M-388 -553q-3 0 -9 2q-20 7 -20 27q0 39 81 174t196 247l233 438q3 4 7 4q5 0 8 -4t1 -9l-212 -394q102 92 257.5 194t246.5 129q42 11 70 0.5t28 -44.5q0 -20 -32.5 -57t-41.5 -54q-5 -12 -5 -17q-5 -39 126 -7q122 32 199 76l3 6q3 4 7 4q5 0 8 -4t0 -9
q-89 -157 -125 -225q97 87 239.5 174t238.5 113q41 13 69 2.5t28 -44.5q0 -20 -32.5 -57t-41.5 -54q-5 -12 -5 -17q-5 -41 137 -2q117 32 191 73q4 2 7 -2t1 -8q-2 -5 -6 -7q-57 -36 -185 -71t-151 -15q-14 11 -14 28q0 18 18 42q6 9 25 29.5t29 36t10 29.5q0 34 -66 20
q-97 -21 -253 -117.5t-254 -191.5q-4 -3 -11 -10q-6 -12 -63.5 -129t-96.5 -179t-63 -62q-3 0 -9 2q-20 7 -20 27q0 38 63 140.5t178 214.5l130 237q-71 -36 -183.5 -64.5t-133.5 -10.5q-14 11 -14 28q0 18 18 42q6 9 25 29.5t29 36t10 29.5q0 19 -17 23t-50 1
q-94 -24 -262.5 -135.5t-271.5 -210.5q-3 -4 -10 -11q-3 -5 -72 -143.5t-116 -215.5t-71 -77zM-390 -534q10 0 32 30t51.5 82.5t52.5 97t51 100t33 65.5q-71 -69 -145.5 -189t-81.5 -178q-1 -8 7 -8zM387 -476q10 0 28.5 24t42 65.5t42.5 78t41.5 82.5t29.5 59
q-70 -68 -125.5 -155.5t-65.5 -145.5q-1 -8 7 -8z" />
    <glyph glyph-name="s_t.liga" unicode="st" horiz-adv-x="939" 
d="M-55 -154q-23 0 -37.5 16.5t-14.5 39.5q0 15 5 25q31 68 147 82q31 96 33 101q1 2 4 10t4.5 11l5 10t6 10t6.5 8t8.5 7t10 4t11.5 2q10 0 8 -12q-4 -28 -36 -37q-4 0 -5 1q-8 -16 -15 -36.5t-13.5 -46.5t-6.5 -27q128 67 193.5 122.5t170.5 174.5q38 73 82 139l-263 -3
q-8 0 -8 9t8 9q184 2 275 2q54 78 123 155q3 3 6 3q5 0 8 -5.5t-1 -9.5q-64 -71 -115 -143q27 1 80.5 1t80.5 1q8 0 8 -9t-8 -9q-29 0 -87 -0.5t-86 -0.5q-56 -81 -98 -169q-42 -86 -56 -124q0 -4 -3 -7q-14 -42 -17 -64q-3 -14 -3 -30q0 -32 14.5 -56t46.5 -29q10 -2 28 -2
q28 0 62 8q320 75 535 160l1 1h2q7 0 7 -8t-6 -10q-153 -68 -499 -151q-76 -19 -102 -19q-18 0 -33 4q-18 4 -33 15q-39 25 -41 82q0 31 7 55q1 2 9 35q9 25 24 59q1 3 29 64q-90 -102 -154 -154.5t-194 -117.5q-15 -40 -23 -54q-33 -68 -63 -85q-14 -7 -28 -7zM-54 -135
q15 0 28 9.5t24 28.5t15.5 28.5t13.5 30.5q7 15 11 28q-53 -7 -85 -28q-13 -9 -29 -32t-16 -40q0 -26 38 -25z" />
    <glyph glyph-name="y_h.liga" unicode="yh" horiz-adv-x="1525" 
d="M-168 -652q-62 -4 -62 61q0 46 27 105q34 72 90.5 136.5t129 118t138.5 92.5t148 80q30 14 62 28l99 158q-86 -38 -179 -67q-9 -3 -35.5 -10.5t-40.5 -11.5t-36 -9t-41 -7.5t-37 -3.5q-80 0 -94 58q-2 8 -2 12q0 35 67 85q4 2 5 2q6 0 8.5 -5.5t-2.5 -9.5
q-38 -28 -49 -46q-7 -13 -7 -26q0 -21 15 -35t38 -16q38 -2 132 20q145 35 276 97q2 1 5 1q5 0 7.5 -4t-0.5 -9l-101 -160q118 45 206.5 76t180.5 61.5t151 50.5q80 138 172 273.5t191 246t150 110.5q38 0 56 -25.5t18 -53.5q0 -60 -63 -148.5t-153 -171t-188.5 -151.5
t-168.5 -97q-102 -166 -110 -187q-7 -20 2 -31.5t29 -1.5q9 4 58 43t102.5 80t115 75.5t97.5 34.5q19 0 36.5 -14.5t17.5 -37.5q0 -16 -9 -39t-9 -28q0 -12 8 -19t20 -5q124 23 268 95q4 2 7 -1.5t3 -7.5t-3 -6q-127 -63 -278 -104q-19 0 -32 12t-13 29q0 15 8.5 31.5
t9.5 22.5q3 68 -59 50q-63 -17 -238 -152q-10 -7 -30 -22l-67 -52q-18 -15 -43 -8t-25 31q0 11 5 24q4 11 28.5 54.5t46.5 81.5l22 38l5 9q-44 -15 -163 -52.5t-206.5 -69.5t-171.5 -70q-157 -248 -300 -402q-76 -83 -138 -136q-3 -3 -14.5 -14t-17 -16t-17 -14t-19.5 -13.5
t-18.5 -8.5t-20.5 -4zM962 181l25 13q77 40 169.5 112.5t169.5 150t127 152.5t46 118q-5 53 -46 53q-40 0 -80 -40q-155 -155 -293 -374q-11 -17 -53 -82t-65 -103zM-184 -635q35 0 89 46q125 105 227 233q101 122 214 298q-138 -65 -255 -146q-155 -106 -224 -198
q-55 -77 -72 -142q-9 -25 -9 -50q0 -41 30 -41z" />
    <glyph glyph-name="lambda_lambda.liga" unicode="&#x3bb;&#x3bb;" horiz-adv-x="1191" 
d="M-170 -267q-29 -4 -41.5 6.5t-6.5 30.5q12 27 82 59q2 1 32 15t37 17.5t35 16t40.5 17.5t38 15.5t43 16t40.5 13t44 12.5q40 11 58 11q31 0 31 -24q0 -14 -11 -34q56 24 84 35q172 219 203 268q33 53 33 91q0 49 -40 49q-36 0 -107.5 -37t-193 -109t-202.5 -114
q-2 -1 -5 -1q-8 0 -8 9q0 4 4 7q67 36 202 115.5t205 113t111 33.5q51 0 51 -62q0 -57 -66 -147l-155 -204q49 21 224.5 113.5t326.5 164.5t196 72q29 1 51 -10t21 -37q0 -46 -71 -143l-137 -181q-6 -7 -20 -26t-23 -30t-22.5 -26t-27 -25t-28.5 -17q-23 -9 -31.5 6.5
t0.5 37.5q4 9 10 19t13 21t11 18l3 5q3 5 4.5 9.5t4 10t1.5 8.5t-4 4q-31 8 -160 -40.5t-237 -103.5l-3 -1q-10 0 -10 9q0 5 5 7q95 50 217 97.5t179 50.5q31 0 31 -24q0 -8 -4 -18t-8 -17t-10 -16.5t-8 -12.5q-8 -10 -16.5 -32.5t0.5 -22.5q19 0 67 55q38 46 121.5 155
t97.5 132q71 118 -8 116q-80 -2 -375 -153q-38 -19 -113 -58q-207 -108 -289 -144q-3 -4 -16 -21.5t-18.5 -24t-18 -21t-21 -22.5t-20.5 -17t-24 -14q-23 -9 -31.5 6.5t0.5 37.5q3 9 9 18q-3 -2 -16 -7q-114 -50 -173 -72q-138 -51 -188 -55zM-165 -249q95 23 190 59
q80 31 173 72q4 2 12.5 5.5t12.5 5.5q2 3 3.5 5t5.5 9t6.5 12t5 11t2 10t-4.5 4q-33 9 -162 -41.5t-264 -120.5q-1 -1 -4.5 -4t-5 -4t-4 -4.5t-3 -5.5t0.5 -5t4 -6q5 -5 32 -2zM217 -180q19 0 67 55l29 37l-78 -33q-1 -2 -2.5 -4.5t-5.5 -10.5t-7 -14.5t-5.5 -14t-2 -11.5
t4.5 -4z" />
    <glyph glyph-name="omicron_omicron.liga" unicode="&#x3bf;&#x3bf;" horiz-adv-x="820" 
d="M22 1q-30 0 -40 21q-5 9 -5 21q0 40 41 75q8 8 20 14q9 21 34 36.5t50 15.5q14 0 25 -6q26 -14 26 -38q0 -27 -30 -62q21 0 30 1q111 2 182 44q16 29 51 29q16 0 29 -10q22 -17 22 -48q0 -15 -10 -35q33 -5 85 -5q75 0 174.5 23t181.5 66q1 1 4 1q4 0 6.5 -3.5t1.5 -7.5
q0 -4 -5 -6q-81 -44 -184 -67.5t-184 -23.5q-58 0 -94 6q-8 -8 -23 -18q-34 -23 -63 -23q-14 0 -24 5q-19 10 -19 32q0 20 12 39q0 1 8 11q-60 -24 -151 -27h-13h-17h-16q-37 -38 -68 -52q-22 -8 -37 -8zM130 88q6 9 7 11q15 23 15 42q0 11 -6 17q-9 10 -24 10t-33 -9
q-18 -12 -22 -16q5 1 16 1q20 0 32 -9q17 -13 17 -34q0 -5 -2 -13zM429 68q11 20 11 34q0 24 -26 32q-3 1 -9 1q-10 0 -23 -9h5q44 0 44 -41q0 -5 -2 -17zM107 80q1 3 1 9q0 15 -10.5 26t-25.5 10q-3 0 -11 -2q-6 -2 -7 -2l-1 -7q0 -3 2 -9q8 -14 36 -22q8 -3 16 -3zM24 18
q13 -2 48 17q13 8 28 21q-1 3 0 7q-36 5 -54 26q-8 10 -10 22q-7 -5 -19 -17q-21 -24 -21 -49q0 -23 28 -27zM411 64q5 13 4 21q-8 23 -27 23q-10 0 -18 -4l-1 -7q0 -6 3 -12q9 -17 39 -21zM346 19q26 0 55 21q-2 4 1 8q-48 10 -53 43q-12 -13 -20 -26t-8 -26q0 -20 25 -20z
" />
    <glyph glyph-name="omicron_omicrontonos.liga" unicode="&#x3bf;&#x3cc;" horiz-adv-x="820" 
d="M463 342q-4 0 -6.5 3t0.5 8q13 19 37 59q2 3 5 3q4 0 6.5 -3.5t-0.5 -8.5q-32 -51 -37 -58q-2 -3 -5 -3zM22 1q-22 0 -33.5 12t-11.5 30q0 27 20.5 53t40.5 36q9 21 34 36.5t50 15.5q44 0 49 -34.5t-28 -71.5q137 0 212 45q12 22 37 28t43 -9q39 -30 12 -83q33 -5 85 -5
q75 0 174.5 23t181.5 66q1 1 4 1q4 0 6.5 -3.5t1.5 -7.5q0 -4 -5 -6q-81 -44 -184 -67.5t-184 -23.5q-58 0 -94 6q-21 -21 -54.5 -34t-55.5 -2q-19 10 -19 32q0 21 20 50q-83 -33 -197 -27q-58 -60 -105 -60zM130 88q24 32 21.5 56t-29.5 24q-30 0 -55 -25q5 1 16 1
q28 0 40.5 -17t6.5 -39zM429 68q28 52 -15 66q-14 5 -32 -8h5q31 0 40.5 -19t1.5 -39zM107 80q8 15 -1.5 30.5t-33.5 14.5q-2 0 -10 -2l-8 -2l-1 -7q0 -15 20 -24.5t34 -9.5zM24 18q15 -2 38 11t38 27q-1 3 0 7q-36 5 -54 26q-8 10 -10 22q-40 -28 -40 -66q0 -23 28 -27z
M411 64q11 25 -5 37.5t-36 2.5q0 -2 -0.5 -4t-1 -3.5t0.5 -4.5t3 -7q9 -17 39 -21zM321 39q0 -15 14 -18.5t32.5 2.5t33.5 17q-2 4 1 8q-48 10 -53 43q-28 -28 -28 -52z" />
    <glyph glyph-name="sigma_tau.liga" unicode="&#x3c3;&#x3c4;" horiz-adv-x="1149" 
d="M609 -55q-47 -3 -78 21t-31 64q0 47 23 81q-36 -12 -83.5 -22t-91 -16t-81 -9.5t-62.5 -5.5t-27 -3q-18 -30 -55 -48.5t-63 -15.5q-28 3 -44 19t-16 38q0 27 22 50q69 73 225 103q11 2 11 -9q0 -6 -6 -8q-69 -12 -128 -40q-29 -14 -41 -20t-33 -22.5t-29 -34.5
q-5 -13 -5 -20q0 -18 15 -27.5t36 -9.5q19 0 47 13.5t42 30.5q-2 -3 -24 -2.5t-33 8.5q-12 11 -11 26t11 27q12 13 29.5 18.5t33.5 -2.5q21 -11 21 -57q30 -2 181 20t183 48q28 31 89 84q-25 0 -73.5 -0.5t-72.5 -0.5q-9 0 -9 9q0 8 9 8q28 0 84 1t84 1l4 3q4 2 5 2
q4 0 6 -5q25 0 75 1t75 1q8 0 8 -9t-8 -9q-27 0 -80 -0.5t-79 -0.5q-151 -122 -145 -188q4 -36 26 -55t56 -19t79 5.5t129 22t199.5 59.5t239.5 107h3q8 0 8 -8t-6 -9q-109 -60 -223.5 -102.5t-201.5 -60.5t-139 -25t-80 -7zM164 72q5 24 -3 35.5t-25 8.5q-21 -5 -28 -21
q-12 -22 14.5 -25.5t41.5 2.5z" />
    <glyph glyph-name="omicrontonos_omicron.liga" unicode="&#x3cc;&#x3bf;" horiz-adv-x="820" 
d="M219 346q-4 0 -6.5 3t0.5 8q13 19 37 59q2 3 5 3q4 0 6.5 -3.5t-0.5 -8.5q-32 -51 -37 -58q-2 -3 -5 -3zM22 1q-30 0 -40 21q-5 9 -5 21q0 40 41 75q8 8 20 14q9 21 34 36.5t50 15.5q14 0 25 -6q26 -14 26 -38q0 -27 -30 -62q21 0 30 1q111 2 182 44q16 29 51 29
q16 0 29 -10q22 -17 22 -48q0 -15 -10 -35q33 -5 85 -5q75 0 174.5 23t181.5 66q1 1 4 1q4 0 6.5 -3.5t1.5 -7.5q0 -4 -5 -6q-81 -44 -184 -67.5t-184 -23.5q-58 0 -94 6q-8 -8 -23 -18q-34 -23 -63 -23q-14 0 -24 5q-19 10 -19 32q0 20 12 39q0 1 8 11q-60 -24 -151 -27
h-13h-17h-16q-37 -38 -68 -52q-22 -8 -37 -8zM130 88q6 9 7 11q15 23 15 42q0 11 -6 17q-9 10 -24 10t-33 -9q-18 -12 -22 -16q5 1 16 1q20 0 32 -9q17 -13 17 -34q0 -5 -2 -13zM429 68q11 20 11 34q0 24 -26 32q-3 1 -9 1q-10 0 -23 -9h5q44 0 44 -41q0 -5 -2 -17zM107 80
q1 3 1 9q0 15 -10.5 26t-25.5 10q-3 0 -11 -2q-6 -2 -7 -2l-1 -7q0 -3 2 -9q8 -14 36 -22q8 -3 16 -3zM24 18q13 -2 48 17q13 8 28 21q-1 3 0 7q-36 5 -54 26q-8 10 -10 22q-7 -5 -19 -17q-21 -24 -21 -49q0 -23 28 -27zM411 64q5 13 4 21q-8 23 -27 23q-10 0 -18 -4l-1 -7
q0 -6 3 -12q9 -17 39 -21zM346 19q26 0 55 21q-2 4 1 8q-48 10 -53 43q-12 -13 -20 -26t-8 -26q0 -20 25 -20z" />
    <glyph glyph-name=".notdef" horiz-adv-x="849" 
d="M696 936v-1698h-538v1698h538zM565 822h-280v-56h111v-63h-112v-56h281v56h-112v63h112v56zM453 603h-169v-176h281v57h-112v119zM396 545v-61h-56v61h56zM565 381h-281v-56h112v-63h-112v-56h169v119h112v56zM565 279h-56v-112h-225v-58h281v170zM565 72h-169v-95h57v39
h56v-80h-169v136h-56v-192h281v192zM565 -222h-281v-192h281v192zM509 -278v-80h-169v80h169zM565 -453h-281v-56h118l-118 -80v-56h281v56h-173l119 80h54v56z" />
    <glyph glyph-name=".null" 
 />
    <glyph glyph-name="nonmarkingreturn" horiz-adv-x="333" 
 />
    <glyph glyph-name="space" unicode=" " horiz-adv-x="600" 
 />
    <glyph glyph-name="exclam" unicode="!" horiz-adv-x="318" 
d="M138 82q-5 0 -7.5 4t0.5 9l271 351q3 4 6 4q6 0 8.5 -4t-0.5 -9l-271 -352q-3 -3 -7 -3zM59 0q-12 0 -9 11q1 1 1 4q1 6 8 6q12 0 9 -11l-1 -4q-1 -6 -8 -6z" />
    <glyph glyph-name="quotedbl" unicode="&#x22;" horiz-adv-x="191" 
d="M47 514q-4 0 -6.5 3t0.5 8q13 19 37 59q2 3 5 3q4 0 6.5 -3.5t-0.5 -8.5q-32 -51 -37 -58q-2 -3 -5 -3zM118 514q-4 0 -6.5 3t0.5 8q13 19 37 59q1 3 5 3t6.5 -3.5t-0.5 -8.5q-32 -51 -37 -58q-1 -3 -5 -3z" />
    <glyph glyph-name="numbersign" unicode="#" horiz-adv-x="371" 
d="M55 -5q-4 0 -7 4t0 8l32 55l-36 -3q-7 0 -7 8q0 9 8 9q7 1 23 2.5t23 1.5l30 49q-40 -2 -59 -2q-7 0 -7 9q0 8 8 8q11 0 33.5 1t34.5 1q4 6 18 30t22 37q3 4 7 4q5 0 8 -4.5t0 -8.5l-35 -57q8 0 23.5 0.5t22.5 0.5l40 65q3 4 7 4q5 0 8 -4t0 -8l-35 -56l97 3q7 0 7 -6
q0 -11 -8 -11l-106 -3l-27 -44l102 9q7 0 7 -6q0 -10 -8 -11q-19 -2 -56 -5.5t-56 -4.5l-39 -62q-3 -4 -7 -4t-7 4t0 9l31 51q-7 0 -22.5 -1.5t-23.5 -2.5l-39 -65q-3 -4 -7 -4zM112 82q8 1 23.5 2.5t22.5 1.5q10 15 28 45q-7 -1 -22 -1t-23 -1q-6 -9 -16 -25.5t-13 -21.5z
" />
    <glyph glyph-name="dollar" unicode="$" horiz-adv-x="302" 
d="M-13 -38q-5 0 -8.5 4.5t-0.5 9.5l27 46q-11 3 -19 10q-25 21 -25 60q0 28 13 60q3 5 7 5q5 0 8.5 -4.5t0.5 -10.5q-5 -10 -7 -33v-6q0 -26 10.5 -44.5t31.5 -18.5q11 0 24 6q18 9 34 33q15 27 19 51q3 15 3 31t-4.5 44.5t-4.5 42.5q0 29 14 52q24 38 58 35l16 28q1 4 7 4
q5 0 8.5 -4.5t0.5 -9.5l-14 -24q27 -15 27 -54q0 -12 -1 -18q-1 -7 -8 -7q-10 0 -10 10q0 3 0.5 8t0.5 7q0 18 -9 28t-23 10q-23 0 -37 -23q-13 -20 -13 -48q0 -14 5.5 -43t5.5 -43q0 -71 -47 -113q-25 -22 -53 -23v-1l-30 -52q-2 -5 -7 -5z" />
    <glyph glyph-name="percent" unicode="%" horiz-adv-x="337" 
d="M59 17q-5 0 -8 4t0 9l220 342q3 4 7 4t7 -4t0 -9l-219 -342q-3 -4 -7 -4zM85 236q-7 0 -15 3q-15 7 -15 25q0 11 5 21q7 15 23 28q0 7 5 17q12 25 39 25q13 0 22 -8.5t9 -24.5q0 -24 -23.5 -55t-49.5 -31zM114 305q10 0 19 9q4 4 7 2v4q0 18 -13 18q-4 0 -10 -2
q-9 -4 -11 -10q10 6 16 8q1 1 4 1q6 0 8 -6.5t-4 -9.5q-12 -5 -24 -12q2 -2 8 -2zM84 254h3q7 0 14 5q10 6 24 24q4 6 6 10q-12 -4 -18 -4q-13 0 -23 8q-10 -10 -15 -20q-2 -6 -2 -9q0 -11 11 -14zM199 39q-11 0 -21 7q-11 8 -11 25q0 10 5 22q10 22 39 42q3 3 11 7l9 6
q7 4 11 -2q4 0 10 -2q17 -8 17 -32h1l2 1q7 0 10 -6.5t-4 -9.5l-14 -6q-8 -19 -27 -35.5t-38 -16.5zM235 101q7 0 15 3q3 6 3 12q0 12 -14 13q-5 0 -11 -3l-3 -2q-7 -5 -7 -11q0 -5 6 -9q4 -3 11 -3zM198 58q16 0 32 14q1 1 10 12h-6q-15 0 -22 7q-8 6 -10 15
q-12 -10 -16 -25q-2 -8 -2 -10q0 -13 14 -13z" />
    <glyph glyph-name="ampersand" unicode="&#x26;" horiz-adv-x="522" 
d="M146 0q-39 0 -67.5 22.5t-28.5 59.5q0 41 23.5 74t62.5 53t77 31.5t80 17.5q-16 26 -16 56q0 46 33.5 84t81.5 45q6 1 16 1q31 0 47.5 -18.5t16.5 -46.5q0 -44 -34 -73q-4 -2 -6 -2q-6 0 -8.5 5t1.5 10q32 26 32 59q0 10 -5 22q-12 27 -44 27q-15 0 -37 -8
q-33 -13 -55 -43t-22 -63q0 -31 21 -56q2 -2 2 -6q0 -7 -9 -9q-197 -23 -235 -132q-4 -12 -4 -26q0 -29 22.5 -47.5t54.5 -18.5q2 0 6 0.5t7 0.5q59 7 112 62q27 29 38 53q3 6 3 13q-21 -7 -32 -7q-15 0 -24 9.5t-9 22.5q0 12 7 22q10 13 27 13q16 0 31.5 -9.5t20.5 -22.5
v-1l12 5q22 8 40 8q49 0 50 -55q0 -8 -9 -8t-9 8q-1 37 -29 37q-14 0 -52 -14q-3 -39 -62 -95q-64 -60 -128 -60zM287 157q11 0 25 6q-5 18 -18 23q-4 2 -8 2q-7 0 -12.5 -5t-5.5 -12q0 -9 11 -13q2 -1 8 -1z" />
    <glyph glyph-name="quotesingle" unicode="'" horiz-adv-x="100" 
d="M27 514q-4 0 -6.5 3t0.5 8q13 19 37 59q2 3 5 3q4 0 6.5 -3.5t-0.5 -8.5q-32 -51 -37 -58q-2 -3 -5 -3z" />
    <glyph glyph-name="parenleft" unicode="(" horiz-adv-x="368" 
d="M-20 -153q-4 0 -7.5 3t-2.5 8q28 176 115 339t218 300q3 3 6 3q5 0 8 -5t-1 -10q-274 -286 -329 -632q-1 -6 -7 -6z" />
    <glyph glyph-name="parenright" unicode=")" horiz-adv-x="422" 
d="M10 -122q-6 0 -8.5 5t1.5 10q272 269 333 605q2 6 7 6q11 0 9 -10q-61 -339 -337 -614q-4 -2 -5 -2z" />
    <glyph glyph-name="asterisk" unicode="*" horiz-adv-x="259" 
d="M42 460q-4 0 -7 4t-1 9l64 144q-9 -11 -27 -32t-20 -24q-3 -3 -5 -3q-5 0 -8 5t1 10l60 72q-46 -14 -68 -22h-3q-8 0 -8 9q2 6 6 8q62 20 93 29l-25 30q-2 4 -2 5q0 6 5 8.5t9 -1.5t11 -13t11 -13l65 147q3 4 7 4t7 -4t1 -9l-45 -101q16 17 29 35q3 3 5 3q5 0 8 -5.5
t-1 -10.5l-54 -65q6 2 19 6.5t20 6.5h3q8 0 8 -9q-2 -6 -6 -8q-8 -2 -23 -6.5t-22 -7.5q3 -4 9 -10q2 -4 2 -6q0 -6 -5 -8.5t-9 1.5q-1 1 -13 16l-84 -190q-3 -4 -7 -4z" />
    <glyph glyph-name="plus" unicode="+" horiz-adv-x="489" 
d="M22 -33q-5 0 -7.5 4.5t0.5 9.5l96 137q-68 -2 -102 -4q-9 0 -9 10q0 7 7 7q39 2 117 4l96 137q2 3 6 3q6 0 9 -5q2 -4 2 -5q0 -4 -3.5 -9.5t-3.5 -6.5l-2 -3q-5 -8 -17 -21t-17 -19q-25 -38 -49 -70l185 6q9 0 9 -10q0 -7 -7 -7q-33 -1 -99.5 -3.5t-99.5 -3.5l-105 -147
q-4 -4 -6 -4z" />
    <glyph glyph-name="comma" unicode="," horiz-adv-x="89" 
d="M-92 -191q-8 0 -8 9q0 4 4 7q54 36 69 93q1 7 8 7q4 0 6.5 -3.5t1.5 -7.5q-16 -63 -77 -104q-1 -1 -4 -1z" />
    <glyph glyph-name="hyphen" unicode="-" horiz-adv-x="484" 
d="M259 98q-9 0 -9 8t9 10q15 1 35 1h83q7 0 7 -6q0 -11 -8 -11q-116 -2 -117 -2z" />
    <glyph glyph-name="period" unicode="." horiz-adv-x="218" 
d="M59 0q-9 0 -9 9v2q0 9 9 9t9 -9v-2q0 -9 -9 -9z" />
    <glyph glyph-name="slash" unicode="/" horiz-adv-x="503" 
d="M59 0q-6 0 -8.5 5t2.5 9l385 322q4 2 5 2q6 0 8.5 -5t-1.5 -9l-385 -322q-4 -2 -6 -2z" />
    <glyph glyph-name="zero" unicode="0" horiz-adv-x="345" 
d="M28 0q-23 0 -37 18q-11 14 -11 38q0 38 30 103q40 92 120 171q31 31 53 51t60 41.5t68 21.5q18 0 30.5 -10t11.5 -24q12 -19 12 -40q0 -47 -42 -114q10 2 16 4h2q8 0 8 -8t-6 -9q-15 -5 -33 -6q-5 -6 -12.5 -17.5t-9.5 -14.5q-63 -85 -152 -152q-72 -53 -108 -53z
M284 251q11 0 16 1q21 33 37 72q11 33 11 49q0 9 -3 17l-5 -6q-3 -3 -6 -3q-5 0 -7.5 5.5t1.5 9.5q-6 13 -13 18q-10 2 -14 2q-43 0 -78 -37q-23 -26 -23 -58q0 -33 27 -53q24 -17 57 -17zM31 19q17 0 49 16q23 12 68 49q90 74 141 151q-91 0 -106 70q-2 10 -2 16
q0 19 10 41l-34 -30q-60 -56 -101 -121q-40 -63 -52 -125q-7 -24 -5 -35q5 -32 32 -32z" />
    <glyph glyph-name="one" unicode="1" horiz-adv-x="313" 
d="M-11 0q-5 0 -7.5 4t-0.5 9q123 214 306 422l-196 -102q-1 -1 -4 -1q-9 0 -9 9q0 4 5 7l237 123q2 1 5 1q5 0 7 -5t-1 -9q-201 -220 -335 -454q-3 -4 -7 -4z" />
    <glyph glyph-name="two" unicode="2" horiz-adv-x="386" 
d="M209 -39q-37 0 -54 30q-4 7 -8.5 25t-11.5 27q-20 29 -57 29q-61 0 -121 -60l-22 -20q-2 -2 -5 -2q-7 0 -9 8q-1 5 -1 16q0 80 94 147q29 21 61.5 36.5t87 36t66.5 25.5q91 40 130 84q29 32 29 64q0 14 -17 30q-17 14 -41 14q-25 0 -57 -16q-64 -31 -109 -76
q-21 -18 -24 -29q-4 -15 -4 -26q0 -27 24 -27q21 0 42 13q28 15 63 53q3 3 6 3q5 0 7.5 -5t-1.5 -10q-64 -71 -110 -71q-9 0 -20 3q-30 10 -30 41q0 16 9 34q23 49 126 106q50 26 87 26q26 0 43 -12q24 -17 24 -49q0 -83 -142 -152q-28 -13 -94 -39t-100 -43
q-121 -64 -132 -147q89 59 140 59q15 0 33 -5q33 -8 46 -35q3 -7 6 -21.5t8 -25t15 -16.5t23 -6q25 0 50 17q1 1 4 1q9 0 9 -9q0 -4 -5 -7q-28 -19 -58 -19z" />
    <glyph glyph-name="three" unicode="3" horiz-adv-x="471" 
d="M53 6q-20 0 -33 4q-17 3 -31 14q-22 16 -22 38q0 5 2 13q5 26 32 50.5t53 31.5h5q6 -2 6 -10q0 -5 -6 -7q-23 -6 -45.5 -23.5t-27.5 -39.5q-1 -2 -1 -8q0 -8 3 -16q3 -15 31 -24q16 -4 36 -4q37 0 91 15q47 13 112 56q3 2 13 9.5t13.5 10t11.5 9t12 11t10 11t10 13
t8 13.5q7 16 9 26q3 12 3 24q0 43 -32 51q-4 1 -12 1q-9 0 -21 -3q-4 0 -5 1q-5 1 -6 6t4 8q27 19 79 30q13 2 43 8q15 6 32.5 21t17.5 29q0 15 -25 26q-5 3 -12 3q-19 5 -48 5q-15 0 -37 -2q-22 -1 -42 -10q-30 -9 -40 -39q-2 -10 -2 -12q0 -13 10 -14q2 0 4 -0.5t4 -0.5
t8 2q6 3 7 3q12 -5 5 -15q-11 -14 -25 -14q-12 0 -20.5 12.5t-8.5 30.5q0 9 1 13q14 62 135 62q48 -3 62 -7q47 -11 47 -40q0 -6 -4 -18q-7 -19 -24.5 -32t-33 -17.5t-45 -11t-40.5 -9.5q41 -12 41 -66q0 -10 -4 -30q-6 -25 -18 -44q-27 -41 -112 -93q-43 -24 -79 -33
q-63 -18 -99 -18z" />
    <glyph glyph-name="four" unicode="4" horiz-adv-x="392" 
d="M21 -92q-5 0 -7.5 4t0.5 8l194 281q-10 7 -17 22.5t-11 20.5q-17 24 -41 24q-23 0 -54 -22q-8 -7 -31 -26q-4 -2 -5 -2q-6 0 -8.5 5t1.5 9q21 19 34 28l205 166q4 2 6 2q6 0 8.5 -5t-2.5 -9l-155 -126q3 1 9 1q14 0 25 -7q4 -2 7.5 -5t6 -6.5t4 -6.5t4 -8.5t3.5 -7.5
q3 -22 20 -33l183 264q3 4 7 4q5 0 8 -4t0 -8l-181 -262q6 -1 17 -1q13 0 25 3q25 4 66 24l1 1h2q7 0 10 -6.5t-4 -9.5q-67 -30 -101 -30q-15 0 -27 4l-195 -282q-3 -4 -7 -4z" />
    <glyph glyph-name="five" unicode="5" horiz-adv-x="407" 
d="M65 -21q-42 0 -71 18q-19 11 -29 30.5t-10 39.5q0 23 15.5 39t43.5 16q9 0 9 -9q0 -8 -10 -8q-42 0 -42 -42q0 -22 14 -39q22 -26 76 -26q27 0 75 12q80 21 144 76q94 80 94 146q0 72 -74 72q-43 0 -108 -24q-2 -1 -5 -1q-5 1 -7 5.5t2 9.5l159 168q3 7 9 1q18 2 51 5.5
t47 5.5h2q7 0 7 -8t-6 -8l-99 -12h-3l-130 -139q42 14 78 14q77 0 92 -66q2 -11 2 -30q-3 -50 -44.5 -98.5t-92.5 -81.5q-100 -66 -189 -66z" />
    <glyph glyph-name="six" unicode="6" horiz-adv-x="472" 
d="M119 0q-43 -1 -71 20.5t-29 67.5v7q0 6 1 9q6 60 55 125.5t120 120t144.5 98t141.5 71.5h2q8 0 8 -6q0 -7 -5 -10q-161 -67 -294 -180.5t-151 -200.5q-4 -11 -4 -26q0 -56 40 -74q18 -9 39 -9q25 0 57 13q73 27 149 107q45 49 45 84q-1 50 -55 50h-4q-9 0 -27 -4
q-140 -44 -180 -86q-4 -2 -6 -2q-6 0 -8 5t2 10q28 28 87 54t112 38q21 3 25 3q52 0 66 -35q8 -18 8 -33q0 -54 -60.5 -109.5t-120.5 -84.5q-41 -20 -81 -22q-3 -1 -6 -1z" />
    <glyph glyph-name="seven" unicode="7" horiz-adv-x="354" 
d="M-67 -106q-6 0 -9 3.5t0 9.5q40 76 88.5 144t105 129t99.5 101.5t107 97.5q-45 -12 -76 -12q-95 0 -151 61q-7 -61 -69 -99q-2 -1 -5 -1q-7 2 -7 9q0 5 4 8q58 35 61 92v14q0 6 4.5 8.5t9.5 -2.5q54 -73 151 -73q54 0 116 26q50 37 91 56h4q6 0 8 -5t-3 -9
q-39 -33 -90 -56q-129 -97 -242 -224.5t-192 -273.5q-4 -4 -5 -4z" />
    <glyph glyph-name="eight" unicode="8" horiz-adv-x="538" 
d="M71 -58q-34 0 -56 32q-17 24 -17 53q0 38 33.5 84t66.5 74.5t71 57.5q7 5 10 7q38 31 97 70q10 55 47.5 104t86.5 49q18 0 35 -7q5 -2 5 -8q0 -12 -10 -9q-13 5 -25 5q-26 0 -51 -17t-42 -41q-18 -28 -26 -63q131 83 270 138l1 1h2q7 0 7 -9q-2 -6 -6 -8
q-143 -57 -278 -145q-2 -13 -4 -41q-2 -46 -4 -68t-10.5 -57t-24.5 -64q-23 -42 -77.5 -90t-100.5 -48zM75 -35q14 0 31 5q47 16 86 59t59 94q10 26 14 54t5 65.5t3 54.5q-10 -6 -27.5 -19t-21.5 -15q-108 -79 -156 -134q-49 -57 -49 -106q0 -29 16 -43.5t40 -14.5z" />
    <glyph glyph-name="nine" unicode="9" horiz-adv-x="411" 
d="M-75 -85q-7 0 -7 9q2 6 6 8q113 45 214 108.5t173 139t87 142.5q4 22 4 33q0 49 -39 68q-18 9 -39 9q-22 0 -58 -12q-73 -26 -150 -105q-46 -46 -46 -83q0 -51 54 -51q18 0 31 4q137 38 181 82q3 3 6 3q6 0 8.5 -5t-1.5 -10q-29 -28 -88.5 -53t-112.5 -36q-16 -2 -25 -2
q-52 0 -66 35q-7 15 -7 32q0 54 62 109.5t121 83.5q42 19 83 21h5q43 0 71 -22t28 -67q0 -11 -1 -17q-8 -63 -60 -130.5t-128 -123t-153.5 -98.5t-149.5 -71h-1q-1 -1 -2 -1z" />
    <glyph glyph-name="colon" unicode=":" horiz-adv-x="200" 
d="M91 98q-4 0 -7 4t-1 9l1 4q3 4 7 4t7 -4t1 -9l-2 -4q-1 -4 -6 -4zM58 0q-11 0 -8 11q1 1 1.5 4t0.5 4q2 6 8 6q4 0 7 -3t2 -7l-3 -9q-2 -6 -8 -6z" />
    <glyph glyph-name="semicolon" unicode=";" horiz-adv-x="157" 
d="M98 107q-4 0 -7 3t-2 7q0 1 1 3v1q1 7 8 7q5 0 7.5 -3.5t1.5 -7.5q-1 -1 -1 -4q-2 -6 -8 -6zM9 -82q-6 0 -8.5 6t3.5 10q54 35 69 93q1 7 8 7q4 0 7 -3.5t2 -7.5q-16 -65 -77 -104q-1 -1 -4 -1z" />
    <glyph glyph-name="less" unicode="&#x3c;" horiz-adv-x="324" 
d="M81 -38l-51 101q-1 1 -1 3q-6 1 -8 5.5t3 8.5l235 187q4 2 6 2q6 0 8.5 -4.5t-2.5 -9.5l-228 -181l2 -3l51 -101v-1q1 -1 1 -2q0 -6 -6.5 -8.5t-9.5 3.5z" />
    <glyph glyph-name="equal" unicode="=" horiz-adv-x="359" 
d="M67 119q-7 1 -20 1q-8 2 -8 9q0 8 8 8q53 2 155 4q7 0 7 -6q0 -10 -8 -11zM8 44q-8 0 -8 9q0 8 8 8l136 9q7 0 7 -6q0 -10 -8 -11z" />
    <glyph glyph-name="greater" unicode="&#x3e;" horiz-adv-x="230" 
d="M-16 -74q-5 0 -7.5 5t1.5 10q16 14 56.5 46t73.5 59.5t44 41.5l-94 129q-1 1 -1 4q0 6 6 8.5t10 -3.5l102 -140q3 -4 -36 -36.5t-89.5 -72.5t-59.5 -48q-3 -3 -6 -3z" />
    <glyph glyph-name="question" unicode="?" horiz-adv-x="485" 
d="M114 84q-5 0 -8 4t0 9q63 99 113 138q47 37 156 70q81 25 115 66q27 31 27 59q0 7 -2 11q-10 33 -60 33q-68 0 -139 -44q-34 -21 -58 -45q-32 -31 -32 -55q0 -16 17 -37q3 -5 3 -8q0 -11 -10 -8q-33 11 -33 44q0 14 5 25q20 53 106 102q77 45 146 45q60 0 72 -47
q3 -12 3 -22q0 -28 -18 -52.5t-47.5 -41.5t-56 -28t-53.5 -19q-95 -29 -145 -73q-44 -41 -94 -122q-1 -4 -7 -4zM59 0q-11 0 -9 11l1 4q3 6 8 6q12 0 9 -11l-1 -4q-1 -6 -8 -6z" />
    <glyph glyph-name="at" unicode="@" horiz-adv-x="935" 
d="M253 -40q-30 0 -56 10q-33 13 -51.5 40t-18.5 61q0 21 5 36q44 153 311 248q118 43 230 43q131 2 182 -41q30 -26 30 -58q0 -37 -41.5 -81.5t-82.5 -71.5t-77 -45q-94 -48 -145 -48q-22 0 -40 7q-40 18 -42 56q-77 -61 -137 -61q-19 0 -33 5q-34 11 -34 42q0 28 28 53
q35 32 85 57t92 25q12 0 17 -1q15 -2 24.5 -13.5t9.5 -25.5q0 -22 -22 -31h-1l-2 -1q-4 0 -6.5 3.5t-1.5 7.5q0 5 6 8q8 9 8 18q0 15 -29 16q-20 -2 -28 -5q-23 -5 -55 -19q-64 -33 -84 -53q-17 -19 -22 -31q-1 -3 -1 -8q0 -26 47 -26q22 0 39 6q59 20 113 69q2 2 6 2
q5 0 8 -4.5t0 -8.5v-1l-1 -1l-1 -1q-7 -11 -7 -22q1 -19 23.5 -30t47.5 -11q15 0 47 10q52 16 95 40q93 50 150 113q24 27 24 57q0 50 -56 68q-28 11 -93 17q-11 1 -34 1q-76 0 -162 -21q-235 -60 -331 -189q-42 -54 -42 -99q0 -42 33.5 -67.5t77.5 -25.5q28 0 57.5 8.5
t69.5 25.5t53 22h1l2 1q9 0 9 -10q-2 -5 -7 -8q-11 -4 -55 -22.5t-73.5 -26.5t-58.5 -8z" />
    <glyph glyph-name="A" unicode="A" horiz-adv-x="972" 
d="M559 -243q-18 0 -31 8q-24 14 -27 80q0 20 5 45.5t10 42t15.5 47.5t13.5 41q38 113 91 238q-67 -93 -158 -160.5t-196 -97.5q-47 -14 -87 -14q-82 0 -121 58q-24 37 -24 84q0 70 48 156q63 114 170 195t236 118q62 18 105 18q44 0 74 -19q36 -23 47 -58q5 -14 5 -30
q0 -25 -32 -73q-3 -4 -8 -4t-8 4t0 9q29 40 29 71q0 28 -21 49q-31 31 -88 31q-63 0 -151 -33q-112 -43 -202 -115.5t-141 -170.5q-46 -90 -46 -152q0 -65 49 -96q38 -25 87 -25q65 0 159 47q111 54 197 143.5t138 202.5q3 4 7 4t7.5 -4t1.5 -9q-98 -216 -140 -340
q-35 -100 -50 -176q-3 -10 -3 -28v-3q0 -65 38 -65q4 0 14 2q33 10 61 33t67 69.5t46 53.5q40 41 120 116t95 82q3 2 7 -2q8 -8 2 -12q-11 -8 -35 -30t-57.5 -53.5t-37.5 -35.5q-73 -68 -139 -142q-60 -67 -96 -86q-25 -14 -46 -14z" />
    <glyph glyph-name="B" unicode="B" horiz-adv-x="747" 
d="M-6 -122q-24 0 -24 27q0 48 82 163q98 140 167 221q43 104 52 135q14 44 14 74q0 36 -22.5 58.5t-55.5 22.5q-9 0 -15 -1q-10 0 -10 11q0 6 7 7q5 1 16 1q37 0 65 -23.5t32 -60.5q0 -3 0.5 -8.5t0.5 -8.5q0 -65 -43 -160q52 57 97 97q188 171 290 171q50 0 81 -39
q19 -23 19 -50q0 -48 -54 -94.5t-106 -65.5q-5 -3 -12 -5q28 -15 47 -31q59 -53 59 -141q0 -102 -68.5 -183.5t-168.5 -104.5q-23 -6 -47 -6h-5q-77 0 -134 46t-57 119q0 22 4 39q1 7 8 7q12 0 10 -12q-4 -22 -4 -32q0 -50 32 -90t82 -54q25 -6 51 -6q74 0 149 46
q56 36 94 99.5t38 129.5q0 47 -22 88q-28 54 -96 76q-40 -12 -61 -12q-12 0 -20 3q-13 6 -13 13q0 8 10 15.5t21 9.5q30 3 63 -8q64 18 113 51.5t63 84.5q3 12 3 22q0 30 -24 45t-59 15q-28 0 -49 -7q-75 -26 -164 -99q-108 -88 -192 -186l-16 -37q-61 -150 -112 -238
q-1 -1 -7.5 -13t-11 -19.5t-13 -21t-15.5 -23.5t-16.5 -21.5t-17.5 -18.5t-17.5 -12t-17.5 -5zM0 -99q6 4 20 16q19 17 49 64q58 87 129 257q-102 -128 -156 -216q-34 -56 -47 -92q-5 -17 -5 -23q0 -10 10 -6z" />
    <glyph glyph-name="C" unicode="C" horiz-adv-x="609" 
d="M214 -97q-61 0 -103 31q-62 47 -62 151q0 23 3 42q14 113 95 223q76 103 183.5 182t218.5 93q18 2 26 2q84 0 99 -72q3 -17 3 -34q0 -63 -37 -128q-3 -4 -7 -4q-5 0 -8.5 4.5t-0.5 8.5q37 62 37 122q0 46 -27 68q-23 20 -62 20q-73 0 -192 -73q-103 -63 -182.5 -153
t-112.5 -194q-18 -58 -18 -109q0 -73 35 -115q39 -47 113 -47q35 0 74 12q25 9 92.5 48t114.5 44q1 0 5.5 0.5t6.5 0.5q11 0 14 -9v-4q0 -8 -9 -8q-1 0 -4 0.5t-5 0.5q-14 0 -38 -6q-40 -10 -72 -30q-4 -2 -26 -15.5t-30 -18t-25 -12t-31 -11.5q-37 -10 -68 -10z" />
    <glyph glyph-name="D" unicode="D" horiz-adv-x="1032" 
d="M406 -179q-54 0 -97 14q-62 21 -119 76q-12 12 -29 22l-27 -27q-52 -52 -81 -52q-9 0 -16 3q-32 13 -32 41q0 5 1 8q7 34 31 50.5t57 16.5t65 -16l29 30q78 85 132 149q132 157 260 334q3 4 7 4q5 0 8 -4t0 -9q-104 -145 -189 -248q-115 -143 -231 -265q12 -8 53.5 -45
t73.5 -47q56 -17 110 -17q34 0 67 6q189 35 324 184q64 71 105.5 155t41.5 167q0 11 -2 33q-12 99 -90.5 156t-182.5 53q-91 -4 -177.5 -44.5t-152.5 -106.5q-3 -3 -6 -3q-5 0 -7.5 5.5t1.5 9.5q82 84 185 122q85 33 167 33q71 0 135 -26q62 -26 102 -79.5t44 -119.5
q1 -8 1 -24q0 -152 -105.5 -291.5t-251.5 -201.5q-107 -46 -204 -46zM51 -127q19 0 32 12q18 12 38 33l24 24q-32 17 -60 17q-26 0 -41 -18q-20 -15 -20 -33q0 -17 17 -34q3 -1 10 -1z" />
    <glyph glyph-name="E" unicode="E" horiz-adv-x="851" 
d="M247 -153q-82 0 -152 41t-86 116q-5 20 -5 49q0 64 33 123.5t88 99.5q91 65 147 86l31 12q-26 18 -35 53q-2 8 -2 23q0 77 93 130t203 53h12q81 -3 132.5 -40.5t51.5 -109.5q0 -16 -1 -24q0 -9 -10 -9q-8 0 -8 9q2 16 2 24q0 68 -50.5 101.5t-128.5 33.5
q-85 0 -164.5 -36t-105.5 -90q-9 -20 -9 -38q0 -48 44 -72q31 11 61 11q22 0 42 -7q6 -3 6 -9q0 -4 -4 -7q-29 -17 -63 -17q-26 0 -47 10l-57 -22q-45 -18 -120 -72q-53 -38 -90 -96t-37 -118q0 -28 11 -58q48 -126 231 -126q112 0 251 43.5t262 109.5q1 1 4 1q7 0 7 -8
q0 -5 -4 -8q-109 -69 -270 -115.5t-263 -46.5zM371 370q14 0 29 5q-22 1 -45 -3q10 -2 16 -2z" />
    <glyph glyph-name="F" unicode="F" horiz-adv-x="593" 
d="M29 -348q-4 0 -7 4t-1 9l280 493h-57q-8 0 -8 9q0 8 8 8h66l98 178l49 91q-3 0 -9 -0.5t-9 -0.5t-9 0.5t-9 0.5q-147 11 -205 94q-43 62 -43 141q0 45 14 93q1 7 8 7q5 0 7.5 -3.5t1.5 -7.5q-14 -45 -14 -91q0 -91 54 -145q74 -76 212 -71q4 1 12 1q44 76 94 121
q24 22 60.5 43t67.5 21q23 0 38 -14t15 -33q0 -42 -70 -88q-86 -58 -194 -67l-21 -37l-124 -224q-4 -6 -5 -9h15q8 0 8 -8q0 -9 -8 -9h-25l-283 -502q-3 -4 -7 -4zM491 464q123 15 203 85q11 10 21 27t10 30q0 20 -28 20q-53 0 -99 -36q-58 -45 -107 -126z" />
    <glyph glyph-name="G" unicode="G" horiz-adv-x="725" 
d="M267 -329q-14 0 -25 12q-12 12 -12 28q0 46 90 121q44 41 88 72l1 2l1 2q8 17 28.5 65t32.5 73q-113 -105 -209 -105q-38 0 -76 16q-90 40 -90 158q0 56 22 117q63 173 262 300q82 53 169 81q60 20 105 20t73 -20q35 -24 35 -77q0 -65 -46 -148q-1 -4 -6 -4t-8 5t0 10
q41 76 41 134q0 81 -90 81q-48 0 -112 -22q-94 -32 -180 -93t-150 -140q-39 -50 -70 -119.5t-31 -131.5q0 -82 62 -123q41 -27 88 -27q104 0 240 143q4 2 5 2q5 0 8 -4.5t0 -9.5q-37 -66 -82 -170q60 40 126 56h2q8 0 8 -9q-2 -7 -7 -8q-70 -17 -143 -70q-32 -72 -40 -88
q-62 -129 -110 -129zM268 -306q6 0 17 6q35 20 72 99l33 69q-28 -22 -41 -34q-50 -44 -71 -69q-21 -28 -25 -39q-2 -5 -2 -14q0 -18 17 -18z" />
    <glyph glyph-name="H" unicode="H" horiz-adv-x="912" 
d="M10 -268q-5 0 -8 4t-1 9l110 196l-7 4q-29 19 -29 60q0 6 2 18q8 44 79 72q24 9 47 10l273 488q3 4 7 4q6 0 9 -4t0 -9l-267 -477q63 1 129.5 -23t110.5 -65q21 11 39 17q45 19 89 30l292 531q3 5 8 5t8 -4.5t0 -9.5l-285 -517q83 18 167 18q57 0 107 -7q8 0 8 -10
q0 -8 -8 -8q-51 6 -99 6q-97 0 -189 -24l-95 -174q-11 -26 -25 -45q-3 -4 -8 -4t-8 4t0 9l26 47q5 17 5 29q0 21 -10 42q-11 22 -26 40q-28 -12 -63 -32q-94 -52 -175 -52q-51 0 -96 22l-110 -196q-3 -4 -7 -4zM228 -70q19 0 39.5 4t35.5 8.5t37.5 14.5t34.5 15.5t37 19
t35 18.5q-16 16 -25 23q-56 44 -153 53q-22 2 -33 2q-4 0 -11 -0.5t-11 -0.5l-78 -138l18 -6q38 -13 74 -13zM120 -43l72 128q-33 -7 -58 -21q-40 -24 -40 -57q0 -8 3 -19q5 -21 23 -31zM514 -76l64 115q-51 -15 -98 -36q31 -37 34 -79z" />
    <glyph glyph-name="I" unicode="I" horiz-adv-x="684" 
d="M70 -258q-71 0 -94 55v1l-1 2q0 7 6.5 10t9.5 -4q21 -50 71 -50q44 0 98.5 34.5t87.5 69.5q87 94 158 225q18 33 88.5 172t115.5 209q-106 -52 -220 -64q-7 0 -7 9t8 9q122 12 231 72q2 0 4 2t4 2q12 18 28 41q48 62 78 91q2 2 13 13.5t18 18.5t18 14t19 7q30 0 30 -22
q0 -27 -37 -61q-71 -68 -153 -114q-59 -87 -132 -232q-94 -190 -141 -263q-53 -83 -111 -142q-87 -90 -172 -104q-6 -1 -18 -1zM670 520q44 29 60 42q22 18 44 38q2 1 9 7t12 10t11.5 11.5t7 12t-1.5 10.5q-4 5 -10 5q-9 0 -22 -10q-19 -14 -41 -41q-26 -28 -38 -43l-18 -23
q-10 -17 -13 -19z" />
    <glyph glyph-name="J" unicode="J" horiz-adv-x="737" 
d="M86 -240q-29 0 -47.5 15.5t-18.5 49.5q0 43 47 106q55 72 110 120q161 147 358 208q31 47 60 96q117 196 167 339l6 20q2 14 2 18q0 45 -56 45q-59 0 -131 -37q-117 -62 -222.5 -160.5t-176.5 -212.5q-3 -4 -7 -4q-5 0 -8 4t0 9q97 155 270 290q49 38 82.5 61t87 46
t99.5 23q79 0 79 -59q0 -31 -23 -85q-73 -173 -161 -319l-42 -66q97 26 197 29q7 0 7 -6q0 -11 -8 -11q-110 -5 -210 -34q-81 -121 -150 -205q-57 -72 -126 -145q-8 -9 -26 -29t-29 -32.5t-28 -27.5t-32 -25q-33 -21 -70 -21zM91 -225q10 0 19 3q21 6 44 23t36 30t37.5 41
t31.5 35q69 76 117 134q73 90 144 196l-25 -9q-177 -67 -306 -189q-82 -76 -124 -141q-29 -42 -29 -70q0 -9 3 -18q14 -35 52 -35z" />
    <glyph glyph-name="K" unicode="K" horiz-adv-x="727" 
d="M804 -209q-8 0 -16 2q-216 31 -320 171q-13 17 -24 35t-22.5 40t-18 35.5t-19.5 42t-18 38.5q-24 50 -54 90q-55 -39 -83 -42q-17 0 -28 4l-178 -318q-3 -4 -7 -4q-6 0 -9 4t0 9l179 319q-15 13 -15 37q0 28 19.5 46.5t46.5 15.5l4 -1l241 431q3 4 7 4q5 0 8 -4t1 -9
l-239 -427q29 -10 56 -40l3 2q19 13 89.5 58.5t106.5 75.5q179 145 297 350q3 4 7 4q5 0 8 -4t0 -9q-151 -263 -394 -424q-15 -10 -51 -32t-54 -35q29 -38 48 -79q8 -17 29 -61t32.5 -66t32.5 -55t44 -58q90 -96 271 -125q1 0 6.5 -1t11.5 -2.5t10 -3.5q12 -4 1 -12
q-2 -2 -9 -2zM196 235q24 44 37 66q-17 -2 -29 -12q-16 -13 -16 -32q0 -12 8 -22zM227 222q28 0 73 37q-27 30 -49 38l-41 -73q10 -2 17 -2z" />
    <glyph glyph-name="L" unicode="L" horiz-adv-x="769" 
d="M496 -128q-189 0 -324 115l-13 10q-2 -3 -9.5 -14t-11 -15t-10.5 -13t-12 -13.5t-12.5 -10t-15.5 -9.5q-15 -7 -29 -7q-19 0 -29 14t-10 35q0 28 20 51t54 23q32 0 61 -17q286 399 453 692q3 4 7 4q5 0 8 -4t0 -9q-11 -19 -45 -77q-114 -187 -300 -458l-109 -158
q8 -4 16 -12q70 -62 149 -86q80 -24 160 -24q105 0 214 38h3q8 0 8 -8t-6 -9q-112 -38 -217 -38zM60 -71q26 0 71 59q5 6 13 18q-25 15 -50 15q-28 0 -44 -20q-15 -19 -15 -41q0 -11 6 -20q7 -11 19 -11z" />
    <glyph glyph-name="M" unicode="M" horiz-adv-x="1278" 
d="M60 -154q-9 0 -9 10q0 4 4 7q8 5 16.5 11.5t14.5 12t15 15.5t13 14.5t13.5 17t11.5 16t12 17.5t11 15q31 42 143 209q6 9 37 57t40.5 62.5t36.5 55t41.5 61.5t37.5 54.5t43.5 60.5t41.5 54q77 98 133 145q1 1 11.5 9.5t16.5 12.5q41 27 76 27q81 0 81 -104
q0 -147 -161 -493q7 5 34.5 25.5t37 27.5t34 25.5t36 28.5t32.5 27t35 30t30.5 29t31.5 32q21 23 44 52.5t36.5 48.5t39.5 58.5t35 52.5q3 4 7 4q5 0 8 -4t0 -9q-8 -15 -25.5 -46.5t-27.5 -50.5t-22.5 -46.5t-20.5 -52.5q-1 -4 -11.5 -37.5t-13 -42.5t-11 -38t-11.5 -43
t-7.5 -38t-6 -44t-1.5 -40q0 -22 3 -44q6 -56 34 -100.5t76 -63.5q33 -13 73 -16q13 -1 38 -1h16q10 0 12 -2q4 -4 2 -10q-3 -6 -29 -6l-41 3q-57 7 -99 29q-47 26 -73 73q-11 20 -17 42q-13 45 -13 94q0 27 3 54t11 60t12.5 50.5t16.5 58.5t15 51q11 35 27 73
q-29 -42 -66 -82q-21 -23 -47 -47t-46.5 -41.5t-53.5 -43t-49.5 -38t-55.5 -41t-51 -37.5q-4 -2 -5 -2q-4 0 -6.5 4.5t-0.5 9.5t17.5 39t19 41.5t17 38t18 41.5t16.5 39t17 42t14 39t14.5 43t12 40t11.5 43q18 77 18 109q0 40 -16 64t-46 24q-32 0 -67 -24
q-25 -17 -51.5 -41t-44 -42t-44.5 -53.5t-37 -49t-40 -56.5t-35 -50l-255 -383q-56 -84 -105 -147q-51 -63 -79 -79q-1 -1 -4 -1z" />
    <glyph glyph-name="N" unicode="N" horiz-adv-x="652" 
d="M-212 -215q-6 0 -9 5.5t2 10.5q56 50 112.5 119t91 120.5t91.5 142t84 130.5q80 119 152 203q22 24 35.5 37.5t40 30t48.5 16.5q60 0 60 -91q0 -18 -2 -42q-9 -89 -46 -214q50 72 97.5 126.5t108.5 106t132 79t149 27.5q19 0 28 -1q9 0 9 -10q0 -8 -9 -8q-9 1 -27 1
q-66 0 -129.5 -23t-113 -57.5t-100.5 -88t-86.5 -101t-77.5 -110.5q-49 -151 -107 -273q-2 -3 -13 -28t-19 -41.5t-22.5 -33.5t-27.5 -18t-18.5 5.5t-5.5 19.5q0 35 29 93q47 101 154 263q4 7 14 21q11 33 25 82q40 140 40 219q0 54 -16 70q-11 10 -26 10q-44 0 -107 -76
q-64 -73 -135 -178.5t-122.5 -191t-126 -183.5t-151.5 -166q-3 -3 -6 -3zM234 -176q2 -4 4.5 -4t5.5 3t5.5 6t6 8.5t4.5 7.5q40 60 90 186q21 49 39 102q-89 -139 -128 -224q-29 -54 -29 -75q0 -4 2 -10z" />
    <glyph glyph-name="O" unicode="O" horiz-adv-x="795" 
d="M176 -118q-47 0 -80 26q-46 37 -46 104q0 64 37 136q28 57 71 104q-1 8 -1 23q0 60 31 117q76 137 249 243q118 72 213 72q43 0 81 -14q92 -34 92 -130q0 -84 -58.5 -189.5t-121.5 -181.5q-45 -54 -97 -103q10 2 15 4q62 18 134.5 51t112.5 55.5t125 71.5q1 1 4 1
q8 0 8 -9q0 -4 -4 -7q-5 -3 -47 -28t-52.5 -30.5t-49 -27.5t-55.5 -29.5t-51.5 -24t-58 -24.5t-53.5 -17t-58 -14q-59 -52 -129 -97q-132 -82 -211 -82zM416 71q43 0 95 10h1q147 134 227 284q64 121 64 187q0 60 -36.5 97t-95.5 40q-165 10 -359 -172q-140 -130 -140 -249
q60 64 139 107q2 1 5 1q8 0 8 -9q0 -4 -4 -7q-84 -45 -141 -110q-4 -4 -5 -6q5 -36 26 -69q65 -104 216 -104zM181 -97q124 0 303 153q-38 -4 -57 -4q-28 0 -63 5q-61 9 -111 39t-74 81q-12 25 -18 53q-63 -79 -83 -151q-9 -36 -9 -67q0 -91 71 -105q19 -4 41 -4z" />
    <glyph glyph-name="P" unicode="P" horiz-adv-x="584" 
d="M24 -68q-9 0 -16 7q-8 7 -8 22q0 11 4.5 25t12.5 30t14.5 27t15.5 25t10 16q83 133 195 265l18 43q39 97 44 144q4 40 -17 68.5t-59 28.5q-9 0 -14 -1h-2q-9 0 -9 10q0 5 7 7q6 1 17 1q55 0 83 -43q14 -22 14 -55q0 -40 -25 -110l-18 -48q45 52 71.5 80.5t70.5 68
t86 64.5q82 49 149 49q60 0 94 -42q22 -28 22 -61q0 -38 -24.5 -75t-59.5 -58q-64 -40 -196 -48h-10q-11 -1 -19 -1q-67 0 -62 22l4 8q3 4 8 4t8 -4.5t0 -8.5q38 -2 56 -2q29 0 81 6q138 16 181 103q13 25 13 52q0 50 -45 75q-21 12 -53 12q-37 0 -75 -15q-98 -37 -212 -159
q-72 -78 -106 -119q-56 -141 -115 -250q0 -1 -6 -11t-10.5 -18t-13 -22t-16 -25.5t-17 -25t-18.5 -24t-18.5 -19.5t-18 -13.5t-16.5 -4.5zM25 -47q8 0 26 17q55 51 123 198q16 34 56 126q-90 -110 -157 -219q-22 -37 -34 -63q-13 -29 -16 -40q-2 -10 -2 -12q0 -7 4 -7z" />
    <glyph glyph-name="Q" unicode="Q" horiz-adv-x="843" 
d="M381 -128q-81 0 -160 34l-15 6l-15 6q-27 -2 -51 4q-34 8 -54 27q-3 0 -8.5 0.5t-7.5 0.5q-66 0 -94 -56q-3 -4 -7 -4q-5 0 -8 4t-1 10q35 66 109 64q-22 32 -22 82q0 54 24 111q32 74 85 135q0 3 -0.5 9t-0.5 9q0 93 74 188q63 80 150.5 145.5t178.5 96.5q52 18 106 18
q116 0 156 -81q17 -34 17 -76q0 -93 -97 -252q-75 -122 -185 -226q31 8 78 25q17 6 34.5 13.5t31.5 13t34 15.5t30.5 15t33.5 17.5t30 16.5t32.5 18.5t30 17t32.5 19t30 17.5t4 1q9 0 9 -10q0 -4 -4 -7q-181 -105 -261 -140q-91 -40 -172 -56l-51 -43q-45 -35 -76.5 -57
t-80.5 -47.5t-92 -33.5q49 -18 67 -22q41 -10 88 -10q91 0 174.5 40t140.5 112q3 3 6 3q5 0 7 -5t-1 -10q-59 -75 -146 -116.5t-183 -41.5zM422 109q45 0 100 10q146 131 237 305q58 110 58 186q0 88 -78 120q-35 15 -79 15q-103 0 -236 -91q-191 -132 -237 -261
q-15 -36 -13 -78q59 63 140 107q1 1 4 1q9 0 9 -10q0 -4 -4 -7q-84 -45 -148 -115q7 -51 37.5 -93t80.5 -64q57 -25 129 -25zM194 -64q59 6 132 46q88 47 170 115q-38 -5 -70 -5q-178 0 -245 120q-16 29 -22 60q-55 -66 -80 -141q-16 -50 -16 -84q0 -52 30 -81
q37 -6 101 -30z" />
    <glyph glyph-name="R" unicode="R" horiz-adv-x="725" 
d="M747 -324q-159 0 -202 101q-26 61 -26 149q0 43 8 124t9 115q0 7 1 26.5t1 30.5q0 38 -9 59q0 2 -10 9q-6 -1 -19 -1q-36 0 -41 16q-2 6 -2 9q0 21 37 21q21 0 29 -7q12 -8 17 -19q35 2 68 6q69 7 116 33q35 20 61 54t26 69q0 28 -19 51q-29 36 -80 36q-48 0 -114 -33
q-73 -37 -155 -121q-77 -81 -130 -145q-5 -10 -13 -30q-62 -153 -111 -239q-1 -1 -14 -24t-22.5 -38t-25 -35t-30 -31t-27.5 -11q-24 0 -24 26q0 45 77 158q106 151 175 236q14 31 38 95q24 70 24 104q0 11 -1 16q-3 29 -25.5 47.5t-51.5 18.5q-9 0 -13 -1h-2q-9 0 -9 10
q0 7 6 7q6 1 17 1q37 0 65 -23t31 -60q1 -6 1 -18q0 -57 -38 -148q63 73 121 127q53 50 121.5 91t128.5 41q58 0 95 -45q25 -31 25 -65q0 -56 -60 -105.5t-122 -61.5q-46 -8 -101 -10q10 -31 10 -74q0 -20 -2.5 -52.5t-2.5 -34.5q-1 -23 -7 -93t-6 -109q0 -57 9 -99
q18 -99 102 -124q34 -11 89 -11q6 0 17 0.5t17 0.5q81 3 264.5 26t281.5 23q31 0 46 -1q9 -2 9 -10t-7 -8q-8 0 -22 0.5t-22 0.5q-69 0 -144 -7t-170 -19t-143 -17q-96 -8 -120 -8zM484 310h1q-6 3 -10 3q1 0 5 -1zM70 -125q4 0 8 3q14 6 27.5 18.5t27 32.5t21 32.5t21 38.5
t15.5 30q30 56 80 172q1 1 1.5 3.5t0.5 3.5q-50 -63 -96 -129q-60 -88 -70 -105q-18 -30 -30 -58q-8 -22 -9 -25q-3 -10 -3 -15q0 -4 6 -2z" />
    <glyph glyph-name="S" unicode="S" horiz-adv-x="793" 
d="M127 -310q-36 0 -67 14q-40 18 -67.5 52.5t-27.5 73.5q0 34 23 64q23 31 58 51.5t80 30t77.5 13.5t82.5 6q20 1 59 1q29 0 43 -1q0 50 -13 105q-2 11 -27.5 102t-25.5 138q0 25 4 45q13 63 50 118.5t91 84.5q67 35 167 35q17 0 51 -2q133 -12 199 -58q4 -3 4 -7
q0 -6 -4 -8.5t-9 0.5q-15 11 -37 21q-93 38 -195 38q-50 0 -100 -11q-84 -19 -143.5 -90.5t-59.5 -157.5q0 -27 4.5 -52.5t16.5 -67t14 -50.5q27 -101 30 -161v-23q137 -6 271 -45q6 -1 6 -8q0 -12 -11 -9q-133 39 -266 46q-8 -130 -106 -215q-86 -73 -172 -73zM124 -290
q46 0 92 20t80 54q75 77 87 145q5 28 5 49q-13 1 -39 1q-21 0 -63 -2q-138 -8 -202 -34q-40 -16 -71 -48t-31 -69q0 -23 12 -43q42 -73 130 -73z" />
    <glyph glyph-name="T" unicode="T" horiz-adv-x="450" 
d="M30 -37q-5 0 -8 4.5t0 8.5l479 723q-239 -33 -451 -83h-2q-9 0 -9 8q0 5 4 8q16 10 23 15q4 2 5 2q7 0 7 -9q221 49 435 77l8 12q3 4 7 4q5 0 8 -4t0 -9q216 29 456 38q8 0 8 -8q0 -9 -8 -9q-236 -9 -468 -39l-487 -735q-3 -4 -7 -4z" />
    <glyph glyph-name="U" unicode="U" horiz-adv-x="894" 
d="M165 -172q-93 0 -137 55q-28 37 -28 81q0 37 19 77q22 45 61.5 90.5t76.5 77.5t87 75.5t79 73.5q56 55 73 101q7 21 7 38q0 26 -13.5 43t-40.5 17q-30 0 -68.5 -17.5t-60.5 -33t-59 -43.5q-4 -2 -6 -2q-6 0 -9 5.5t2 9.5q109 84 180 97q12 2 18 2q33 0 54.5 -21t21.5 -56
q0 -31 -18 -65t-36 -54.5t-48 -49.5l-153 -140q-42 -38 -63 -59t-48.5 -61.5t-35.5 -77.5q-3 -15 -3 -27q0 -54 44.5 -86t104.5 -32q128 1 241 73.5t224 190.5t206 255.5t197 312.5q3 4 7 4q5 0 8 -4t0 -9q-110 -189 -214 -337.5t-228 -273.5q-215 -215 -421 -229
q-4 0 -11 -0.5t-10 -0.5z" />
    <glyph glyph-name="V" unicode="V" horiz-adv-x="811" 
d="M-40 -104q-5 0 -8 4t0 9l267 381q15 22 53 77.5t67 95t58 74.5q-68 -3 -129 22q-6 3 -6 9q0 13 11 8q60 -24 127 -21q9 0 13 1l25 27q47 47 73 47q31 0 31 -27q0 -9 -7 -21q-20 -32 -104 -42q-2 0 -5.5 -1t-4.5 -1q-7 -8 -18.5 -23.5t-14.5 -19.5l-71 -99l-335 -476
q156 44 333.5 120t297.5 156q128 87 214 204t86 250q0 11 -2 35q0 7 7 7q11 0 11 -8q2 -24 2 -35q0 -127 -76.5 -240.5t-194.5 -201.5q-129 -94 -322.5 -177.5t-375.5 -133.5h-2zM438 559q24 4 38 8q17 5 31 13q10 10 10 18q0 14 -18 10q-7 -1 -15 -8q-21 -12 -46 -41z" />
    <glyph glyph-name="W" unicode="W" horiz-adv-x="815" 
d="M373 -107q-30 0 -54 10q-116 47 -116 235q0 36 3 69l-283 -183q-1 -1 -4 -1q-4 0 -6.5 3.5t-0.5 7.5l2 4l319 597q3 5 7 5t7 -3.5t1 -7.5l-308 -574l271 174q4 2 5 2q8 0 8 -11q-4 -48 -4 -81q0 -202 129 -227q13 -3 28 -3q63 0 134.5 47.5t127.5 117t93 151t37 146.5
q0 84 -52 151.5t-134 76.5q-7 0 -7 7q0 3 3 6t7 2q78 -9 132.5 -68.5t64.5 -139.5q2 -22 2 -32q0 -93 -65 -207t-163 -194t-184 -80z" />
    <glyph glyph-name="X" unicode="X" horiz-adv-x="997" 
d="M10 -146q-5 0 -7.5 4.5t1.5 8.5l408 342q3 92 47 183t117 196l-250 -55h-2q-7 0 -7 7q0 8 5 9l272 60q5 0 8 -4t0 -8q-76 -106 -121 -194t-51 -180l573 480q4 2 5 2q6 0 8 -4.5t-2 -9.5l-585 -490v-3q0 -59 18 -110q55 -159 255 -159q82 0 188 27h2q8 0 8 -8q0 -7 -6 -8
q-112 -28 -194 -28q-194 0 -259 148q-27 62 -29 127l-396 -331q-2 -2 -6 -2z" />
    <glyph glyph-name="Y" unicode="Y" horiz-adv-x="782" 
d="M108 -354q-10 0 -7 10q139 377 363 663q-87 -78 -166 -110q-28 -11 -55 -11q-40 0 -67 22t-27 65q0 36 17.5 77.5t35 68t46.5 63.5q30 39 63 75l16 18q26 30 26 54q0 20 -19 20q-27 0 -71.5 -31t-50.5 -53q-2 -6 -7 -6q-11 0 -8 10q7 26 56.5 62.5t83.5 36.5q33 0 33 -40
q0 -11 -3 -21t-11 -21.5t-12.5 -16.5t-17 -18.5t-14.5 -15.5q-78 -91 -114 -157q-34 -61 -34 -104q0 -31 20 -52q22 -22 55 -22q23 0 46 9q29 11 59.5 28.5t52.5 33.5t54 45t47 43.5t49 49t44 44.5q3 3 6 3q5 0 7.5 -5t-1.5 -9q-260 -275 -422 -642q71 108 171 195
q80 71 148 98q58 22 129 22q15 0 45 -2q8 0 8 -8t-8 -8q-30 2 -45 2q-71 0 -124 -21q-66 -27 -152 -103q-162 -144 -237 -336q-3 -5 -8 -5z" />
    <glyph glyph-name="Z" unicode="Z" horiz-adv-x="646" 
d="M80 -374q-16 0 -35 11q-25 16 -25 41q0 59 149 168q35 26 68 47q-3 39 -26 70t-60 39q-6 2 -6 8t4 7q187 90 318 240q65 73 114 163q51 92 51 158q0 16 -3 32q-9 45 -41.5 67t-76.5 22q-28 0 -52 -7q-77 -23 -172 -106q-158 -140 -227 -341q-3 -6 -8 -6q-11 0 -8 10
q67 196 217 335q144 133 251 133q69 0 101.5 -41t32.5 -103q0 -37 -11 -73q-43 -136 -187 -287q-121 -125 -274 -202q55 -22 73 -86q4 -13 5 -23q137 85 297 132h2q8 0 8 -9q-2 -6 -6 -7q-148 -43 -274 -118l-26 -15v-3q0 -50 -34 -122q-23 -47 -61 -90.5t-78 -43.5z
M77 -355q24 0 53 23q36 28 59 70q44 79 48 137q-130 -81 -179 -150q-16 -24 -16 -47q0 -33 35 -33z" />
    <glyph glyph-name="bracketleft" unicode="[" horiz-adv-x="503" 
d="M537 336q5 0 5 -9t-5 -9q-62 2 -92 2l-362 -303q47 0 71 -1q5 0 5 -9t-5 -9q-64 2 -95 2q-6 0 -8.5 5t2.5 9q2 2 4 3l381 319q1 0 1 1q1 0 3 1h1h1q15 0 46 -1t47 -1z" />
    <glyph glyph-name="backslash" unicode="\" horiz-adv-x="245" 
d="M206 -27q-6 0 -9 6l-166 473v3q0 8 8 8q7 0 8 -7l167 -473v-3q0 -7 -8 -7z" />
    <glyph glyph-name="bracketright" unicode="]" horiz-adv-x="503" 
d="M533 336q6 0 8.5 -5t-2.5 -9q-2 -2 -4 -3l-381 -319q-1 0 -1 -1q-1 0 -3 -1h-1h-1q-15 0 -46 1t-47 1q-5 0 -5 9t5 9q62 -2 92 -2l362 303q-47 0 -71 1q-5 0 -5 9t5 9q64 -2 95 -2z" />
    <glyph glyph-name="asciicircum" unicode="^" horiz-adv-x="306" 
d="M45 500q-8 0 -8 10q2 6 6 7q15 9 47 31.5t57 38t47 23.5h2q4 0 8 -4l46 -93q1 -1 1 -4q0 -9 -10 -9q-6 0 -7 4q-23 55 -31 68.5t-19 13.5q-7 0 -22 -9.5t-49.5 -33.5t-64.5 -43h-3z" />
    <glyph glyph-name="underscore" unicode="_" horiz-adv-x="293" 
d="M58 -52q-8 0 -8 8q0 9 8 9q118 2 177 4q8 0 8 -8t-8 -10z" />
    <glyph glyph-name="grave" unicode="`" horiz-adv-x="71" 
d="M54 522q-4 0 -5 3l-37 59q-1 1 -1 3q0 8 8 8q3 0 5 -3l36 -59q1 -2 1 -4q0 -7 -7 -7z" />
    <glyph glyph-name="a" unicode="a" horiz-adv-x="499" 
d="M63 0q-16 0 -31 6q-32 11 -32 40q0 27 27 51q34 30 81.5 54t88.5 24q10 0 15 -1q15 -2 24 -13t9 -24q0 -20 -21 -29q-1 -1 -3 -1q-8 0 -8 10q2 6 6 8q8 11 8 17q0 13 -28 15q-18 -2 -27 -4q-23 -5 -53 -19q-58 -29 -80 -50q-16 -16 -21 -30q-1 -3 -1 -8q0 -25 47 -25
q20 0 35 6q57 18 108 66q4 2 6 2q5 0 8 -4t0 -9q-10 -13 -10 -25q0 -18 21.5 -27.5t47.5 -9.5q3 0 9 0.5t8 0.5l34 9q54 18 81 28q89 33 174 79q1 1 4 1q9 0 9 -9q0 -4 -5 -7q-128 -73 -269 -112q-36 -10 -59 -10q-30 0 -50 16q-19 18 -21 44q-72 -60 -132 -60z" />
    <glyph glyph-name="b" unicode="b" horiz-adv-x="645" 
d="M152 -18q-44 0 -69.5 35.5t-23.5 110.5q-5 -4 -36 -24q-2 -1 -5 -1q-8 0 -8 9q0 4 4 7t14 8.5t18 11t15 13.5q3 28 14 76q42 171 135 300q57 78 110 127q3 2 13 12t14.5 14t14 12.5t16 12.5t15.5 9.5t17.5 9t17.5 5.5q13 3 26 3q40 0 57 -36q5 -12 5 -23q0 -32 -29 -77
q-156 -250 -409 -454q0 -139 81 -139q42 0 90.5 34.5t67.5 68.5q-27 25 -27 52q0 28 35 45q8 4 17 4q19 0 32 -19q5 -7 5 -21q0 -33 -29 -58l-4 -4q20 -10 31 -13q61 -16 115 -16q104 0 200 49q1 1 4 1q9 0 9 -10q0 -4 -5 -6q-101 -52 -211 -52q-72 0 -132 23q-11 4 -26 13
q-36 -50 -86 -81.5t-93 -31.5zM81 168q204 166 342 364q3 5 21.5 29.5t26.5 37t17 33.5t9 37q0 49 -35 49q-26 0 -62 -23t-58 -44q-104 -96 -168 -214q-71 -131 -93 -269zM331 116q15 12 22 24q8 11 8 23q0 17 -19 27q-15 -1 -24.5 -12.5t-9.5 -25.5q0 -18 15 -30q2 -2 8 -6
z" />
    <glyph glyph-name="c" unicode="c" horiz-adv-x="479" 
d="M59 0q-52 0 -59 44q-5 34 46 66q34 22 52.5 33t50.5 22.5t60 11.5t36 -18q4 -9 4 -19q0 -21 -21 -30h-1q-1 -1 -2 -1q-8 0 -8 10q2 6 6 8q8 11 8 17q0 14 -27 15q-18 -2 -28 -4q-34 -9 -52 -19q-80 -44 -102 -76q-5 -38 26 -41q3 0 9 -0.5t9 -0.5q12 0 24 3
q10 3 28.5 8.5t33.5 10t28 8.5q10 3 63.5 12t129.5 27.5t153 48.5l4 1q8 0 8 -7t-12 -12q-71 -27 -144.5 -45.5t-127 -27.5t-55.5 -9l-34 -12q-34 -12 -59 -18t-47 -6z" />
    <glyph glyph-name="d" unicode="d" horiz-adv-x="825" 
d="M41 -29q-41 0 -53 23q-6 12 -6 23q0 29 27 52q75 62 137 79q30 6 40 6q27 0 35 -18q5 -9 5 -21q0 -19 -20 -29h-1q-1 -1 -2 -1q-7 0 -7 9q0 8 5 10q7 8 7 16q0 13 -29 15q-8 -1 -27 -5q-36 -12 -53 -21q-57 -36 -71 -47q-26 -22 -26 -48q0 -20 22 -24q6 -1 16 -1
q16 0 29 4q12 5 91 31q56 22 106 58q1 7 23 67q84 209 178 342q2 4 22.5 37t35 54t38 41.5t43.5 20.5q9 0 14 -2q21 -7 21 -36q0 -40 -43 -123t-74 -128.5t-54 -77.5q-101 -144 -188 -209q-5 -48 35 -62q13 -5 32 -5q11 0 29 2q40 5 84.5 14.5t78 18t86 26.5t76.5 27
l84 31.5t77 28.5h2q9 0 9 -9q0 -8 -6 -9q-230 -84 -364 -120q-114 -27 -152 -28q-32 0 -53 10q-36 21 -38 61q-3 -2 -15.5 -10.5t-20.5 -11.5q-91 -47 -163 -59q-12 -2 -22 -2zM290 101q82 65 173 198q98 142 139 237q17 41 21 61q0 1 0.5 4t0.5 4q0 19 -17 19
q-19 0 -36 -19q-14 -15 -26.5 -32t-31 -44.5t-22.5 -33.5q-95 -134 -187 -356q0 -1 -6 -15.5t-8 -22.5z" />
    <glyph glyph-name="e" unicode="e" horiz-adv-x="522" 
d="M125 -32q-59 0 -91 26t-32 66q0 44 34 85q59 75 123 75q49 0 63 -29q3 -6 3 -13q0 -20 -20.5 -41t-39.5 -29q-39 -18 -80 -18q-29 0 -57 9h-1q-3 -7 -7 -21q-3 -14 -3 -25q0 -64 98 -64q60 0 141 21q149 36 328 139q2 1 4 1q6 0 8.5 -6.5t-3.5 -9.5q-189 -101 -272 -125
q-5 -2 -25 -7.5t-28.5 -8t-26.5 -7.5t-30 -7.5t-28 -5.5t-30 -4t-28 -1zM88 108q41 0 68 15q45 26 49 52q2 10 -7.5 17t-19.5 8.5t-19 1.5q-34 0 -68.5 -25.5t-55.5 -61.5q24 -7 53 -7z" />
    <glyph glyph-name="f" unicode="f" horiz-adv-x="740" 
d="M-268 -762q-8 0 -15 3q-43 14 -43 54q0 21 9 44t18.5 38t28 40t24.5 35l114 173l133 207q3 86 -16 168v2q0 9 8 9q47 -3 92 -3h30l88 131q0 3 3 4q64 97 124 177q52 71 77.5 103.5t74 86.5t93.5 89q30 24 62 24q18 0 29 -10q23 -22 23 -53q0 -19 -8 -38
q-60 -139 -185.5 -242.5t-276.5 -149.5l-79 -122q143 3 295 28q97 16 143.5 25t114 30.5t134.5 53.5q1 1 4 1q6 0 8.5 -6.5t-3.5 -9.5q-97 -47 -180 -68.5t-216 -42.5q-172 -27 -312 -28q-30 -48 -46 -71l-63 -97q-6 -139 -61.5 -276t-146.5 -256q-43 -53 -79 -53zM235 153
q162 56 276 165q73 72 116 141q35 56 39 69q5 15 5 25q0 21 -13.5 34.5t-31.5 13.5q-16 0 -29 -9q-25 -17 -40 -33q-147 -143 -322 -406zM19 -140l85 130q-51 0 -100 3q15 -66 15 -133zM-272 -744q27 0 53 28q11 12 31 38q167 229 187 472l-154 -235l-114 -173
q-2 -3 -9.5 -14t-11.5 -17.5t-9 -16.5t-7.5 -18.5t-2.5 -17.5q0 -8 3 -17q11 -29 34 -29z" />
    <glyph glyph-name="g" unicode="g" horiz-adv-x="633" 
d="M-376 -646q-62 -4 -62 61q0 46 27 105q34 72 90.5 136.5t129 118t138.5 92.5t148 80q30 14 62 28l53 84q-62 -27 -101 -27q-45 0 -64 35q-5 10 -5 19q0 27 35 58.5t71.5 51.5t58.5 26q34 9 47 9q27 0 39 -20q8 -11 5 -23l7 3q3 1 9 1q22 0 22 -18q0 -5 -3 -12
q-23 -53 -90 -86l-2 -2l-1 -2q-2 -3 -3 -5q-2 -2 -2 -4h-1l-47 -75q283 123 588 155h2q8 0 8 -10q0 -7 -7 -7q-319 -32 -607 -164q-157 -248 -300 -402q-76 -83 -138 -136q-3 -3 -14.5 -14t-17 -16t-17 -14t-19.5 -13.5t-18.5 -8.5t-20.5 -4zM114 52q49 0 111 34l11 21
q1 2 11.5 21t18.5 30q-8 8 2 12q10 10 10 19q0 14 -27 23q-15 0 -27 -4q-44 -11 -104 -53q-62 -47 -62 -72q0 -14 15 -22q18 -9 41 -9zM254 103q22 15 33 27q16 15 27 38q-12 -2 -19 -4q-13 -14 -41 -61zM-392 -629q35 0 89 46q125 105 227 233q101 122 214 298
q-138 -65 -255 -146q-155 -106 -224 -198q-55 -77 -72 -142q-9 -25 -9 -50q0 -41 30 -41z" />
    <glyph glyph-name="h" unicode="h" horiz-adv-x="679" 
d="M-12 -93q-23 9 -23 35q0 11 5 24q11 26 41 71t35 54q8 12 22 36q-14 -6 -113 -42q-1 0 -3 -1q-8 0 -8 10q2 6 6 8q121 46 133 51q61 102 92.5 154t87 136.5t108.5 151t111 126.5q2 2 17.5 18t23 23t22 18t27.5 16t26 5q55 0 71 -59q3 -10 3 -20q0 -37 -51 -112
q-46 -70 -95 -129q-117 -137 -254 -235q-94 -68 -160 -100q-2 -1 -6 -2.5t-6 -2.5q-40 -67 -69 -109q-4 -6 -14 -19.5t-17 -24t-11 -21.5q-3 -8 -3 -16q0 -21 20 -21q4 0 14 4q9 4 58 43t102.5 80t115 75.5t97.5 34.5q18 0 36.5 -13.5t18.5 -31.5q0 -20 -12 -46
q-6 -14 -6 -21q0 -20 28 -20q30 0 72 16l198 65h3q8 0 8 -9q-2 -6 -6 -7l-182 -61q-7 -2 -26.5 -10t-37.5 -13.5t-32 -5.5q-13 0 -21 4q-24 11 -24 34q0 11 5 24l6.5 13t6.5 17q-4 50 -48 45q-37 -9 -86 -37t-86.5 -55.5t-97.5 -73.5t-90 -67q-16 -12 -32 -7zM117 169l25 13
q84 51 144 96q156 118 271 270q5 7 22.5 29.5t28 37.5t23.5 36.5t18.5 40.5t3.5 36q-5 53 -46 53q-40 0 -80 -40q-29 -28 -64 -66q-112 -125 -229 -308q-18 -29 -37.5 -62t-43 -73.5t-36.5 -62.5z" />
    <glyph glyph-name="i" unicode="i" horiz-adv-x="447" 
d="M248 504q-2 0 -2 2q-3 3 -3 6q0 5 5.5 7.5t9.5 -1.5l2 -2q3 -3 3 -6q0 -5 -5.5 -7.5t-9.5 1.5zM28 -50q-73 0 -78 56q-1 20 22.5 47.5t53.5 54.5t38 40q3 4 7 4q5 0 8.5 -4t1.5 -9q-10 -16 -54.5 -57t-53.5 -62q-4 -9 -4 -19q0 -34 62 -34q11 0 19 2q14 3 47 13
q14 4 45 13t48 13q239 68 359 128q1 1 4 1q4 0 7.5 -3.5t3.5 -7.5t-5 -5q-114 -55 -242 -94l-137 -40q-12 -3 -46.5 -14.5t-58.5 -17t-47 -5.5z" />
    <glyph glyph-name="j" unicode="j" horiz-adv-x="549" 
d="M220 498q-9 0 -9 8v3q0 8 9 8q8 0 8 -8v-3q0 -8 -8 -8zM-431 -674q-11 0 -22 8q-27 20 -27 62q0 48 38 127q104 225 398 388l149 266q3 5 7 5q5 0 7.5 -4t0.5 -9l-135 -242q10 6 15 8q118 42 342 110.5t296 92.5h1q1 1 2 1q8 0 8 -9q0 -8 -6 -9q-65 -20 -192.5 -58.5
t-191.5 -58.5t-148 -49.5t-143 -56.5q-121 -208 -240 -391q-10 -14 -29.5 -47t-36.5 -57.5t-35 -43.5q-31 -33 -58 -33zM-434 -650q18 0 40 11q13 15 27.5 34.5t23 33t24.5 39t22 34.5l82 127l153 252q-211 -124 -313 -274q-46 -71 -66 -127q-14 -42 -18 -64q-3 -15 -3 -31
q1 -35 28 -35z" />
    <glyph glyph-name="k" unicode="k" horiz-adv-x="732" 
d="M-13 -45q-5 0 -7.5 4t-0.5 9q32 75 60 133q-8 2 -8 10q0 4 4 7l18 13q123 245 280 457q18 24 50 69.5t47 65.5q20 26 31 39t32.5 32t41.5 26q9 4 20 4q22 0 34.5 -18.5t12.5 -44.5q0 -2 -0.5 -5.5t-0.5 -4.5q-12 -99 -116 -234q-167 -222 -417 -397q-34 -71 -41 -86
q15 15 62 56q72 62 143 99q128 65 198 65q15 0 22 -1q32 -4 32 -25q0 -16 -15.5 -35.5t-31.5 -28.5q-144 -78 -308 -84q132 -87 291 -87q186 0 332 120q4 2 6 2q6 0 8.5 -4.5t-2.5 -9.5q-150 -126 -346 -126q-174 0 -319 104q-77 -62 -105 -119q-2 -5 -7 -5zM84 153
q205 149 361 342q113 135 134 233q3 10 3 25v5q0 49 -26 49q-10 0 -19 -5q-28 -15 -54 -44q-37 -40 -90 -118q-20 -30 -60 -84.5t-58 -80.5q-105 -154 -191 -322zM123 98q146 3 263 59q2 1 20.5 9.5t29 15t17.5 14.5q12 14 12 26q0 15 -27 15q-20 0 -54 -6
q-104 -23 -211 -98z" />
    <glyph glyph-name="l" unicode="l" horiz-adv-x="482" 
d="M145 -30q-62 0 -95 28.5t-29 87.5q1 3 1 9t1 9q-1 -1 -10 -7q-2 -1 -4 -1q-6 0 -8 6t3 10q10 9 23 16q25 127 122 281q85 134 209 259q17 19 57.5 46t67.5 27q31 0 31 -40q0 -43 -58 -126q-108 -153 -204.5 -265.5t-208.5 -191.5l-3 -16q-1 -7 -1 -20q0 -91 113 -91
q73 0 176 35.5t200 88.5q2 1 5 1q6 0 8.5 -6t-3.5 -9q-246 -131 -393 -131zM49 144q91 66 172 158t173 217q72 100 89 136q14 28 14 44q0 20 -21 20q-24 0 -49 -17q-36 -23 -83 -75q-123 -137 -180 -227q-82 -131 -115 -256z" />
    <glyph glyph-name="m" unicode="m" horiz-adv-x="947" 
d="M-11 0q-4 0 -6.5 3.5t-1.5 7.5q9 28 37.5 75.5t32.5 54.5q3 5 7 5q5 0 7.5 -4.5t0.5 -9.5q-7 -13 -29 -49.5t-32 -57.5q127 58 204 88q63 26 117 40q5 1 16 4t20 4.5t17 1.5q7 0 11 -1q15 -3 20 -11q1 -1 1 -2q2 -6 2 -9q0 -11 -8 -26.5t-19.5 -34t-15.5 -27.5
q-3 -7 -3 -13q0 -10 15 -10q14 0 45 9q43 13 118.5 44.5t99.5 40.5q2 1 23 9.5t38.5 13.5t31.5 5q27 0 37 -22q3 -6 -2.5 -19.5t-14.5 -31.5t-12 -27q0 -1 -0.5 -4t-0.5 -5q0 -13 15 -13q7 0 25 5q87 27 221 91q1 1 4 1q7 0 7 -10q-2 -5 -7 -8q-150 -73 -221 -90
q-15 -3 -24 -3q-18 0 -31 6.5t-11 21.5q0 2 2 8q3 8 7.5 17t10.5 20t9 17t3 11q0 12 -19 12q-12 0 -30 -4.5t-36.5 -11t-19.5 -6.5q-18 -7 -90.5 -37t-112.5 -43q-59 -18 -73 -18q-31 0 -31 26q0 17 22 49q27 35 27 48t-20 13q-9 0 -57 -12q-48 -14 -101 -35l-221 -96
q-1 -1 -4 -1z" />
    <glyph glyph-name="n" unicode="n" horiz-adv-x="827" 
d="M-7 -10q-4 0 -6.5 3.5t-1.5 7.5q5 16 14.5 38t17.5 38t21 40.5t18 34.5q3 5 7 5q5 0 7.5 -4.5t0.5 -9.5q-51 -103 -62 -128q13 6 64.5 31.5t74 35.5t64.5 27.5t76.5 28t69.5 16.5q8 2 21 2q33 0 33 -24q0 -21 -19 -51q-26 -37 -28 -47q0 -8 25 -8q99 0 493 108h3
q9 0 9 -10q0 -6 -6 -7q-414 -114 -512 -114q-13 0 -16 2q-14 8 -14 23q0 12 10 30q2 3 12.5 18.5t17 28.5t6.5 21q0 13 -16 13q-3 0 -15 -2q-45 -10 -99.5 -30t-81 -31t-101 -46t-83.5 -39q-1 -1 -4 -1z" />
    <glyph glyph-name="o" unicode="o" horiz-adv-x="529" 
d="M33 8q-24 0 -41 12q-15 11 -15 29q0 24 25 52t52 40q27 45 78 45q23 0 38.5 -12.5t15.5 -36.5q0 -22 -17 -45q-2 -2 -7 -8t-8 -9q32 -9 108 -9q188 0 335 77q1 1 4 1q4 0 6.5 -3.5t1.5 -7.5q0 -4 -5 -6q-147 -79 -347 -79q-78 0 -120 11q-55 -51 -104 -51zM140 87
q28 34 28 52q0 28 -26 30q-30 0 -58 -22q27 1 42.5 -11.5t15.5 -33.5q0 -5 -2 -15zM120 80q3 6 3 12q0 37 -49 37l-8 -3q-1 -2 -1 -7q0 -12 16 -23q20 -13 39 -16zM29 27q19 0 37 6q10 3 42 24q-2 5 0 8q-30 10 -45 23q-16 15 -16 32q-16 -12 -20 -16q-7 -6 -18 -24t-11 -32
q0 -21 31 -21z" />
    <glyph glyph-name="p" unicode="p" horiz-adv-x="686" 
d="M-388 -553q-3 0 -9 2q-20 7 -20 27q0 15 11 37q47 102 75 146q84 134 191 238l233 438q3 4 7 4q5 0 8 -4t1 -9l-154 -284l-58 -110q96 87 239 174t238 115q30 7 43 7q21 0 35 -11q20 -17 20 -40q0 -15 -11 -31q-2 -3 -28 -32.5t-35 -47.5q-5 -12 -5 -17q0 -18 33 -18
q16 0 80 16l199 58h3q8 0 8 -10q-2 -6 -6 -7q-184 -54 -216 -62q-4 -1 -20.5 -6.5t-30.5 -8.5t-26 -3q-20 0 -30 9q-14 11 -14 28q0 18 18 42q6 8 26.5 31t28.5 37q9 17 9 27q0 29 -48 27l-19 -3q-97 -24 -253 -121t-254 -191q-3 -4 -10 -11l-109 -208q-69 -136 -94 -175
q-1 -1 -8 -11.5t-10.5 -15t-10.5 -12t-13.5 -11t-13.5 -3.5zM-390 -534q11 0 24 13.5t26 36t23.5 42.5t20.5 42t12 26l114 215q-96 -104 -160 -215q-11 -17 -39 -75t-28 -77q0 -8 7 -8z" />
    <glyph glyph-name="q" unicode="q" horiz-adv-x="723" 
d="M-116 -609q-9 0 -12 13q-1 4 -1 11q0 12 4.5 26t13 32.5t10.5 23.5q29 71 56 119q57 103 131.5 198.5t179.5 212.5q-18 0 -31 -1q-30 -4 -85.5 -24.5t-83.5 -24.5q-5 -1 -16 -1q-28 0 -48.5 11.5t-20.5 32.5q0 10 5 23q14 33 86 77t111 44q40 0 45 -33q4 -24 -21 -34
q-1 0 -3 -1q-7 0 -7 8t6 10q7 10 7 17q0 13 -27 15q-7 0 -19 -2q-19 -5 -22 -6q-28 -9 -68 -38.5t-62 -51.5q-11 -12 -11 -25t12.5 -22t29.5 -9q15 0 34 4t31 7.5t35.5 12.5t30.5 11q46 16 61 16q41 0 56 11q8 10 13 14q3 3 6 3q5 0 8 -4.5t0 -8.5q-13 -20 -23 -26
q-110 -121 -185 -215t-132 -196q-30 -54 -62 -129q-2 -5 -9.5 -22.5t-10.5 -27.5q-6 -12 -4 -28q12 14 21 27q24 35 148 186q92 112 168 191t162 143q190 139 352 205h1l2 1q7 0 7 -8q0 -7 -5 -10q-227 -93 -425 -265q-40 -35 -78 -72.5t-84 -91.5t-65.5 -77.5t-77.5 -96.5
t-67 -84l-6 -9q-6 -9 -13 -18.5t-15.5 -20t-17.5 -17t-15 -6.5z" />
    <glyph glyph-name="r" unicode="r" horiz-adv-x="520" 
d="M80 -50q-33 0 -56.5 14.5t-23.5 46.5q0 23 30 51q2 2 31 26t35 30q1 1 7.5 6.5t6.5 7.5t-5.5 4t-6.5 3q-4 2 -7 7q-8 -6 -58 -31q-2 -1 -5 -1q-8 0 -8 8q0 4 5 8q36 18 61 33q0 3 1 5q3 21 22 21q7 0 11 -2q6 -4 6 -9q0 -16 -13 -29q5 -2 14 -2.5t11 -1.5q6 -1 6 -8
q0 -5 -4 -8q-110 -80 -117 -109q-2 -10 -2 -14q0 -37 68 -37h9q36 0 219 56t284 104q1 0 3 1q7 0 10 -7t-4 -10q-109 -50 -243 -89q-240 -74 -287 -74z" />
    <glyph glyph-name="s" unicode="s" horiz-adv-x="496" 
d="M-55 -154q-23 0 -37.5 16.5t-14.5 39.5q0 15 5 25q31 68 147 82q31 96 33 101q1 2 4 10t4.5 11l5 10t6 10t6.5 8t8.5 7t10 4t11.5 2q10 0 8 -12q-4 -28 -36 -37q-4 0 -5 1q-8 -16 -15 -36.5t-13.5 -46.5t-6.5 -27q333 76 470 128h1q1 1 2 1q7 0 7 -8t-6 -10
q-37 -14 -79 -27.5t-72.5 -22.5t-83.5 -23t-75.5 -19.5t-87.5 -21t-83 -19.5q-15 -40 -23 -54q-33 -68 -63 -85q-14 -7 -28 -7zM-54 -135q15 0 28 9.5t24 28.5t15.5 28.5t13.5 30.5q7 15 11 28q-53 -7 -85 -28q-13 -9 -29 -32t-16 -40q0 -26 38 -25z" />
    <glyph glyph-name="t" unicode="t" horiz-adv-x="527" 
d="M33 -50q-18 0 -33 4q-18 4 -33 15q-39 25 -41 82q0 31 7 55q1 2 9 35q9 25 24 59q9 21 29 63q44 96 105 187l-263 -3q-8 0 -8 9t8 9q184 2 275 2q54 78 123 155q3 3 6 3q5 0 8 -5.5t-1 -9.5q-64 -71 -115 -143q27 1 80.5 1t80.5 1q8 0 8 -9t-8 -9q-29 0 -87 -0.5
t-86 -0.5q-56 -81 -98 -169q-42 -86 -56 -124q0 -4 -3 -7q-14 -42 -17 -64q-3 -14 -3 -30q0 -32 14.5 -56t46.5 -29q10 -2 28 -2q28 0 62 8q320 75 535 160l1 1h2q7 0 7 -8t-6 -10q-153 -68 -499 -151q-76 -19 -102 -19z" />
    <glyph glyph-name="u" unicode="u" horiz-adv-x="819" 
d="M438 0q-38 0 -49 26q-5 10 -5 23q0 29 37 86q-126 -56 -226 -90q-11 -4 -37.5 -14t-46.5 -16t-39 -10q-6 -1 -19 -1q-39 0 -49 25q-4 12 -4 25q0 49 63 97q2 2 6 2q6 0 8.5 -4.5t-2.5 -9.5q-57 -46 -57 -83q0 -35 33 -35q30 0 95 25q221 83 292 116q1 1 4 1q5 0 8 -4
t0 -9q-1 -3 -11 -19.5t-16.5 -29t-12.5 -29.5t-6 -28q0 -27 31 -27q28 0 112 21q38 10 80 24.5t64.5 23.5t74 32t66.5 29l1 1h2q7 0 10 -6.5t-4 -9.5q-21 -9 -69.5 -30t-76 -32t-69 -26t-80.5 -25t-79 -16q-13 -3 -29 -3z" />
    <glyph glyph-name="v" unicode="v" horiz-adv-x="600" 
d="M22 0q-22 0 -22 19q0 12 11 38q32 66 51 98q3 4 7 4q5 0 8 -4t0 -9q-47 -78 -58 -115q-1 -2 -1 -5q0 -8 11 -8q5 0 41 12q22 8 54 25q4 2 32 14.5t46 22.5q-17 17 -17 35q0 10 6 19q12 22 34 22q14 0 25 -10q12 -9 12 -24q0 -27 -29 -44l5 -3q34 -15 72 -15q19 0 94 7
q138 13 218 55q1 1 4 1q9 0 9 -9q0 -5 -5 -8q-88 -46 -201 -54q-12 -1 -35 -3.5t-41.5 -4t-34.5 -1.5q-41 0 -75 11q-14 5 -27 14q-38 -22 -125 -60q-47 -20 -69 -20zM218 102q34 24 24 38q-11 11 -20 11q-12 0 -18 -24q4 -13 14 -25z" />
    <glyph glyph-name="w" unicode="w" horiz-adv-x="1077" 
d="M350 0q-27 0 -59 5q-36 7 -62.5 23t-25.5 44q-90 -52 -195 -63q-4 0 -6.5 3.5t-1.5 7.5l50 142q3 6 9 6q11 0 8 -11l-45 -129q103 15 189 70q1 1 4 1q5 0 7.5 -3.5t1.5 -7.5q-3 -9 -3 -17q0 -53 128 -53q18 0 23 1q87 8 136 39q22 14 33 24q-33 13 -47 35t-14 45
q0 36 34 49q5 2 15 2q23 0 41 -20t18 -43q0 -31 -17 -56q10 -4 28 -7q87 -17 170 -17q185 0 355 76q1 1 4 1q6 0 8.5 -6.5t-3.5 -9.5q-176 -79 -366 -79q-46 0 -109 7q-85 13 -100 17q-20 -23 -63 -45q-63 -31 -145 -31zM554 99q3 3 4 5q11 20 11 47q0 43 -37 43
q-36 0 -36 -26q0 -16 14 -36.5t26 -25.5q6 -3 18 -7z" />
    <glyph glyph-name="x" unicode="x" horiz-adv-x="458" 
d="M-58 -44q-6 0 -8.5 5t2.5 9l93 78q-1 5 -1 14q0 24 22 58q-7 -2 -37 -17q-2 -1 -5 -1q-5 0 -5 6q0 8 6 10q9 4 30 16t30 16h2q5 0 8 -5.5t-1 -9.5q-27 -37 -30 -54q-2 -7 -2 -19l124 102q2 2 6 2q6 0 8.5 -5t-2.5 -9l-132 -109q12 -24 45 -24q14 0 21 2q62 13 126 32
q121 33 256 86l1 1h2q7 0 7 -9q0 -6 -6 -9q-240 -96 -394 -119q-5 -1 -16 -1q-44 0 -57 28l-87 -72q-4 -2 -6 -2z" />
    <glyph glyph-name="y" unicode="y" horiz-adv-x="971" 
d="M-168 -652q-62 -4 -62 61q0 46 27 105q34 72 90.5 136.5t129 118t138.5 92.5t148 80q30 14 62 28l99 158q-86 -38 -179 -67q-9 -3 -35.5 -10.5t-40.5 -11.5t-36 -9t-41 -7.5t-37 -3.5q-80 0 -94 58q-2 8 -2 12q0 35 67 85q4 2 5 2q6 0 8.5 -5.5t-2.5 -9.5
q-38 -28 -49 -46q-7 -13 -7 -26q0 -21 15 -35t38 -16q38 -2 132 20q145 35 276 97q2 1 5 1q5 0 7.5 -4t-0.5 -9l-101 -160q283 123 588 155h2q8 0 8 -10q0 -7 -7 -7q-319 -32 -607 -164q-157 -248 -300 -402q-76 -83 -138 -136q-3 -3 -14.5 -14t-17 -16t-17 -14t-19.5 -13.5
t-18.5 -8.5t-20.5 -4zM-184 -635q35 0 89 46q125 105 227 233q101 122 214 298q-138 -65 -255 -146q-155 -106 -224 -198q-55 -77 -72 -142q-9 -25 -9 -50q0 -41 30 -41z" />
    <glyph glyph-name="z" unicode="z" horiz-adv-x="368" 
d="M-256 -474q-44 0 -44 57q0 37 45 103q53 76 99 122q124 127 281 201q-3 10 -11 17q-28 -26 -44 -26q-11 0 -18 9t-4 22q2 21 35 21q2 0 6.5 -0.5t5.5 -0.5q6 -1 16 -5l2 2q33 30 38 44q6 16 6 29q0 35 -45 35q-54 0 -107 -41q-2 -2 -7 -2q-6 0 -6 6q0 5 5 10
q20 17 55.5 31t66.5 14q43 0 54 -30q4 -11 4 -24q0 -35 -49 -82l-1 -1q10 -10 14 -21q120 54 249 73q8 0 8 -9q0 -7 -8 -9q-125 -18 -246 -72q3 -43 -39 -130q-75 -154 -197 -251q-111 -92 -164 -92zM73 17q7 0 21 16q-6 2 -12 2q-22 0 -15 -15q3 -3 6 -3zM-226 -450
q12 6 34 18q101 62 178 151t120 195q20 51 21 77q-72 -33 -142 -84q-95 -70 -163 -149q-35 -42 -64 -83q-2 -3 -12 -17.5t-15 -24t-8 -19.5q-8 -19 -8 -31q0 -35 59 -33z" />
    <glyph glyph-name="braceleft" unicode="{" horiz-adv-x="250" 
d="M101 -167q-71 0 -71 67q0 51 46 153q17 40 17 60q0 7 -5.5 21t-5.5 18q1 3 7 5t15.5 7.5t21 16t26 36.5t27.5 64q27 83 60 129q15 21 39.5 38t47.5 17q24 0 24 -16q0 -6 -6 -6.5t-16.5 1t-16.5 0.5q-10 -3 -19 -9t-16 -11.5t-15 -16t-13 -17t-12 -21t-10 -21t-9.5 -23
t-8.5 -21.5t-8.5 -23t-7.5 -21q-30 -85 -84 -112q5 -5 5 -19q0 -21 -32.5 -107.5t-32.5 -123.5q0 -46 57 -46q11 0 15.5 -2t4.5 -10q0 -7 -24 -7z" />
    <glyph glyph-name="bar" unicode="|" horiz-adv-x="600" 
d="M292 -112q-7 0 -7 7q0 22 3.5 422.5t5.5 500.5q0 3 2 5q3 3 7 3q7 0 8 -7q-2 -97 -5 -487t-4 -436l-2 -4q-3 -4 -8 -4z" />
    <glyph glyph-name="braceright" unicode="}" horiz-adv-x="265" 
d="M194 464q71 0 71 -67q0 -51 -46 -153q-17 -40 -17 -60q0 -7 5.5 -21t5.5 -18q-1 -3 -7 -5t-15.5 -7.5t-21 -16t-26 -36.5t-27.5 -64q-27 -83 -60 -129q-15 -21 -39.5 -38t-47.5 -17q-24 0 -24 16q0 6 6 6.5t16.5 -1t16.5 -0.5q10 3 19 9t16 11.5t15 16t13 17t12 21t10 21
t9.5 23t8.5 21.5t8.5 23t7.5 21q30 85 84 112q-5 5 -5 19q0 21 32.5 107.5t32.5 123.5q0 46 -57 46q-12 0 -16 2t-4 10q0 7 24 7z" />
    <glyph glyph-name="asciitilde" unicode="~" horiz-adv-x="332" 
d="M214 132q-15 0 -42.5 10t-38.5 12q-17 3 -33 3q-34 0 -66 -16q-1 -1 -4 -1q-6 0 -8.5 6.5t3.5 9.5q41 19 80 19q11 0 17 -1q11 -1 46.5 -13t53.5 -12q31 0 44 30q3 4 7 4t7.5 -4t1.5 -9q-16 -38 -68 -38z" />
    <glyph glyph-name="exclamdown" unicode="&#xa1;" horiz-adv-x="235" 
d="M326 446q-11 0 -9 11v3q0 8 8 8q10 0 10 -9q0 -2 -0.5 -3.5t-0.5 -2.5q-1 -7 -8 -7zM12 -9q-5 0 -7.5 3.5t0.5 8.5l242 373q3 3 7 3q5 0 7.5 -3.5t-0.5 -8.5l-242 -372q-3 -4 -7 -4z" />
    <glyph glyph-name="cent" unicode="&#xa2;" horiz-adv-x="311" 
d="M-4 -40q-6 0 -8.5 4t0.5 9l23 30q-22 2 -37 10q-23 14 -23 36q0 33 39 60q100 73 163 77l21 38q2 5 7 5t8.5 -4.5t0.5 -9.5l-17 -30q4 0 10 -2q29 -6 29 -36q0 -23 -22 -32h-3q-8 0 -8 8t6 10q8 11 8 18q0 15 -29 15q-9 0 -29 -4q-30 -6 -68 -27q-63 -35 -82 -54
q-13 -13 -13 -25q0 -15 14 -24.5t33 -9.5h6q6 6 13 2q14 4 23 6q84 24 125 39q1 1 3 1q8 0 8 -8t-7 -10q-82 -32 -144 -45l-11 -2q-7 -10 -31 -41q-3 -4 -8 -4z" />
    <glyph glyph-name="sterling" unicode="&#xa3;" horiz-adv-x="478" 
d="M334 -31q-59 0 -137 45q-12 7 -38 27.5t-36 27.5q-30 -47 -62 -60q-13 -5 -26 -5q-28 0 -41 20q-9 13 -9 28q0 26 29.5 43t60.5 16l16 -3q11 -2 27 -12l27 46l9 16q-11 0 -16 -1q-9 0 -9 10q0 9 9 9q18 0 26 1q4 6 10 18q-4 -1 -13 -1q-8 0 -8 9t9 9q4 0 11.5 1t11.5 1
q39 68 64 103q36 47 78 45q38 -3 56.5 -25.5t18.5 -55.5q0 -57 -38 -93q-3 -3 -6 -3q-6 0 -9 5.5t2 10.5q36 36 36 75q0 30 -22 49q-19 18 -41 18q-39 0 -76 -63q-20 -29 -39 -65l45 3q9 0 9 -9t-9 -10l-57 -3q-5 -10 -11 -19q8 0 24 0.5t23 0.5q9 0 9 -9t-9 -9
q-10 -1 -29 -1.5t-29 -0.5l-33 -56q-6 -10 -9 -16q9 -6 34 -26.5t39 -29.5q75 -43 126 -43q56 0 79 51q3 4 7 4q5 0 8 -4t1 -10q-27 -59 -93 -59zM46 25q10 2 16 5q19 10 38 39q1 1 7 10q-27 17 -49 17t-39 -17q-12 -12 -12 -25t11 -22t28 -7z" />
    <glyph glyph-name="currency" unicode="&#xa4;" horiz-adv-x="303" 
d="M176 7q-16 18 -24 28q-12 -9 -28 -12q-10 -2 -14 -2q-28 0 -43 20q-12 -10 -36 -28q-2 -2 -6 -2q-8 0 -8 10q0 5 4 8q8 5 21.5 15.5t15.5 12.5v2q-1 4 -1 12q0 39 31 65q-5 9 -15 25q-1 2 -1 5q0 9 10 9q4 0 7 -4l7 -12q14 18 40 18q14 0 26 -6q21 -12 29 -35q16 6 48 20
q2 1 5 1q9 0 9 -9q0 -5 -5 -8q-6 -3 -24 -11.5t-29 -12.5v-6q0 -36 -29 -63q16 -18 23 -27q3 -3 3 -6q0 -6 -6 -9t-10 2zM149 124q7 1 21 5l4 2q-2 4 -3 5q-14 22 -22 22t-13 -17q10 -7 13 -17zM106 38q23 0 44 19q26 24 27 53q-34 -11 -57 -8q-14 1 -24 11q-9 -4 -13 -16
q-2 -4 -4.5 -12.5t-3.5 -12.5q4 -34 31 -34z" />
    <glyph glyph-name="yen" unicode="&#xa5;" horiz-adv-x="300" 
d="M10 0q-6 0 -9 4.5t0 9.5l59 95l-49 -1q-8 0 -8 10q0 9 9 9h59l8 13h-36q-9 0 -9 9t9 9l47 1l32 51l-34 181q0 1 -0.5 1t-0.5 1q0 10 11 10q7 -2 7 -7l31 -163l96 157q3 4 8 4t8 -4t0 -9l-136 -222h51q9 0 9 -9t-9 -9l-62 -1l-8 -12h39q9 0 9 -9q0 -10 -9 -10h-50
l-65 -105q-3 -4 -7 -4z" />
    <glyph glyph-name="brokenbar" unicode="&#xa6;" horiz-adv-x="600" 
d="M301 409q-7 0 -7 7q0 25 -1.5 200.5t1.5 201.5q0 3 2 5q3 3 7 3q7 0 8 -7q-2 -78 -0.5 -201t0.5 -201l-2 -4q-3 -4 -8 -4zM301 -50q-7 0 -7 7q0 25 -1.5 201t1.5 201q0 3 2 5q3 3 7 3q7 0 8 -7q-2 -78 -0.5 -201t0.5 -201l-2 -4q-3 -4 -8 -4z" />
    <glyph glyph-name="section" unicode="&#xa7;" horiz-adv-x="793" 
d="M185 -155q-49 10 -81.5 34t-44.5 54t-11 60.5t14 59.5q4 9 10 2q3 -5 2 -10q-27 -74 10 -122.5t106 -62.5q66 -14 119 22.5t58 74.5q4 27 -4 50t-28 43t-37.5 32.5t-46.5 29.5q-83 50 -109.5 81.5t-16.5 74.5q6 27 48 54.5t97 44.5q-14 10 -23.5 17.5t-22.5 18.5t-21 19
t-18.5 20.5t-14 22t-9.5 23t-3.5 24.5t3.5 26q16 59 76 87.5t121 15.5q76 -16 116 -66t22 -117q-2 -3 -3.5 -7.5t-2.5 -5.5q-9 -15 -16 -7q-3 5 -1 12q26 62 -13 112t-108 64q-56 11 -107 -14t-64 -73q-7 -26 0.5 -50.5t30.5 -49t42 -40.5t53 -41q31 -23 47.5 -36.5
t35 -33.5t23.5 -39.5t0 -40.5q-9 -37 -42 -59.5t-88 -26.5q56 -42 84.5 -84t14.5 -91q-11 -39 -44 -66t-74 -35.5t-79 -0.5zM247 143q135 -7 149 74q4 26 -23.5 59t-56.5 53l-30 20q-126 -31 -141 -87q-7 -28 14.5 -54t87.5 -65z" />
    <glyph glyph-name="dieresis" unicode="&#xa8;" horiz-adv-x="201" 
d="M29 508q-12 0 -9 11l3 8q1 6 8 6q11 0 8 -10q-1 -1 -1 -4t-1 -5q-1 -6 -8 -6zM142 506q-5 0 -8 4t-1 9l2 4q3 4 6 4q5 0 8 -4t1 -9q-2 -2 -2 -4q-3 -4 -6 -4z" />
    <glyph glyph-name="copyright" unicode="&#xa9;" horiz-adv-x="600" 
d="M129 9q-15 0 -30 5q-37 14 -37 55q0 9 3 18q14 46 65 81q41 29 101 48.5t111 19.5h8q61 0 86 -21q16 -16 16 -32q0 -40 -73 -83t-148.5 -67t-101.5 -24zM130 23q53 0 155.5 46t137.5 85q12 12 12 27q0 35 -73 40q-6 1 -17 1q-57 0 -133.5 -27t-114.5 -79q-20 -25 -20 -50
q0 -43 53 -43zM205 75q-11 0 -16 4q-12 4 -15 21v3q0 8 8 19q12 14 43 31t57 17q17 0 21 -10q2 -8 2 -11q0 -11 -13 -18h-2q-6 4 -6 8q0 2 2 4.5t4 4.5l1 1q0 7 -11 7q-18 0 -48.5 -15.5t-41.5 -32.5q0 -2 -0.5 -4t-0.5 -3q0 -8 5.5 -9.5t20.5 -1.5h4q9 1 25 7l6 3
q44 17 45 17q4 2 6 2q6 0 4 -7q-2 -6 -9 -9q-2 -1 -11.5 -4.5t-14.5 -5.5q-46 -18 -65 -18z" />
    <glyph glyph-name="guillemotleft" unicode="&#xab;" horiz-adv-x="600" 
d="M210 -104l-51 101q-1 1 -1 3q-5 1 -7 5.5t2 8.5l235 187q4 2 6 2q6 0 8.5 -4.5t-2.5 -9.5l-228 -181l2 -3l51 -100q1 -1 1 -4q0 -6 -6.5 -8.5t-9.5 3.5zM390 -104l-51 101q-1 1 -1 3q-5 1 -7 5.5t2 8.5l235 187q4 2 6 2q6 0 8.5 -4.5t-2.5 -9.5l-228 -181l2 -3l51 -100
q1 -1 1 -4q0 -6 -6.5 -8.5t-9.5 3.5z" />
    <glyph glyph-name="registered" unicode="&#xae;" horiz-adv-x="600" 
d="M187 401q-17 0 -30 6q-37 14 -37 53q0 12 3 19q14 47 65 82q35 25 94 46q63 22 118 22h8q59 0 86 -22q16 -14 16 -31q0 -41 -74.5 -84t-149.5 -67t-99 -24zM188 416q53 0 155.5 45.5t137.5 84.5q12 14 12 27q0 24 -27 32q-10 4 -45 9h-18q-41 0 -82 -10
q-117 -29 -166 -95q-21 -25 -21 -49q0 -17 14.5 -30.5t39.5 -13.5zM264 479q-4 0 -4 5q0 6 9 20h1q12 18 20 27q0 2 2 5.5t2 5.5q3 9 3 12v1q-2 5 -8 5h-1q-3 0 -3 4q0 3 3 3h2q12 0 14 -12v-2l-1 -7l6 6q16 16 31 16q7 0 13 -6q3 -4 3 -9q0 -8 -7.5 -14t-15.5 -8
q-1 0 -4 -0.5t-5 -0.5q0 -1 0.5 -3t0.5 -3q0 -2 -0.5 -4.5t-0.5 -3.5v-2q-1 -8 -1.5 -15t-0.5 -9v-4q-2 -5 -4 -5t-2 2q-3 6 -3 10q0 2 0.5 5.5t1.5 9t2 10.5v12q-1 -1 -2 -1q-5 0 -7 4v2q0 5 7 5q1 0 2.5 -0.5t2.5 -0.5l1 -2h7q9 2 12 4q9 7 9 12q0 2 -2 4q-1 4 -7 4
q-5 0 -12 -4q-9 -5 -17 -13q-3 -3 -8 -8.5t-7 -8.5l-2 -3q-6 -17 -13 -28q0 -1 -1 -2q-9 -15 -16 -15zM270 490q2 3 6 11q-2 -3 -4 -7q-2 -2 -2 -4z" />
    <glyph glyph-name="macron" unicode="&#xaf;" horiz-adv-x="236" 
d="M178 592q-114 2 -169 2q-9 2 -9 9q0 9 9 9q28 -1 84.5 -1.5t84.5 -0.5q8 0 8 -9t-8 -9z" />
    <glyph glyph-name="degree" unicode="&#xb0;" horiz-adv-x="242" 
d="M69 263q-7 0 -15 3q-15 7 -15 25q0 11 5 21q7 15 23 28q0 7 5 17q12 25 39 25q13 0 22 -8.5t9 -24.5q0 -24 -23.5 -55t-49.5 -31zM98 332q10 0 19 9q4 4 7 2v4q0 18 -13 18q-4 0 -10 -2q-9 -4 -11 -10q10 6 16 8q1 1 4 1q6 0 8 -6.5t-4 -9.5q-12 -4 -24 -12q2 -2 8 -2z
M68 281h3q7 0 14 5q10 6 24 24q4 6 6 10q-12 -4 -18 -4q-13 0 -23 8q-10 -10 -15 -20q-2 -6 -2 -9q0 -11 11 -14z" />
    <glyph glyph-name="plusminus" unicode="&#xb1;" horiz-adv-x="479" 
d="M82 36q-5 0 -7.5 4.5t0.5 9.5l96 137q-68 -2 -102 -4q-9 0 -9 10q0 7 7 7q39 2 117 4l96 137q2 3 6 3q6 0 9 -5q2 -4 2 -5q0 -4 -3.5 -9.5t-3.5 -6.5l-2 -3q-5 -8 -17 -21t-17 -19q-25 -38 -49 -70l185 6q9 0 9 -10q0 -7 -7 -7q-33 -1 -99.5 -3.5t-99.5 -3.5l-105 -147
q-4 -4 -6 -4zM38 2q-8 0 -8 9q0 8 8 8q67 4 191 10q8 0 8 -8q0 -9 -8 -9q-67 -4 -191 -10z" />
    <glyph glyph-name="uni00B2" unicode="&#xb2;" horiz-adv-x="569" 
d="M294 413q-21 0 -31 17q-2 4 -4.5 14t-6.5 15q-11 17 -32 17q-34 0 -68 -34l-13 -12q-1 -1 -3 -1q-3 0 -5 5v9q0 46 53 83q17 12 35.5 20.5t48 19.5t37.5 15q49 21 74 48q16 18 16 36q0 7 -10 17q-10 8 -23 8q-14 0 -32 -9q-38 -20 -61 -43q-11 -9 -14 -17q-2 -6 -2 -14
q0 -16 13 -16t24 8q16 8 36 30q1 1 3 1q3 0 4.5 -3t-1.5 -5q-33 -40 -62 -40q-7 0 -11 1q-17 6 -17 24q0 9 5 19q13 26 71 60q28 14 49 14q15 0 25 -6q13 -10 13 -28q0 -47 -80 -86q-16 -8 -53 -22t-56 -24q-69 -37 -75 -83q50 33 79 33q8 0 19 -3q19 -5 26 -19
q2 -4 3.5 -12.5t4 -14t8.5 -9.5q6 -3 13 -3q15 0 28 9l2 1q6 0 6 -5q0 -1 -3 -4q-17 -11 -33 -11z" />
    <glyph glyph-name="uni00B3" unicode="&#xb3;" horiz-adv-x="533" 
d="M190 444q-10 0 -19 3q-9 1 -17 8q-13 9 -13 21q0 3 2 7q2 15 17 29t30 18h3q4 -2 4 -6q0 -3 -4 -4q-35 -9 -41 -36v-4q0 -6 1 -9q2 -8 18 -14q12 -2 20 -2q22 0 51 9q23 6 64 31q36 27 44 44q4 11 5 14q1 5 1 14q0 23 -18 29h-6q-8 0 -12 -1h-3q-2 1 -3 3.5t2 4.5
q15 12 44 17q4 0 12 1.5t13 2.5q28 14 28 29q0 8 -14 14q-4 2 -7 2q-12 3 -27 3q-4 0 -11 -0.5t-10 -0.5q-12 -1 -24 -6q-16 -5 -22 -22q-1 -3 -1 -7q0 -7 5 -8h5q3 0 4 1q2 2 4 2q6 -2 3 -9q-6 -8 -14 -8q-16 0 -16 25v7q8 35 76 35q34 -4 35 -4q27 -6 27 -23q0 -2 -2 -10
q-4 -11 -14.5 -18t-18.5 -9.5t-25.5 -6.5t-22.5 -5q23 -7 23 -38q0 -6 -2 -16q-2 -12 -10 -25q-15 -22 -64 -53q-28 -15 -44 -18q-35 -11 -56 -11z" />
    <glyph glyph-name="acute" unicode="&#xb4;" horiz-adv-x="120" 
d="M27 514q-4 0 -6.5 3t0.5 8q13 19 37 59q2 3 5 3q4 0 6.5 -3.5t-0.5 -8.5q-32 -51 -37 -58q-2 -3 -5 -3z" />
    <glyph glyph-name="periodcentered" unicode="&#xb7;" horiz-adv-x="88" 
d="M29 71q-9 0 -9 9v2q0 9 9 9t9 -9v-2q0 -9 -9 -9z" />
    <glyph glyph-name="cedilla" unicode="&#xb8;" horiz-adv-x="188" 
d="M-75 -190q-23 0 -23 18q0 6 3 15q3 6 9 6q11 0 8 -10l-1 -4q0 -6 10 -6q23 0 51 14q27 16 41 29q54 50 54 78q0 7 -5 15q-1 1 -1 4q0 4 4 8q5 3 50 35q4 2 5 2q8 0 8 -10q0 -4 -4 -7q-23 -16 -43 -31q4 -8 4 -18q0 -29 -31.5 -62t-61.5 -51q-11 -7 -35.5 -16t-41.5 -9z
" />
    <glyph glyph-name="uni00B9" unicode="&#xb9;" horiz-adv-x="442" 
d="M43 465q-7 0 -5 7q68 120 173 239l-111 -58q0 -1 -2 -1q-5 0 -5 5q0 3 3 4l134 70h2q3 0 4.5 -2.5t-0.5 -4.5q-114 -125 -189 -257q-2 -2 -4 -2z" />
    <glyph glyph-name="guillemotright" unicode="&#xbb;" horiz-adv-x="600" 
d="M65 -134q-6 0 -8.5 5t1.5 9q10 9 82.5 68.5t92.5 79.5l-94 129q-1 2 -1 4q0 8 8 8q5 0 8 -4l101 -139q3 -4 -35.5 -36.5t-90 -73.5t-59.5 -48q-4 -2 -5 -2zM248 -134q-6 0 -8.5 5t1.5 9q10 9 82.5 68.5t92.5 79.5l-94 129q-1 2 -1 4q0 8 8 8q5 0 8 -4l101 -139
q3 -4 -35.5 -36.5t-90 -73.5t-59.5 -48q-4 -2 -5 -2z" />
    <glyph glyph-name="questiondown" unicode="&#xbf;" horiz-adv-x="401" 
d="M444 523q-4 0 -7.5 3.5t-2.5 7.5q0 3 1 3q1 7 8 7q9 0 8 -9v-5q0 -7 -7 -7zM88 7q-47 0 -62 39q-6 16 -6 32q0 81 156 150q93 40 135 90q37 41 80 131q2 5 7 5t7.5 -3.5t0.5 -7.5q-51 -106 -94 -150q-42 -42 -148 -89q-79 -36 -106 -79q-20 -28 -20 -55q0 -10 3 -18
q12 -26 50 -26q20 0 38 5q61 17 109 56q33 28 52 52q26 31 26 54q0 19 -22 39q-4 4 -4 9q0 9 9 7q17 -2 28 -14.5t11 -31.5q0 -8 -3 -18q-15 -58 -93 -115q-28 -21 -73 -41.5t-81 -20.5z" />
    <glyph glyph-name="Agrave" unicode="&#xc0;" horiz-adv-x="972" 
d="M705 738q-3 0 -5 3l-37 59q-1 1 -1 3q0 8 8 8q4 0 5 -3l36 -59q1 -2 1 -4q0 -7 -7 -7zM559 -243q-18 0 -31 8q-24 14 -27 80q0 20 5 45.5t10 42t15.5 47.5t13.5 41q38 113 91 238q-67 -93 -158 -160.5t-196 -97.5q-47 -14 -87 -14q-82 0 -121 58q-24 37 -24 84
q0 70 48 156q63 114 170 195t236 118q62 18 105 18q44 0 74 -19q36 -23 47 -58q5 -14 5 -30q0 -25 -32 -73q-3 -4 -8 -4t-8 4t0 9q29 40 29 71q0 28 -21 49q-31 31 -88 31q-63 0 -151 -33q-112 -43 -202 -115.5t-141 -170.5q-46 -90 -46 -152q0 -65 49 -96q38 -25 87 -25
q65 0 159 47q111 54 197 143.5t138 202.5q3 4 7 4t7.5 -4t1.5 -9q-98 -216 -140 -340q-35 -100 -50 -176q-3 -10 -3 -28v-3q0 -65 38 -65q4 0 14 2q33 10 61 33t67 69.5t46 53.5q40 41 120 116t95 82q3 2 7 -2q8 -8 2 -12q-11 -8 -35 -30t-57.5 -53.5t-37.5 -35.5
q-73 -68 -139 -142q-60 -67 -96 -86q-25 -14 -46 -14z" />
    <glyph glyph-name="Aacute" unicode="&#xc1;" horiz-adv-x="972" 
d="M710 738q-4 0 -6.5 3t0.5 8q13 19 37 59q1 3 5 3t6.5 -3.5t-0.5 -8.5q-32 -51 -37 -58q-1 -3 -5 -3zM559 -243q-18 0 -31 8q-24 14 -27 80q0 20 5 45.5t10 42t15.5 47.5t13.5 41q38 113 91 238q-67 -93 -158 -160.5t-196 -97.5q-47 -14 -87 -14q-82 0 -121 58
q-24 37 -24 84q0 70 48 156q63 114 170 195t236 118q62 18 105 18q44 0 74 -19q36 -23 47 -58q5 -14 5 -30q0 -25 -32 -73q-3 -4 -8 -4t-8 4t0 9q29 40 29 71q0 28 -21 49q-31 31 -88 31q-63 0 -151 -33q-112 -43 -202 -115.5t-141 -170.5q-46 -90 -46 -152q0 -65 49 -96
q38 -25 87 -25q65 0 159 47q111 54 197 143.5t138 202.5q3 4 7 4t7.5 -4t1.5 -9q-98 -216 -140 -340q-35 -100 -50 -176q-3 -10 -3 -28v-3q0 -65 38 -65q4 0 14 2q33 10 61 33t67 69.5t46 53.5q40 41 120 116t95 82q3 2 7 -2q8 -8 2 -12q-11 -8 -35 -30t-57.5 -53.5
t-37.5 -35.5q-73 -68 -139 -142q-60 -67 -96 -86q-25 -14 -46 -14z" />
    <glyph glyph-name="Acircumflex" unicode="&#xc2;" horiz-adv-x="972" 
d="M806 724q-4 0 -7 4l-33 48q-9 13 -22 13q-7 0 -31 -8l-122 -41h-3q-8 0 -8 10q2 6 6 7l168 56h2q4 0 8 -4l51 -72q1 -1 1 -4q0 -9 -10 -9zM559 -243q-18 0 -31 8q-24 14 -27 80q0 20 5 45.5t10 42t15.5 47.5t13.5 41q38 113 91 238q-67 -93 -158 -160.5t-196 -97.5
q-47 -14 -87 -14q-82 0 -121 58q-24 37 -24 84q0 70 48 156q63 114 170 195t236 118q62 18 105 18q44 0 74 -19q36 -23 47 -58q5 -14 5 -30q0 -25 -32 -73q-3 -4 -8 -4t-8 4t0 9q29 40 29 71q0 28 -21 49q-31 31 -88 31q-63 0 -151 -33q-112 -43 -202 -115.5t-141 -170.5
q-46 -90 -46 -152q0 -65 49 -96q38 -25 87 -25q65 0 159 47q111 54 197 143.5t138 202.5q3 4 7 4t7.5 -4t1.5 -9q-98 -216 -140 -340q-35 -100 -50 -176q-3 -10 -3 -28v-3q0 -65 38 -65q4 0 14 2q33 10 61 33t67 69.5t46 53.5q40 41 120 116t95 82q3 2 7 -2q8 -8 2 -12
q-11 -8 -35 -30t-57.5 -53.5t-37.5 -35.5q-73 -68 -139 -142q-60 -67 -96 -86q-25 -14 -46 -14z" />
    <glyph glyph-name="Atilde" unicode="&#xc3;" horiz-adv-x="972" 
d="M798 738q-15 0 -42.5 10t-38.5 12q-17 3 -33 3q-34 0 -66 -16q-1 -1 -4 -1q-6 0 -8.5 6.5t3.5 9.5q41 19 80 19q11 0 17 -1q11 -1 46.5 -13t53.5 -12q31 0 44 30q3 4 7 4t7.5 -4t1.5 -9q-16 -38 -68 -38zM559 -243q-18 0 -31 8q-24 14 -27 80q0 20 5 45.5t10 42
t15.5 47.5t13.5 41q38 113 91 238q-67 -93 -158 -160.5t-196 -97.5q-47 -14 -87 -14q-82 0 -121 58q-24 37 -24 84q0 70 48 156q63 114 170 195t236 118q62 18 105 18q44 0 74 -19q36 -23 47 -58q5 -14 5 -30q0 -25 -32 -73q-3 -4 -8 -4t-8 4t0 9q29 40 29 71q0 28 -21 49
q-31 31 -88 31q-63 0 -151 -33q-112 -43 -202 -115.5t-141 -170.5q-46 -90 -46 -152q0 -65 49 -96q38 -25 87 -25q65 0 159 47q111 54 197 143.5t138 202.5q3 4 7 4t7.5 -4t1.5 -9q-98 -216 -140 -340q-35 -100 -50 -176q-3 -10 -3 -28v-3q0 -65 38 -65q4 0 14 2
q33 10 61 33t67 69.5t46 53.5q40 41 120 116t95 82q3 2 7 -2q8 -8 2 -12q-11 -8 -35 -30t-57.5 -53.5t-37.5 -35.5q-73 -68 -139 -142q-60 -67 -96 -86q-25 -14 -46 -14z" />
    <glyph glyph-name="Adieresis" unicode="&#xc4;" horiz-adv-x="972" 
d="M649 746q-12 0 -9 11l3 8q1 6 8 6q11 0 8 -10q-1 -2 -1 -5t-1 -4q-1 -6 -8 -6zM762 744q-5 0 -8 4t-1 9l2 4q3 4 6 4q5 0 8 -4t1 -9q-2 -2 -2 -4q-3 -4 -6 -4zM559 -243q-18 0 -31 8q-24 14 -27 80q0 20 5 45.5t10 42t15.5 47.5t13.5 41q38 113 91 238
q-67 -93 -158 -160.5t-196 -97.5q-47 -14 -87 -14q-82 0 -121 58q-24 37 -24 84q0 70 48 156q63 114 170 195t236 118q62 18 105 18q44 0 74 -19q36 -23 47 -58q5 -14 5 -30q0 -25 -32 -73q-3 -4 -8 -4t-8 4t0 9q29 40 29 71q0 28 -21 49q-31 31 -88 31q-63 0 -151 -33
q-112 -43 -202 -115.5t-141 -170.5q-46 -90 -46 -152q0 -65 49 -96q38 -25 87 -25q65 0 159 47q111 54 197 143.5t138 202.5q3 4 7 4t7.5 -4t1.5 -9q-98 -216 -140 -340q-35 -100 -50 -176q-3 -10 -3 -28v-3q0 -65 38 -65q4 0 14 2q33 10 61 33t67 69.5t46 53.5
q40 41 120 116t95 82q3 2 7 -2q8 -8 2 -12q-11 -8 -35 -30t-57.5 -53.5t-37.5 -35.5q-73 -68 -139 -142q-60 -67 -96 -86q-25 -14 -46 -14z" />
    <glyph glyph-name="Aring" unicode="&#xc5;" horiz-adv-x="972" 
d="M717 755q-11 0 -20 10t-5 21q10 21 31 18q1 0 3 -2q2 0 3 -1q11 -7 11 -21q0 -10 -6.5 -17.5t-16.5 -7.5zM716 773q5 0 6.5 5t-2.5 9h-3q-8 0 -8 -8q0 -6 7 -6zM559 -243q-18 0 -31 8q-24 14 -27 80q0 20 5 45.5t10 42t15.5 47.5t13.5 41q38 113 91 238
q-67 -93 -158 -160.5t-196 -97.5q-47 -14 -87 -14q-82 0 -121 58q-24 37 -24 84q0 70 48 156q63 114 170 195t236 118q62 18 105 18q44 0 74 -19q36 -23 47 -58q5 -14 5 -30q0 -25 -32 -73q-3 -4 -8 -4t-8 4t0 9q29 40 29 71q0 28 -21 49q-31 31 -88 31q-63 0 -151 -33
q-112 -43 -202 -115.5t-141 -170.5q-46 -90 -46 -152q0 -65 49 -96q38 -25 87 -25q65 0 159 47q111 54 197 143.5t138 202.5q3 4 7 4t7.5 -4t1.5 -9q-98 -216 -140 -340q-35 -100 -50 -176q-3 -10 -3 -28v-3q0 -65 38 -65q4 0 14 2q33 10 61 33t67 69.5t46 53.5
q40 41 120 116t95 82q3 2 7 -2q8 -8 2 -12q-11 -8 -35 -30t-57.5 -53.5t-37.5 -35.5q-73 -68 -139 -142q-60 -67 -96 -86q-25 -14 -46 -14z" />
    <glyph glyph-name="AE" unicode="&#xc6;" horiz-adv-x="1823" 
d="M1219 -153q-82 0 -152 41t-86 116q-5 20 -5 49q0 64 33 123.5t88 99.5q91 65 147 86l31 12q-26 18 -35 53q-2 8 -2 23q0 77 93 130t203 53h12q81 -3 132.5 -40.5t51.5 -109.5q0 -16 -1 -24q0 -9 -10 -9q-8 0 -8 9q2 16 2 24q0 68 -50.5 101.5t-128.5 33.5
q-85 0 -164.5 -36t-105.5 -90q-9 -20 -9 -38q0 -48 44 -72q31 11 61 11q22 0 42 -7q6 -3 6 -9q0 -4 -4 -7q-29 -17 -63 -17q-26 0 -47 10l-57 -22q-45 -18 -120 -72q-53 -38 -90 -96t-37 -118q0 -28 11 -58q48 -126 231 -126q112 0 251 43.5t262 109.5q1 1 4 1q7 0 7 -8
q0 -5 -4 -8q-109 -69 -270 -115.5t-263 -46.5zM559 -243q-18 0 -31 8q-24 14 -27 80q0 20 5 45.5t10 42t15.5 47.5t13.5 41q38 113 91 238q-67 -93 -158 -160.5t-196 -97.5q-47 -14 -87 -14q-82 0 -121 58q-24 37 -24 84q0 70 48 156q63 114 170 195t236 118q62 18 105 18
q44 0 74 -19q36 -23 47 -58q5 -14 5 -30q0 -25 -32 -73q-3 -4 -8 -4t-8 4t0 9q29 40 29 71q0 28 -21 49q-31 31 -88 31q-63 0 -151 -33q-112 -43 -202 -115.5t-141 -170.5q-46 -90 -46 -152q0 -65 49 -96q38 -25 87 -25q65 0 159 47q111 54 197 143.5t138 202.5q3 4 7 4
t7.5 -4t1.5 -9q-98 -216 -140 -340q-35 -100 -50 -176q-3 -10 -3 -28v-3q0 -65 38 -65q4 0 14 2q33 10 61 33t67 69.5t46 53.5q40 41 120 116t95 82q3 2 7 -2q8 -8 2 -12q-11 -8 -35 -30t-57.5 -53.5t-37.5 -35.5q-73 -68 -139 -142q-60 -67 -96 -86q-25 -14 -46 -14z
M1343 370q14 0 29 5q-22 1 -45 -3q10 -2 16 -2z" />
    <glyph glyph-name="Ccedilla" unicode="&#xc7;" horiz-adv-x="609" 
d="M674 555q3 -17 3 -34q0 -63 -37 -128q-3 -4 -7 -4q-5 0 -8.5 4.5t-0.5 8.5q37 62 37 122q0 46 -27 68q-23 20 -62 20q-73 0 -192 -73q-103 -63 -182.5 -153t-112.5 -194q-18 -58 -18 -109q0 -73 35 -115q39 -47 113 -47q35 0 74 12q25 9 92.5 48t114.5 44q1 0 5.5 0.5
t6.5 0.5q11 0 14 -9v-4q0 -8 -9 -8q-1 0 -4 0.5t-5 0.5q-14 0 -38 -6q-40 -10 -72 -30q-4 -2 -26 -15.5t-30 -18t-25 -12t-31 -11.5q-37 -10 -68 -10q-18 0 -34 3l-3 -3q-23 -16 -43 -31q4 -8 4 -18q0 -29 -31.5 -62t-61.5 -51q-11 -7 -35.5 -16t-41.5 -9q-23 0 -23 18
q0 6 3 15q3 6 9 6q11 0 8 -10l-1 -4q0 -6 10 -6q23 0 51 14q27 16 41 29q54 50 54 78q0 7 -5 15q-1 1 -1 4q0 4 4 8q22 14 40 28q-28 8 -47 23q-62 47 -62 151q0 23 3 42q14 113 95 223q76 103 183.5 182t218.5 93q18 2 26 2q84 0 99 -72z" />
    <glyph glyph-name="Egrave" unicode="&#xc8;" horiz-adv-x="851" 
d="M625 700q-3 0 -5 3l-37 59q-1 1 -1 3q0 8 8 8q4 0 5 -3l36 -59q1 -2 1 -4q0 -7 -7 -7zM247 -153q-82 0 -152 41t-86 116q-5 20 -5 49q0 64 33 123.5t88 99.5q91 65 147 86l31 12q-26 18 -35 53q-2 8 -2 23q0 77 93 130t203 53h12q81 -3 132.5 -40.5t51.5 -109.5
q0 -16 -1 -24q0 -9 -10 -9q-8 0 -8 9q2 16 2 24q0 68 -50.5 101.5t-128.5 33.5q-85 0 -164.5 -36t-105.5 -90q-9 -20 -9 -38q0 -48 44 -72q31 11 61 11q22 0 42 -7q6 -3 6 -9q0 -4 -4 -7q-29 -17 -63 -17q-26 0 -47 10l-57 -22q-45 -18 -120 -72q-53 -38 -90 -96t-37 -118
q0 -28 11 -58q48 -126 231 -126q112 0 251 43.5t262 109.5q1 1 4 1q7 0 7 -8q0 -5 -4 -8q-109 -69 -270 -115.5t-263 -46.5zM371 370q14 0 29 5q-22 1 -45 -3q10 -2 16 -2z" />
    <glyph glyph-name="Eacute" unicode="&#xc9;" horiz-adv-x="851" 
d="M630 700q-4 0 -6.5 3t0.5 8q13 19 37 59q1 3 5 3t6.5 -3.5t-0.5 -8.5q-32 -51 -37 -58q-1 -3 -5 -3zM247 -153q-82 0 -152 41t-86 116q-5 20 -5 49q0 64 33 123.5t88 99.5q91 65 147 86l31 12q-26 18 -35 53q-2 8 -2 23q0 77 93 130t203 53h12q81 -3 132.5 -40.5
t51.5 -109.5q0 -16 -1 -24q0 -9 -10 -9q-8 0 -8 9q2 16 2 24q0 68 -50.5 101.5t-128.5 33.5q-85 0 -164.5 -36t-105.5 -90q-9 -20 -9 -38q0 -48 44 -72q31 11 61 11q22 0 42 -7q6 -3 6 -9q0 -4 -4 -7q-29 -17 -63 -17q-26 0 -47 10l-57 -22q-45 -18 -120 -72
q-53 -38 -90 -96t-37 -118q0 -28 11 -58q48 -126 231 -126q112 0 251 43.5t262 109.5q1 1 4 1q7 0 7 -8q0 -5 -4 -8q-109 -69 -270 -115.5t-263 -46.5zM371 370q14 0 29 5q-22 1 -45 -3q10 -2 16 -2z" />
    <glyph glyph-name="Ecircumflex" unicode="&#xca;" horiz-adv-x="851" 
d="M726 686q-4 0 -7 4l-33 48q-9 13 -22 13q-7 0 -31 -8l-122 -41h-3q-8 0 -8 10q2 6 6 7l168 56h2q4 0 8 -4l51 -72q1 -1 1 -4q0 -9 -10 -9zM247 -153q-82 0 -152 41t-86 116q-5 20 -5 49q0 64 33 123.5t88 99.5q91 65 147 86l31 12q-26 18 -35 53q-2 8 -2 23q0 77 93 130
t203 53h12q81 -3 132.5 -40.5t51.5 -109.5q0 -16 -1 -24q0 -9 -10 -9q-8 0 -8 9q2 16 2 24q0 68 -50.5 101.5t-128.5 33.5q-85 0 -164.5 -36t-105.5 -90q-9 -20 -9 -38q0 -48 44 -72q31 11 61 11q22 0 42 -7q6 -3 6 -9q0 -4 -4 -7q-29 -17 -63 -17q-26 0 -47 10l-57 -22
q-45 -18 -120 -72q-53 -38 -90 -96t-37 -118q0 -28 11 -58q48 -126 231 -126q112 0 251 43.5t262 109.5q1 1 4 1q7 0 7 -8q0 -5 -4 -8q-109 -69 -270 -115.5t-263 -46.5zM371 370q14 0 29 5q-22 1 -45 -3q10 -2 16 -2z" />
    <glyph glyph-name="Edieresis" unicode="&#xcb;" horiz-adv-x="851" 
d="M569 708q-12 0 -9 11l3 8q1 6 8 6q11 0 8 -10q-1 -1 -1 -4t-1 -5q-1 -6 -8 -6zM682 706q-5 0 -8 4t-1 9l2 4q3 4 6 4q5 0 8 -4t1 -9q-2 -2 -2 -4q-3 -4 -6 -4zM247 -153q-82 0 -152 41t-86 116q-5 20 -5 49q0 64 33 123.5t88 99.5q91 65 147 86l31 12q-26 18 -35 53
q-2 8 -2 23q0 77 93 130t203 53h12q81 -3 132.5 -40.5t51.5 -109.5q0 -16 -1 -24q0 -9 -10 -9q-8 0 -8 9q2 16 2 24q0 68 -50.5 101.5t-128.5 33.5q-85 0 -164.5 -36t-105.5 -90q-9 -20 -9 -38q0 -48 44 -72q31 11 61 11q22 0 42 -7q6 -3 6 -9q0 -4 -4 -7q-29 -17 -63 -17
q-26 0 -47 10l-57 -22q-45 -18 -120 -72q-53 -38 -90 -96t-37 -118q0 -28 11 -58q48 -126 231 -126q112 0 251 43.5t262 109.5q1 1 4 1q7 0 7 -8q0 -5 -4 -8q-109 -69 -270 -115.5t-263 -46.5zM371 370q14 0 29 5q-22 1 -45 -3q10 -2 16 -2z" />
    <glyph glyph-name="Igrave" unicode="&#xcc;" horiz-adv-x="684" 
d="M818 771q-4 0 -5 3l-37 59q-1 1 -1 3q0 8 8 8q3 0 5 -3l36 -59q1 -2 1 -4q0 -7 -7 -7zM70 -258q-71 0 -94 55v1l-1 2q0 7 6.5 10t9.5 -4q21 -50 71 -50q44 0 98.5 34.5t87.5 69.5q87 94 158 225q18 33 88.5 172t115.5 209q-106 -52 -220 -64q-7 0 -7 9t8 9q122 12 231 72
q2 0 4 2t4 2q12 18 28 41q48 62 78 91q2 2 13 13.5t18 18.5t18 14t19 7q30 0 30 -22q0 -27 -37 -61q-71 -68 -153 -114q-59 -87 -132 -232q-94 -190 -141 -263q-53 -83 -111 -142q-87 -90 -172 -104q-6 -1 -18 -1zM670 520q44 29 60 42q22 18 44 38q2 1 9 7t12 10t11.5 11.5
t7 12t-1.5 10.5q-4 5 -10 5q-9 0 -22 -10q-19 -14 -41 -41q-26 -28 -38 -43l-18 -23q-10 -17 -13 -19z" />
    <glyph glyph-name="Iacute" unicode="&#xcd;" horiz-adv-x="684" 
d="M823 771q-4 0 -6.5 3.5t0.5 7.5q13 19 37 59q2 3 5 3q4 0 6.5 -4t-0.5 -8q-32 -51 -37 -58q-2 -3 -5 -3zM70 -258q-71 0 -94 55v1l-1 2q0 7 6.5 10t9.5 -4q21 -50 71 -50q44 0 98.5 34.5t87.5 69.5q87 94 158 225q18 33 88.5 172t115.5 209q-106 -52 -220 -64q-7 0 -7 9
t8 9q122 12 231 72q2 0 4 2t4 2q12 18 28 41q48 62 78 91q2 2 13 13.5t18 18.5t18 14t19 7q30 0 30 -22q0 -27 -37 -61q-71 -68 -153 -114q-59 -87 -132 -232q-94 -190 -141 -263q-53 -83 -111 -142q-87 -90 -172 -104q-6 -1 -18 -1zM670 520q44 29 60 42q22 18 44 38
q2 1 9 7t12 10t11.5 11.5t7 12t-1.5 10.5q-4 5 -10 5q-9 0 -22 -10q-19 -14 -41 -41q-26 -28 -38 -43l-18 -23q-10 -17 -13 -19z" />
    <glyph glyph-name="Icircumflex" unicode="&#xce;" horiz-adv-x="684" 
d="M919 757q-4 0 -7 4l-33 48q-9 13 -22 13q-7 0 -31 -8l-122 -41h-3q-8 0 -8 10q2 6 6 7l168 56h2q4 0 8 -4l51 -72q1 -1 1 -4q0 -9 -10 -9zM70 -258q-71 0 -94 55v1l-1 2q0 7 6.5 10t9.5 -4q21 -50 71 -50q44 0 98.5 34.5t87.5 69.5q87 94 158 225q18 33 88.5 172
t115.5 209q-106 -52 -220 -64q-7 0 -7 9t8 9q122 12 231 72q2 0 4 2t4 2q12 18 28 41q48 62 78 91q2 2 13 13.5t18 18.5t18 14t19 7q30 0 30 -22q0 -27 -37 -61q-71 -68 -153 -114q-59 -87 -132 -232q-94 -190 -141 -263q-53 -83 -111 -142q-87 -90 -172 -104q-6 -1 -18 -1z
M670 520q44 29 60 42q22 18 44 38q2 1 9 7t12 10t11.5 11.5t7 12t-1.5 10.5q-4 5 -10 5q-9 0 -22 -10q-19 -14 -41 -41q-26 -28 -38 -43l-18 -23q-10 -17 -13 -19z" />
    <glyph glyph-name="Idieresis" unicode="&#xcf;" horiz-adv-x="684" 
d="M762 779q-12 0 -9 11l3 8q2 6 8 6q11 0 8 -10q0 -2 -1 -5t-1 -4q-2 -6 -8 -6zM875 777q-5 0 -8 4t-1 9l2 4q3 4 6 4q5 0 8 -4t1 -9q-2 -2 -2 -4q-3 -4 -6 -4zM70 -258q-71 0 -94 55v1l-1 2q0 7 6.5 10t9.5 -4q21 -50 71 -50q44 0 98.5 34.5t87.5 69.5q87 94 158 225
q18 33 88.5 172t115.5 209q-106 -52 -220 -64q-7 0 -7 9t8 9q122 12 231 72q2 0 4 2t4 2q12 18 28 41q48 62 78 91q2 2 13 13.5t18 18.5t18 14t19 7q30 0 30 -22q0 -27 -37 -61q-71 -68 -153 -114q-59 -87 -132 -232q-94 -190 -141 -263q-53 -83 -111 -142
q-87 -90 -172 -104q-6 -1 -18 -1zM670 520q44 29 60 42q22 18 44 38q2 1 9 7t12 10t11.5 11.5t7 12t-1.5 10.5q-4 5 -10 5q-9 0 -22 -10q-19 -14 -41 -41q-26 -28 -38 -43l-18 -23q-10 -17 -13 -19z" />
    <glyph glyph-name="Eth" unicode="&#xd0;" horiz-adv-x="1032" 
d="M406 -179q-54 0 -97 14q-62 21 -119 76q-12 12 -29 22l-27 -27q-52 -52 -81 -52q-9 0 -16 3q-32 13 -32 41q0 5 1 8q7 34 31 50.5t57 16.5t65 -16l29 30l100 112l-33 -1q-9 0 -9 8t9 10q15 1 35 1h14l16 19q132 157 260 334q3 4 7 4q5 0 8 -4t0 -9q-104 -145 -189 -248
l-79 -96h46q7 0 7 -6q0 -11 -8 -11l-60 -1q-70 -81 -137 -151q12 -8 53.5 -45t73.5 -47q56 -17 110 -17q34 0 67 6q189 35 324 184q64 71 105.5 155t41.5 167q0 11 -2 33q-12 99 -90.5 156t-182.5 53q-91 -4 -177.5 -44.5t-152.5 -106.5q-3 -3 -6 -3q-5 0 -7.5 5.5t1.5 9.5
q82 84 185 122q85 33 167 33q71 0 135 -26q62 -26 102 -79.5t44 -119.5q1 -8 1 -24q0 -152 -105.5 -291.5t-251.5 -201.5q-107 -46 -204 -46zM51 -127q19 0 32 12q18 12 38 33l24 24q-32 17 -60 17q-26 0 -41 -18q-20 -15 -20 -33q0 -17 17 -34q3 -1 10 -1z" />
    <glyph glyph-name="Ntilde" unicode="&#xd1;" horiz-adv-x="652" 
d="M711 700q-15 0 -42.5 10t-38.5 12q-16 3 -33 3q-34 0 -66 -16q-1 -1 -4 -1q-6 0 -8.5 6.5t3.5 9.5q41 19 80 19q11 0 17 -1q11 -1 46.5 -13t53.5 -12q31 0 44 30q3 4 7 4t7.5 -4t1.5 -9q-16 -38 -68 -38zM-212 -215q-6 0 -9 5.5t2 10.5q56 50 112.5 119t91 120.5
t91.5 142t84 130.5q80 119 152 203q22 24 35.5 37.5t40 30t48.5 16.5q60 0 60 -91q0 -18 -2 -42q-9 -89 -46 -214q50 72 97.5 126.5t108.5 106t132 79t149 27.5q19 0 28 -1q9 0 9 -10q0 -8 -9 -8q-9 1 -27 1q-66 0 -129.5 -23t-113 -57.5t-100.5 -88t-86.5 -101
t-77.5 -110.5q-49 -151 -107 -273q-2 -3 -13 -28t-19 -41.5t-22.5 -33.5t-27.5 -18t-18.5 5.5t-5.5 19.5q0 35 29 93q47 101 154 263q4 7 14 21q11 33 25 82q40 140 40 219q0 54 -16 70q-11 10 -26 10q-44 0 -107 -76q-64 -73 -135 -178.5t-122.5 -191t-126 -183.5
t-151.5 -166q-3 -3 -6 -3zM234 -176q2 -4 4.5 -4t5.5 3t5.5 6t6 8.5t4.5 7.5q40 60 90 186q21 49 39 102q-89 -139 -128 -224q-29 -54 -29 -75q0 -4 2 -10z" />
    <glyph glyph-name="Ograve" unicode="&#xd2;" horiz-adv-x="795" 
d="M751 805q-3 0 -5 3l-37 59q-1 1 -1 3q0 8 8 8q4 0 5 -3l36 -59q1 -2 1 -4q0 -7 -7 -7zM176 -118q-47 0 -80 26q-46 37 -46 104q0 64 37 136q28 57 71 104q-1 8 -1 23q0 60 31 117q76 137 249 243q118 72 213 72q43 0 81 -14q92 -34 92 -130q0 -84 -58.5 -189.5
t-121.5 -181.5q-45 -54 -97 -103q10 2 15 4q62 18 134.5 51t112.5 55.5t125 71.5q1 1 4 1q8 0 8 -9q0 -4 -4 -7q-5 -3 -47 -28t-52.5 -30.5t-49 -27.5t-55.5 -29.5t-51.5 -24t-58 -24.5t-53.5 -17t-58 -14q-59 -52 -129 -97q-132 -82 -211 -82zM416 71q43 0 95 10h1
q147 134 227 284q64 121 64 187q0 60 -36.5 97t-95.5 40q-165 10 -359 -172q-140 -130 -140 -249q60 64 139 107q2 1 5 1q8 0 8 -9q0 -4 -4 -7q-84 -45 -141 -110q-4 -4 -5 -6q5 -36 26 -69q65 -104 216 -104zM181 -97q124 0 303 153q-38 -4 -57 -4q-28 0 -63 5
q-61 9 -111 39t-74 81q-12 25 -18 53q-63 -79 -83 -151q-9 -36 -9 -67q0 -91 71 -105q19 -4 41 -4z" />
    <glyph glyph-name="Oacute" unicode="&#xd3;" horiz-adv-x="795" 
d="M756 805q-4 0 -6.5 3.5t0.5 7.5q13 19 37 59q1 3 5 3t6.5 -4t-0.5 -8q-32 -51 -37 -58q-1 -3 -5 -3zM176 -118q-47 0 -80 26q-46 37 -46 104q0 64 37 136q28 57 71 104q-1 8 -1 23q0 60 31 117q76 137 249 243q118 72 213 72q43 0 81 -14q92 -34 92 -130
q0 -84 -58.5 -189.5t-121.5 -181.5q-45 -54 -97 -103q10 2 15 4q62 18 134.5 51t112.5 55.5t125 71.5q1 1 4 1q8 0 8 -9q0 -4 -4 -7q-5 -3 -47 -28t-52.5 -30.5t-49 -27.5t-55.5 -29.5t-51.5 -24t-58 -24.5t-53.5 -17t-58 -14q-59 -52 -129 -97q-132 -82 -211 -82zM416 71
q43 0 95 10h1q147 134 227 284q64 121 64 187q0 60 -36.5 97t-95.5 40q-165 10 -359 -172q-140 -130 -140 -249q60 64 139 107q2 1 5 1q8 0 8 -9q0 -4 -4 -7q-84 -45 -141 -110q-4 -4 -5 -6q5 -36 26 -69q65 -104 216 -104zM181 -97q124 0 303 153q-38 -4 -57 -4
q-28 0 -63 5q-61 9 -111 39t-74 81q-12 25 -18 53q-63 -79 -83 -151q-9 -36 -9 -67q0 -91 71 -105q19 -4 41 -4z" />
    <glyph glyph-name="Ocircumflex" unicode="&#xd4;" horiz-adv-x="795" 
d="M852 791q-4 0 -7 4l-33 48q-9 13 -22 13q-7 0 -31 -8l-122 -41h-3q-8 0 -8 10q2 6 6 7l168 56h2q4 0 8 -4l51 -72q1 -1 1 -4q0 -9 -10 -9zM176 -118q-47 0 -80 26q-46 37 -46 104q0 64 37 136q28 57 71 104q-1 8 -1 23q0 60 31 117q76 137 249 243q118 72 213 72
q43 0 81 -14q92 -34 92 -130q0 -84 -58.5 -189.5t-121.5 -181.5q-45 -54 -97 -103q10 2 15 4q62 18 134.5 51t112.5 55.5t125 71.5q1 1 4 1q8 0 8 -9q0 -4 -4 -7q-5 -3 -47 -28t-52.5 -30.5t-49 -27.5t-55.5 -29.5t-51.5 -24t-58 -24.5t-53.5 -17t-58 -14q-59 -52 -129 -97
q-132 -82 -211 -82zM416 71q43 0 95 10h1q147 134 227 284q64 121 64 187q0 60 -36.5 97t-95.5 40q-165 10 -359 -172q-140 -130 -140 -249q60 64 139 107q2 1 5 1q8 0 8 -9q0 -4 -4 -7q-84 -45 -141 -110q-4 -4 -5 -6q5 -36 26 -69q65 -104 216 -104zM181 -97
q124 0 303 153q-38 -4 -57 -4q-28 0 -63 5q-61 9 -111 39t-74 81q-12 25 -18 53q-63 -79 -83 -151q-9 -36 -9 -67q0 -91 71 -105q19 -4 41 -4z" />
    <glyph glyph-name="Otilde" unicode="&#xd5;" horiz-adv-x="795" 
d="M844 805q-15 0 -42.5 10t-38.5 12q-17 3 -33 3q-34 0 -66 -16q-1 -1 -4 -1q-6 0 -8.5 6.5t3.5 9.5q41 19 80 19q11 0 17 -1q11 -1 46.5 -13t53.5 -12q31 0 44 30q3 4 7 4t7.5 -4t1.5 -9q-16 -38 -68 -38zM176 -118q-47 0 -80 26q-46 37 -46 104q0 64 37 136q28 57 71 104
q-1 8 -1 23q0 60 31 117q76 137 249 243q118 72 213 72q43 0 81 -14q92 -34 92 -130q0 -84 -58.5 -189.5t-121.5 -181.5q-45 -54 -97 -103q10 2 15 4q62 18 134.5 51t112.5 55.5t125 71.5q1 1 4 1q8 0 8 -9q0 -4 -4 -7q-5 -3 -47 -28t-52.5 -30.5t-49 -27.5t-55.5 -29.5
t-51.5 -24t-58 -24.5t-53.5 -17t-58 -14q-59 -52 -129 -97q-132 -82 -211 -82zM416 71q43 0 95 10h1q147 134 227 284q64 121 64 187q0 60 -36.5 97t-95.5 40q-165 10 -359 -172q-140 -130 -140 -249q60 64 139 107q2 1 5 1q8 0 8 -9q0 -4 -4 -7q-84 -45 -141 -110
q-4 -4 -5 -6q5 -36 26 -69q65 -104 216 -104zM181 -97q124 0 303 153q-38 -4 -57 -4q-28 0 -63 5q-61 9 -111 39t-74 81q-12 25 -18 53q-63 -79 -83 -151q-9 -36 -9 -67q0 -91 71 -105q19 -4 41 -4z" />
    <glyph glyph-name="Odieresis" unicode="&#xd6;" horiz-adv-x="795" 
d="M695 813q-12 0 -9 11l3 8q1 6 8 6q11 0 8 -10q-1 -2 -1 -5t-1 -4q-1 -6 -8 -6zM808 811q-5 0 -8 4t-1 9l2 4q3 4 6 4q5 0 8 -4t1 -9q-2 -2 -2 -4q-3 -4 -6 -4zM176 -118q-47 0 -80 26q-46 37 -46 104q0 64 37 136q28 57 71 104q-1 8 -1 23q0 60 31 117q76 137 249 243
q118 72 213 72q43 0 81 -14q92 -34 92 -130q0 -84 -58.5 -189.5t-121.5 -181.5q-45 -54 -97 -103q10 2 15 4q62 18 134.5 51t112.5 55.5t125 71.5q1 1 4 1q8 0 8 -9q0 -4 -4 -7q-5 -3 -47 -28t-52.5 -30.5t-49 -27.5t-55.5 -29.5t-51.5 -24t-58 -24.5t-53.5 -17t-58 -14
q-59 -52 -129 -97q-132 -82 -211 -82zM416 71q43 0 95 10h1q147 134 227 284q64 121 64 187q0 60 -36.5 97t-95.5 40q-165 10 -359 -172q-140 -130 -140 -249q60 64 139 107q2 1 5 1q8 0 8 -9q0 -4 -4 -7q-84 -45 -141 -110q-4 -4 -5 -6q5 -36 26 -69q65 -104 216 -104z
M181 -97q124 0 303 153q-38 -4 -57 -4q-28 0 -63 5q-61 9 -111 39t-74 81q-12 25 -18 53q-63 -79 -83 -151q-9 -36 -9 -67q0 -91 71 -105q19 -4 41 -4z" />
    <glyph glyph-name="multiply" unicode="&#xd7;" horiz-adv-x="600" 
d="M94 1q-7 0 -7 9q0 4 4 7l147 79q-44 22 -137 64q-5 1 -5 8q0 5 3 7.5t7 0.5l152 -71l147 79q1 1 3 1q10 0 10 -9q0 -6 -66 -39l-75 -40l168 -78q5 -3 5 -8t-3.5 -7.5t-7.5 -0.5l-181 83l-160 -84q-1 -1 -4 -1z" />
    <glyph glyph-name="Oslash" unicode="&#xd8;" horiz-adv-x="795" 
d="M-45 -122q-6 0 -8.5 5t1.5 9l105 88q-3 16 -3 32q0 64 37 136q28 57 71 104q-1 8 -1 23q0 60 31 117q76 137 249 243q118 72 213 72q43 0 81 -14q60 -22 80 -69l81 68q4 2 5 2q6 0 8.5 -5t-1.5 -9l-87 -73q6 -21 6 -44q0 -84 -58.5 -189.5t-121.5 -181.5
q-45 -54 -97 -103q10 2 15 4q62 18 134.5 51t112.5 55.5t125 71.5q1 1 4 1q8 0 8 -9q0 -4 -4 -7q-5 -3 -47 -28t-52.5 -30.5t-49 -27.5t-55.5 -29.5t-51.5 -24t-58 -24.5t-53.5 -17t-58 -14q-59 -52 -129 -97q-132 -82 -211 -82q-47 0 -80 26q-26 21 -38 54l-98 -82
q-4 -2 -5 -2zM234 134l559 474q-31 76 -122 81q-165 10 -359 -172q-140 -130 -140 -249q60 64 139 107q2 1 5 1q8 0 8 -9q0 -4 -4 -7q-84 -45 -141 -110q-4 -4 -5 -6q5 -36 26 -69q14 -23 34 -41zM416 71q43 0 96 10q147 134 227 284q64 121 64 187q0 23 -4 39l-552 -468
q64 -52 169 -52zM70 -5l149 127q-26 25 -40 55q-12 25 -18 53q-63 -79 -83 -151q-9 -36 -9 -67zM181 -97q124 0 303 153q-38 -4 -57 -4q-28 0 -63 5q-78 12 -132 53l-159 -135q12 -57 67 -68q19 -4 41 -4z" />
    <glyph glyph-name="Ugrave" unicode="&#xd9;" horiz-adv-x="894" 
d="M718 700q-4 0 -5 3l-37 59q-1 1 -1 3q0 8 8 8q3 0 5 -3l36 -59q1 -2 1 -4q0 -7 -7 -7zM165 -172q-93 0 -137 55q-28 37 -28 81q0 37 19 77q22 45 61.5 90.5t76.5 77.5t87 75.5t79 73.5q56 55 73 101q7 21 7 38q0 26 -13.5 43t-40.5 17q-30 0 -68.5 -17.5t-60.5 -33
t-59 -43.5q-4 -2 -6 -2q-6 0 -9 5.5t2 9.5q109 84 180 97q12 2 18 2q33 0 54.5 -21t21.5 -56q0 -31 -18 -65t-36 -54.5t-48 -49.5l-153 -140q-42 -38 -63 -59t-48.5 -61.5t-35.5 -77.5q-3 -15 -3 -27q0 -54 44.5 -86t104.5 -32q128 1 241 73.5t224 190.5t206 255.5
t197 312.5q3 4 7 4q5 0 8 -4t0 -9q-110 -189 -214 -337.5t-228 -273.5q-215 -215 -421 -229q-4 0 -11 -0.5t-10 -0.5z" />
    <glyph glyph-name="Uacute" unicode="&#xda;" horiz-adv-x="894" 
d="M723 700q-4 0 -6.5 3t0.5 8q13 19 37 59q2 3 5 3q4 0 6.5 -3.5t-0.5 -8.5q-32 -51 -37 -58q-2 -3 -5 -3zM165 -172q-93 0 -137 55q-28 37 -28 81q0 37 19 77q22 45 61.5 90.5t76.5 77.5t87 75.5t79 73.5q56 55 73 101q7 21 7 38q0 26 -13.5 43t-40.5 17
q-30 0 -68.5 -17.5t-60.5 -33t-59 -43.5q-4 -2 -6 -2q-6 0 -9 5.5t2 9.5q109 84 180 97q12 2 18 2q33 0 54.5 -21t21.5 -56q0 -31 -18 -65t-36 -54.5t-48 -49.5l-153 -140q-42 -38 -63 -59t-48.5 -61.5t-35.5 -77.5q-3 -15 -3 -27q0 -54 44.5 -86t104.5 -32q128 1 241 73.5
t224 190.5t206 255.5t197 312.5q3 4 7 4q5 0 8 -4t0 -9q-110 -189 -214 -337.5t-228 -273.5q-215 -215 -421 -229q-4 0 -11 -0.5t-10 -0.5z" />
    <glyph glyph-name="Ucircumflex" unicode="&#xdb;" horiz-adv-x="894" 
d="M819 686q-4 0 -7 4l-33 48q-9 13 -22 13q-7 0 -31 -8l-122 -41h-3q-8 0 -8 10q2 6 6 7l168 56h2q4 0 8 -4l51 -72q1 -1 1 -4q0 -9 -10 -9zM165 -172q-93 0 -137 55q-28 37 -28 81q0 37 19 77q22 45 61.5 90.5t76.5 77.5t87 75.5t79 73.5q56 55 73 101q7 21 7 38
q0 26 -13.5 43t-40.5 17q-30 0 -68.5 -17.5t-60.5 -33t-59 -43.5q-4 -2 -6 -2q-6 0 -9 5.5t2 9.5q109 84 180 97q12 2 18 2q33 0 54.5 -21t21.5 -56q0 -31 -18 -65t-36 -54.5t-48 -49.5l-153 -140q-42 -38 -63 -59t-48.5 -61.5t-35.5 -77.5q-3 -15 -3 -27q0 -54 44.5 -86
t104.5 -32q128 1 241 73.5t224 190.5t206 255.5t197 312.5q3 4 7 4q5 0 8 -4t0 -9q-110 -189 -214 -337.5t-228 -273.5q-215 -215 -421 -229q-4 0 -11 -0.5t-10 -0.5z" />
    <glyph glyph-name="Udieresis" unicode="&#xdc;" horiz-adv-x="894" 
d="M662 708q-12 0 -9 11l3 8q2 6 8 6q11 0 8 -10q0 -1 -1 -4t-1 -5q-2 -6 -8 -6zM775 706q-5 0 -8 4t-1 9l2 4q3 4 6 4q5 0 8 -4t1 -9q-2 -2 -2 -4q-3 -4 -6 -4zM165 -172q-93 0 -137 55q-28 37 -28 81q0 37 19 77q22 45 61.5 90.5t76.5 77.5t87 75.5t79 73.5q56 55 73 101
q7 21 7 38q0 26 -13.5 43t-40.5 17q-30 0 -68.5 -17.5t-60.5 -33t-59 -43.5q-4 -2 -6 -2q-6 0 -9 5.5t2 9.5q109 84 180 97q12 2 18 2q33 0 54.5 -21t21.5 -56q0 -31 -18 -65t-36 -54.5t-48 -49.5l-153 -140q-42 -38 -63 -59t-48.5 -61.5t-35.5 -77.5q-3 -15 -3 -27
q0 -54 44.5 -86t104.5 -32q128 1 241 73.5t224 190.5t206 255.5t197 312.5q3 4 7 4q5 0 8 -4t0 -9q-110 -189 -214 -337.5t-228 -273.5q-215 -215 -421 -229q-4 0 -11 -0.5t-10 -0.5z" />
    <glyph glyph-name="Yacute" unicode="&#xdd;" horiz-adv-x="782" 
d="M556 698q-4 0 -6.5 3t0.5 8q13 19 37 59q1 3 5 3t6.5 -3.5t-0.5 -8.5q-32 -51 -37 -58q-1 -3 -5 -3zM108 -354q-10 0 -7 10q139 377 363 663q-87 -78 -166 -110q-28 -11 -55 -11q-40 0 -67 22t-27 65q0 36 17.5 77.5t35 68t46.5 63.5q30 39 63 75l16 18q26 30 26 54
q0 20 -19 20q-27 0 -71.5 -31t-50.5 -53q-2 -6 -7 -6q-11 0 -8 10q7 26 56.5 62.5t83.5 36.5q33 0 33 -40q0 -11 -3 -21t-11 -21.5t-12.5 -16.5t-17 -18.5t-14.5 -15.5q-78 -91 -114 -157q-34 -61 -34 -104q0 -31 20 -52q22 -22 55 -22q23 0 46 9q29 11 59.5 28.5t52.5 33.5
t54 45t47 43.5t49 49t44 44.5q3 3 6 3q5 0 7.5 -5t-1.5 -9q-260 -275 -422 -642q71 108 171 195q80 71 148 98q58 22 129 22q15 0 45 -2q8 0 8 -8t-8 -8q-30 2 -45 2q-71 0 -124 -21q-66 -27 -152 -103q-162 -144 -237 -336q-3 -5 -8 -5z" />
    <glyph glyph-name="Thorn" unicode="&#xde;" horiz-adv-x="447" 
d="M10 0q-5 0 -8.5 4.5t-0.5 9.5l100 198q-3 3 -3 7q0 9 9 9l2 1l227 450q3 5 7 5q5 0 8.5 -4.5t0.5 -9.5l-93 -185q15 8 34 8h3q40 0 70.5 -34t30.5 -79q0 -6 -2 -20q-25 -141 -274 -150l-104 -205q-3 -5 -7 -5zM130 229q70 3 120.5 15t86.5 48q42 40 42 92q0 14 -3 26
q-7 28 -30.5 46t-50.5 18q-26 0 -46 -16q-2 -2 -5 -2z" />
    <glyph glyph-name="germandbls" unicode="&#xdf;" horiz-adv-x="411" 
d="M10 0q-13 0 -10 11q31 99 104.5 188t163.5 125q21 8 43 8q50 0 50 -43q0 -12 -6 -24t-11.5 -19.5t-20 -17.5t-20 -13.5t-24.5 -14t-21 -11.5q36 -17 36 -52q0 -17 -12 -38q-13 -24 -34.5 -41t-50.5 -28t-50.5 -16t-54.5 -11h-2q-10 0 -10 11q0 6 7 7q82 14 117 32
q23 12 47.5 38t24.5 48q0 27 -41 39q-6 2 -6 8q0 5 4 8q11 8 33.5 21.5t33.5 20.5q13 9 27 26.5t14 31.5q0 22 -42 19q-21 -1 -47.5 -16.5t-39 -25.5t-38.5 -33q-114 -99 -156 -232q-2 -6 -8 -6z" />
    <glyph glyph-name="agrave" unicode="&#xe0;" horiz-adv-x="499" 
d="M287 363q-3 0 -5 3l-37 59q-1 1 -1 3q0 8 8 8q4 0 5 -3l36 -59q1 -2 1 -4q0 -7 -7 -7zM63 0q-16 0 -31 6q-32 11 -32 40q0 27 27 51q34 30 81.5 54t88.5 24q10 0 15 -1q15 -2 24 -13t9 -24q0 -20 -21 -29q-1 -1 -3 -1q-8 0 -8 10q2 6 6 8q8 11 8 17q0 13 -28 15
q-18 -2 -27 -4q-23 -5 -53 -19q-58 -29 -80 -50q-16 -16 -21 -30q-1 -3 -1 -8q0 -25 47 -25q20 0 35 6q57 18 108 66q4 2 6 2q5 0 8 -4t0 -9q-10 -13 -10 -25q0 -18 21.5 -27.5t47.5 -9.5q3 0 9 0.5t8 0.5l34 9q54 18 81 28q89 33 174 79q1 1 4 1q9 0 9 -9q0 -4 -5 -7
q-128 -73 -269 -112q-36 -10 -59 -10q-30 0 -50 16q-19 18 -21 44q-72 -60 -132 -60z" />
    <glyph glyph-name="aacute" unicode="&#xe1;" horiz-adv-x="499" 
d="M251 355q-4 0 -6.5 3.5t0.5 7.5q13 19 37 59q2 3 5 3q4 0 6.5 -4t-0.5 -8q-32 -51 -37 -58q-2 -3 -5 -3zM63 0q-16 0 -31 6q-32 11 -32 40q0 27 27 51q34 30 81.5 54t88.5 24q10 0 15 -1q15 -2 24 -13t9 -24q0 -20 -21 -29q-1 -1 -3 -1q-8 0 -8 10q2 6 6 8q8 11 8 17
q0 13 -28 15q-18 -2 -27 -4q-23 -5 -53 -19q-58 -29 -80 -50q-16 -16 -21 -30q-1 -3 -1 -8q0 -25 47 -25q20 0 35 6q57 18 108 66q4 2 6 2q5 0 8 -4t0 -9q-10 -13 -10 -25q0 -18 21.5 -27.5t47.5 -9.5q3 0 9 0.5t8 0.5l34 9q54 18 81 28q89 33 174 79q1 1 4 1q9 0 9 -9
q0 -4 -5 -7q-128 -73 -269 -112q-36 -10 -59 -10q-30 0 -50 16q-19 18 -21 44q-72 -60 -132 -60z" />
    <glyph glyph-name="acircumflex" unicode="&#xe2;" horiz-adv-x="499" 
d="M377 362q-4 0 -7 4l-33 48q-9 13 -22 13q-7 0 -31 -8l-122 -41h-3q-8 0 -8 10q2 6 6 7l168 56h2q4 0 8 -4l51 -72q1 -1 1 -4q0 -9 -10 -9zM63 0q-16 0 -31 6q-32 11 -32 40q0 27 27 51q34 30 81.5 54t88.5 24q10 0 15 -1q15 -2 24 -13t9 -24q0 -20 -21 -29q-1 -1 -3 -1
q-8 0 -8 10q2 6 6 8q8 11 8 17q0 13 -28 15q-18 -2 -27 -4q-23 -5 -53 -19q-58 -29 -80 -50q-16 -16 -21 -30q-1 -3 -1 -8q0 -25 47 -25q20 0 35 6q57 18 108 66q4 2 6 2q5 0 8 -4t0 -9q-10 -13 -10 -25q0 -18 21.5 -27.5t47.5 -9.5q3 0 9 0.5t8 0.5l34 9q54 18 81 28
q89 33 174 79q1 1 4 1q9 0 9 -9q0 -4 -5 -7q-128 -73 -269 -112q-36 -10 -59 -10q-30 0 -50 16q-19 18 -21 44q-72 -60 -132 -60z" />
    <glyph glyph-name="atilde" unicode="&#xe3;" horiz-adv-x="499" 
d="M331 363q-15 0 -42.5 10t-38.5 12q-16 3 -33 3q-34 0 -66 -16q-1 -1 -4 -1q-6 0 -8.5 6.5t3.5 9.5q41 19 80 19q11 0 17 -1q11 -1 46.5 -13t53.5 -12q31 0 44 30q3 4 7 4t7.5 -4t1.5 -9q-16 -38 -68 -38zM63 0q-16 0 -31 6q-32 11 -32 40q0 27 27 51q34 30 81.5 54
t88.5 24q10 0 15 -1q15 -2 24 -13t9 -24q0 -20 -21 -29q-1 -1 -3 -1q-8 0 -8 10q2 6 6 8q8 11 8 17q0 13 -28 15q-18 -2 -27 -4q-23 -5 -53 -19q-58 -29 -80 -50q-16 -16 -21 -30q-1 -3 -1 -8q0 -25 47 -25q20 0 35 6q57 18 108 66q4 2 6 2q5 0 8 -4t0 -9q-10 -13 -10 -25
q0 -18 21.5 -27.5t47.5 -9.5q3 0 9 0.5t8 0.5l34 9q54 18 81 28q89 33 174 79q1 1 4 1q9 0 9 -9q0 -4 -5 -7q-128 -73 -269 -112q-36 -10 -59 -10q-30 0 -50 16q-19 18 -21 44q-72 -60 -132 -60z" />
    <glyph glyph-name="adieresis" unicode="&#xe4;" horiz-adv-x="499" 
d="M213 349q-12 0 -9 11l3 8q1 6 8 6q11 0 8 -10q-1 -2 -1 -5t-1 -4q-1 -6 -8 -6zM326 347q-5 0 -8 4t-1 9l2 4q3 4 6 4q5 0 8 -4t1 -9q-2 -2 -2 -4q-3 -4 -6 -4zM63 0q-16 0 -31 6q-32 11 -32 40q0 27 27 51q34 30 81.5 54t88.5 24q10 0 15 -1q15 -2 24 -13t9 -24
q0 -20 -21 -29q-1 -1 -3 -1q-8 0 -8 10q2 6 6 8q8 11 8 17q0 13 -28 15q-18 -2 -27 -4q-23 -5 -53 -19q-58 -29 -80 -50q-16 -16 -21 -30q-1 -3 -1 -8q0 -25 47 -25q20 0 35 6q57 18 108 66q4 2 6 2q5 0 8 -4t0 -9q-10 -13 -10 -25q0 -18 21.5 -27.5t47.5 -9.5q3 0 9 0.5
t8 0.5l34 9q54 18 81 28q89 33 174 79q1 1 4 1q9 0 9 -9q0 -4 -5 -7q-128 -73 -269 -112q-36 -10 -59 -10q-30 0 -50 16q-19 18 -21 44q-72 -60 -132 -60z" />
    <glyph glyph-name="aring" unicode="&#xe5;" horiz-adv-x="499" 
d="M296 380q-11 0 -20 10t-5 21q10 21 31 18q1 0 3 -2q2 0 3 -1q11 -7 11 -21q0 -10 -6.5 -17.5t-16.5 -7.5zM295 398q5 0 6.5 5t-2.5 9h-3q-8 0 -8 -8q0 -6 7 -6zM63 0q-16 0 -31 6q-32 11 -32 40q0 27 27 51q34 30 81.5 54t88.5 24q10 0 15 -1q15 -2 24 -13t9 -24
q0 -20 -21 -29q-1 -1 -3 -1q-8 0 -8 10q2 6 6 8q8 11 8 17q0 13 -28 15q-18 -2 -27 -4q-23 -5 -53 -19q-58 -29 -80 -50q-16 -16 -21 -30q-1 -3 -1 -8q0 -25 47 -25q20 0 35 6q57 18 108 66q4 2 6 2q5 0 8 -4t0 -9q-10 -13 -10 -25q0 -18 21.5 -27.5t47.5 -9.5q3 0 9 0.5
t8 0.5l34 9q54 18 81 28q89 33 174 79q1 1 4 1q9 0 9 -9q0 -4 -5 -7q-128 -73 -269 -112q-36 -10 -59 -10q-30 0 -50 16q-19 18 -21 44q-72 -60 -132 -60z" />
    <glyph glyph-name="ae" unicode="&#xe6;" horiz-adv-x="1091" 
d="M694 -32q-59 0 -91 26t-32 66q0 29 16 58q-127 -70 -262 -108q-36 -10 -59 -10q-30 0 -50 16q-19 18 -21 44q-72 -60 -132 -60q-16 0 -31 6q-32 11 -32 40q0 27 27 51q34 30 81.5 54t88.5 24q10 0 15 -1q15 -2 24 -13t9 -24q0 -20 -21 -29q-1 -1 -3 -1q-8 0 -8 10
q2 6 6 8q8 11 8 17q0 13 -28 15q-18 -2 -27 -4q-23 -5 -53 -19q-58 -29 -80 -50q-16 -16 -21 -30q-1 -3 -1 -8q0 -25 47 -25q20 0 35 6q57 18 108 66q4 2 6 2q5 0 8 -4t0 -9q-10 -13 -10 -25q0 -18 21.5 -27.5t47.5 -9.5q3 0 9 0.5t8 0.5l34 9q54 18 81 28q89 33 174 79
q1 1 4 1q4 0 7 -3l8 10q59 75 123 75q48 0 63 -29q3 -6 3 -13q0 -20 -20.5 -41t-39.5 -29q-39 -18 -80 -18q-28 0 -57 9h-1q-3 -7 -7 -21q-3 -13 -3 -25q0 -64 98 -64q60 0 141 21q149 36 328 139q2 1 4 1q6 0 8.5 -6.5t-3.5 -9.5q-189 -101 -272 -125q-5 -2 -25 -7.5
t-28.5 -8t-26.5 -7.5t-30 -7.5t-28 -5.5t-30 -4t-28 -1zM657 108q41 0 68 15q45 26 49 52q2 10 -7.5 17t-19.5 8.5t-19 1.5q-34 0 -68.5 -25.5t-55.5 -61.5q24 -7 53 -7z" />
    <glyph glyph-name="ccedilla" unicode="&#xe7;" horiz-adv-x="479" 
d="M530 137q8 0 8 -7t-12 -12q-71 -27 -144.5 -45.5t-127 -27.5t-55.5 -9q-5 -1 -26 -9t-41 -14t-38 -9q-2 -4 -4 -5q-23 -16 -43 -31q4 -8 4 -18q0 -29 -31.5 -62t-61.5 -51q-11 -7 -35.5 -16t-41.5 -9q-23 0 -23 18q0 6 3 15q3 6 9 6q11 0 8 -10l-1 -4q0 -6 10 -6
q23 0 51 14q27 16 41 29q54 50 54 78q0 7 -5 15q-1 1 -1 4q0 4 4 8l30 21h-2q-52 0 -59 44q-5 34 46 66q34 22 52.5 33t50.5 22.5t60 11.5t36 -18q4 -9 4 -19q0 -21 -21 -30h-1q-1 -1 -2 -1q-8 0 -8 10q2 6 6 8q8 11 8 17q0 14 -27 15q-18 -2 -28 -4q-34 -9 -52 -19
q-80 -44 -102 -76q-5 -38 26 -41q3 0 9 -0.5t9 -0.5q12 0 24 3q10 3 28.5 8.5t33.5 10t28 8.5q10 3 63.5 12t129.5 27.5t153 48.5z" />
    <glyph glyph-name="egrave" unicode="&#xe8;" horiz-adv-x="522" 
d="M287 363q-3 0 -5 3l-37 59q-1 1 -1 3q0 8 8 8q4 0 5 -3l36 -59q1 -2 1 -4q0 -7 -7 -7zM125 -32q-59 0 -91 26t-32 66q0 44 34 85q59 75 123 75q49 0 63 -29q3 -6 3 -13q0 -20 -20.5 -41t-39.5 -29q-39 -18 -80 -18q-29 0 -57 9h-1q-3 -7 -7 -21q-3 -14 -3 -25
q0 -64 98 -64q60 0 141 21q149 36 328 139q2 1 4 1q6 0 8.5 -6.5t-3.5 -9.5q-189 -101 -272 -125q-5 -2 -25 -7.5t-28.5 -8t-26.5 -7.5t-30 -7.5t-28 -5.5t-30 -4t-28 -1zM88 108q41 0 68 15q45 26 49 52q2 10 -7.5 17t-19.5 8.5t-19 1.5q-34 0 -68.5 -25.5t-55.5 -61.5
q24 -7 53 -7z" />
    <glyph glyph-name="eacute" unicode="&#xe9;" horiz-adv-x="522" 
d="M251 355q-4 0 -6.5 3.5t0.5 7.5q13 19 37 59q2 3 5 3q4 0 6.5 -4t-0.5 -8q-32 -51 -37 -58q-2 -3 -5 -3zM125 -32q-59 0 -91 26t-32 66q0 44 34 85q59 75 123 75q49 0 63 -29q3 -6 3 -13q0 -20 -20.5 -41t-39.5 -29q-39 -18 -80 -18q-29 0 -57 9h-1q-3 -7 -7 -21
q-3 -14 -3 -25q0 -64 98 -64q60 0 141 21q149 36 328 139q2 1 4 1q6 0 8.5 -6.5t-3.5 -9.5q-189 -101 -272 -125q-5 -2 -25 -7.5t-28.5 -8t-26.5 -7.5t-30 -7.5t-28 -5.5t-30 -4t-28 -1zM88 108q41 0 68 15q45 26 49 52q2 10 -7.5 17t-19.5 8.5t-19 1.5q-34 0 -68.5 -25.5
t-55.5 -61.5q24 -7 53 -7z" />
    <glyph glyph-name="ecircumflex" unicode="&#xea;" horiz-adv-x="522" 
d="M377 362q-4 0 -7 4l-33 48q-9 13 -22 13q-7 0 -31 -8l-122 -41h-3q-8 0 -8 10q2 6 6 7l168 56h2q4 0 8 -4l51 -72q1 -1 1 -4q0 -9 -10 -9zM125 -32q-59 0 -91 26t-32 66q0 44 34 85q59 75 123 75q49 0 63 -29q3 -6 3 -13q0 -20 -20.5 -41t-39.5 -29q-39 -18 -80 -18
q-29 0 -57 9h-1q-3 -7 -7 -21q-3 -14 -3 -25q0 -64 98 -64q60 0 141 21q149 36 328 139q2 1 4 1q6 0 8.5 -6.5t-3.5 -9.5q-189 -101 -272 -125q-5 -2 -25 -7.5t-28.5 -8t-26.5 -7.5t-30 -7.5t-28 -5.5t-30 -4t-28 -1zM88 108q41 0 68 15q45 26 49 52q2 10 -7.5 17t-19.5 8.5
t-19 1.5q-34 0 -68.5 -25.5t-55.5 -61.5q24 -7 53 -7z" />
    <glyph glyph-name="edieresis" unicode="&#xeb;" horiz-adv-x="522" 
d="M213 349q-12 0 -9 11l3 8q1 6 8 6q11 0 8 -10q-1 -2 -1 -5t-1 -4q-1 -6 -8 -6zM326 347q-5 0 -8 4t-1 9l2 4q3 4 6 4q5 0 8 -4t1 -9q-2 -2 -2 -4q-3 -4 -6 -4zM125 -32q-59 0 -91 26t-32 66q0 44 34 85q59 75 123 75q49 0 63 -29q3 -6 3 -13q0 -20 -20.5 -41t-39.5 -29
q-39 -18 -80 -18q-29 0 -57 9h-1q-3 -7 -7 -21q-3 -14 -3 -25q0 -64 98 -64q60 0 141 21q149 36 328 139q2 1 4 1q6 0 8.5 -6.5t-3.5 -9.5q-189 -101 -272 -125q-5 -2 -25 -7.5t-28.5 -8t-26.5 -7.5t-30 -7.5t-28 -5.5t-30 -4t-28 -1zM88 108q41 0 68 15q45 26 49 52
q2 10 -7.5 17t-19.5 8.5t-19 1.5q-34 0 -68.5 -25.5t-55.5 -61.5q24 -7 53 -7z" />
    <glyph glyph-name="igrave" unicode="&#xec;" horiz-adv-x="447" 
d="M287 363q-3 0 -5 3l-37 59q-1 1 -1 3q0 8 8 8q4 0 5 -3l36 -59q1 -2 1 -4q0 -7 -7 -7zM28 -50q-73 0 -78 56q-1 20 22.5 47.5t53.5 54.5t38 40q3 4 7 4q5 0 8.5 -4t1.5 -9q-10 -16 -54.5 -57t-53.5 -62q-4 -9 -4 -19q0 -34 62 -34q11 0 19 2q14 3 47 13q14 4 45 13t48 13
q239 68 359 128q1 1 4 1q4 0 7.5 -3.5t3.5 -7.5t-5 -5q-114 -55 -242 -94l-137 -40q-12 -3 -46.5 -14.5t-58.5 -17t-47 -5.5z" />
    <glyph glyph-name="iacute" unicode="&#xed;" horiz-adv-x="447" 
d="M251 355q-4 0 -6.5 3.5t0.5 7.5q13 19 37 59q2 3 5 3q4 0 6.5 -4t-0.5 -8q-32 -51 -37 -58q-2 -3 -5 -3zM28 -50q-73 0 -78 56q-1 20 22.5 47.5t53.5 54.5t38 40q3 4 7 4q5 0 8.5 -4t1.5 -9q-10 -16 -54.5 -57t-53.5 -62q-4 -9 -4 -19q0 -34 62 -34q11 0 19 2q14 3 47 13
q14 4 45 13t48 13q239 68 359 128q1 1 4 1q4 0 7.5 -3.5t3.5 -7.5t-5 -5q-114 -55 -242 -94l-137 -40q-12 -3 -46.5 -14.5t-58.5 -17t-47 -5.5z" />
    <glyph glyph-name="icircumflex" unicode="&#xee;" horiz-adv-x="447" 
d="M377 362q-4 0 -7 4l-33 48q-9 13 -22 13q-7 0 -31 -8l-122 -41h-3q-8 0 -8 10q2 6 6 7l168 56h2q4 0 8 -4l51 -72q1 -1 1 -4q0 -9 -10 -9zM28 -50q-73 0 -78 56q-1 20 22.5 47.5t53.5 54.5t38 40q3 4 7 4q5 0 8.5 -4t1.5 -9q-10 -16 -54.5 -57t-53.5 -62q-4 -9 -4 -19
q0 -34 62 -34q11 0 19 2q14 3 47 13q14 4 45 13t48 13q239 68 359 128q1 1 4 1q4 0 7.5 -3.5t3.5 -7.5t-5 -5q-114 -55 -242 -94l-137 -40q-12 -3 -46.5 -14.5t-58.5 -17t-47 -5.5z" />
    <glyph glyph-name="idieresis" unicode="&#xef;" horiz-adv-x="447" 
d="M213 349q-12 0 -9 11l3 8q1 6 8 6q11 0 8 -10q-1 -2 -1 -5t-1 -4q-1 -6 -8 -6zM326 347q-5 0 -8 4t-1 9l2 4q3 4 6 4q5 0 8 -4t1 -9q-2 -2 -2 -4q-3 -4 -6 -4zM28 -50q-73 0 -78 56q-1 20 22.5 47.5t53.5 54.5t38 40q3 4 7 4q5 0 8.5 -4t1.5 -9q-10 -16 -54.5 -57
t-53.5 -62q-4 -9 -4 -19q0 -34 62 -34q11 0 19 2q14 3 47 13q14 4 45 13t48 13q239 68 359 128q1 1 4 1q4 0 7.5 -3.5t3.5 -7.5t-5 -5q-114 -55 -242 -94l-137 -40q-12 -3 -46.5 -14.5t-58.5 -17t-47 -5.5z" />
    <glyph glyph-name="eth" unicode="&#xf0;" horiz-adv-x="506" 
d="M491 409q8 0 8 -8t-8 -10l-75 -1q41 -177 -119 -299q-52 -40 -153 -73q-51 -18 -85 -18q-44 0 -56 29q-3 9 -3 18q0 37 63 76q89 58 135 58q16 0 28 -6q20 -11 20 -34q0 -21 -21 -30h-3q-7 0 -7 8t6 9q7 10 7 17q0 13 -27 15l-19 -2q-24 -6 -36 -10q-47 -20 -87 -47
q-43 -31 -43 -56q0 -11 13 -18q19 -9 39 -9q18 0 71 16q5 2 25.5 9t29 10.5t24.5 10t27.5 13.5t22.5 15q89 65 117.5 142.5t10.5 154.5l-82 -1q-8 0 -8 8q0 9 8 9q13 0 39 0.5t39 0.5q-14 48 -42 87.5t-58 60.5q-11 8 -7 17t21 -3q31 -22 60.5 -65.5t45.5 -95.5q27 0 79 2z
" />
    <glyph glyph-name="ntilde" unicode="&#xf1;" horiz-adv-x="827" 
d="M485 348q-15 0 -42.5 10t-38.5 12q-16 3 -33 3q-34 0 -66 -16q-1 -1 -4 -1q-6 0 -8.5 6.5t3.5 9.5q41 19 80 19q11 0 17 -1q11 -1 46.5 -13t53.5 -12q31 0 44 30q3 4 7 4t7.5 -4t1.5 -9q-16 -38 -68 -38zM-7 -10q-4 0 -6.5 3.5t-1.5 7.5q5 16 14.5 38t17.5 38t21 40.5
t18 34.5q3 5 7 5q5 0 7.5 -4.5t0.5 -9.5q-51 -103 -62 -128q13 6 64.5 31.5t74 35.5t64.5 27.5t76.5 28t69.5 16.5q8 2 21 2q33 0 33 -24q0 -21 -19 -51q-26 -37 -28 -47q0 -8 25 -8q99 0 493 108h3q9 0 9 -10q0 -6 -6 -7q-414 -114 -512 -114q-13 0 -16 2q-14 8 -14 23
q0 12 10 30q2 3 12.5 18.5t17 28.5t6.5 21q0 13 -16 13q-3 0 -15 -2q-45 -10 -99.5 -30t-81 -31t-101 -46t-83.5 -39q-1 -1 -4 -1z" />
    <glyph glyph-name="ograve" unicode="&#xf2;" horiz-adv-x="529" 
d="M287 363q-3 0 -5 3l-37 59q-1 1 -1 3q0 8 8 8q4 0 5 -3l36 -59q1 -2 1 -4q0 -7 -7 -7zM33 8q-24 0 -41 12q-15 11 -15 29q0 24 25 52t52 40q27 45 78 45q23 0 38.5 -12.5t15.5 -36.5q0 -22 -17 -45q-2 -2 -7 -8t-8 -9q32 -9 108 -9q188 0 335 77q1 1 4 1q4 0 6.5 -3.5
t1.5 -7.5q0 -4 -5 -6q-147 -79 -347 -79q-78 0 -120 11q-55 -51 -104 -51zM140 87q28 34 28 52q0 28 -26 30q-30 0 -58 -22q27 1 42.5 -11.5t15.5 -33.5q0 -5 -2 -15zM120 80q3 6 3 12q0 37 -49 37l-8 -3q-1 -2 -1 -7q0 -12 16 -23q20 -13 39 -16zM29 27q19 0 37 6
q10 3 42 24q-2 5 0 8q-30 10 -45 23q-16 15 -16 32q-16 -12 -20 -16q-7 -6 -18 -24t-11 -32q0 -21 31 -21z" />
    <glyph glyph-name="oacute" unicode="&#xf3;" horiz-adv-x="529" 
d="M251 355q-4 0 -6.5 3.5t0.5 7.5q13 19 37 59q2 3 5 3q4 0 6.5 -4t-0.5 -8q-32 -51 -37 -58q-2 -3 -5 -3zM33 8q-24 0 -41 12q-15 11 -15 29q0 24 25 52t52 40q27 45 78 45q23 0 38.5 -12.5t15.5 -36.5q0 -22 -17 -45q-2 -2 -7 -8t-8 -9q32 -9 108 -9q188 0 335 77
q1 1 4 1q4 0 6.5 -3.5t1.5 -7.5q0 -4 -5 -6q-147 -79 -347 -79q-78 0 -120 11q-55 -51 -104 -51zM140 87q28 34 28 52q0 28 -26 30q-30 0 -58 -22q27 1 42.5 -11.5t15.5 -33.5q0 -5 -2 -15zM120 80q3 6 3 12q0 37 -49 37l-8 -3q-1 -2 -1 -7q0 -12 16 -23q20 -13 39 -16z
M29 27q19 0 37 6q10 3 42 24q-2 5 0 8q-30 10 -45 23q-16 15 -16 32q-16 -12 -20 -16q-7 -6 -18 -24t-11 -32q0 -21 31 -21z" />
    <glyph glyph-name="ocircumflex" unicode="&#xf4;" horiz-adv-x="529" 
d="M377 362q-4 0 -7 4l-33 48q-9 13 -22 13q-7 0 -31 -8l-122 -41h-3q-8 0 -8 10q2 6 6 7l168 56h2q4 0 8 -4l51 -72q1 -1 1 -4q0 -9 -10 -9zM33 8q-24 0 -41 12q-15 11 -15 29q0 24 25 52t52 40q27 45 78 45q23 0 38.5 -12.5t15.5 -36.5q0 -22 -17 -45q-2 -2 -7 -8t-8 -9
q32 -9 108 -9q188 0 335 77q1 1 4 1q4 0 6.5 -3.5t1.5 -7.5q0 -4 -5 -6q-147 -79 -347 -79q-78 0 -120 11q-55 -51 -104 -51zM140 87q28 34 28 52q0 28 -26 30q-30 0 -58 -22q27 1 42.5 -11.5t15.5 -33.5q0 -5 -2 -15zM120 80q3 6 3 12q0 37 -49 37l-8 -3q-1 -2 -1 -7
q0 -12 16 -23q20 -13 39 -16zM29 27q19 0 37 6q10 3 42 24q-2 5 0 8q-30 10 -45 23q-16 15 -16 32q-16 -12 -20 -16q-7 -6 -18 -24t-11 -32q0 -21 31 -21z" />
    <glyph glyph-name="otilde" unicode="&#xf5;" horiz-adv-x="529" 
d="M331 363q-15 0 -42.5 10t-38.5 12q-16 3 -33 3q-34 0 -66 -16q-1 -1 -4 -1q-6 0 -8.5 6.5t3.5 9.5q41 19 80 19q11 0 17 -1q11 -1 46.5 -13t53.5 -12q31 0 44 30q3 4 7 4t7.5 -4t1.5 -9q-16 -38 -68 -38zM33 8q-24 0 -41 12q-15 11 -15 29q0 24 25 52t52 40q27 45 78 45
q23 0 38.5 -12.5t15.5 -36.5q0 -22 -17 -45q-2 -2 -7 -8t-8 -9q32 -9 108 -9q188 0 335 77q1 1 4 1q4 0 6.5 -3.5t1.5 -7.5q0 -4 -5 -6q-147 -79 -347 -79q-78 0 -120 11q-55 -51 -104 -51zM140 87q28 34 28 52q0 28 -26 30q-30 0 -58 -22q27 1 42.5 -11.5t15.5 -33.5
q0 -5 -2 -15zM120 80q3 6 3 12q0 37 -49 37l-8 -3q-1 -2 -1 -7q0 -12 16 -23q20 -13 39 -16zM29 27q19 0 37 6q10 3 42 24q-2 5 0 8q-30 10 -45 23q-16 15 -16 32q-16 -12 -20 -16q-7 -6 -18 -24t-11 -32q0 -21 31 -21z" />
    <glyph glyph-name="odieresis" unicode="&#xf6;" horiz-adv-x="529" 
d="M213 349q-12 0 -9 11l3 8q1 6 8 6q11 0 8 -10q-1 -2 -1 -5t-1 -4q-1 -6 -8 -6zM326 347q-5 0 -8 4t-1 9l2 4q3 4 6 4q5 0 8 -4t1 -9q-2 -2 -2 -4q-3 -4 -6 -4zM33 8q-24 0 -41 12q-15 11 -15 29q0 24 25 52t52 40q27 45 78 45q23 0 38.5 -12.5t15.5 -36.5q0 -22 -17 -45
q-2 -2 -7 -8t-8 -9q32 -9 108 -9q188 0 335 77q1 1 4 1q4 0 6.5 -3.5t1.5 -7.5q0 -4 -5 -6q-147 -79 -347 -79q-78 0 -120 11q-55 -51 -104 -51zM140 87q28 34 28 52q0 28 -26 30q-30 0 -58 -22q27 1 42.5 -11.5t15.5 -33.5q0 -5 -2 -15zM120 80q3 6 3 12q0 37 -49 37l-8 -3
q-1 -2 -1 -7q0 -12 16 -23q20 -13 39 -16zM29 27q19 0 37 6q10 3 42 24q-2 5 0 8q-30 10 -45 23q-16 15 -16 32q-16 -12 -20 -16q-7 -6 -18 -24t-11 -32q0 -21 31 -21z" />
    <glyph glyph-name="divide" unicode="&#xf7;" horiz-adv-x="287" 
d="M138 177q-9 0 -9 9v2q0 9 9 9t9 -9v-2q0 -9 -9 -9zM38 88q-8 0 -8 9q0 8 8 8q67 4 191 10q8 0 8 -8q0 -9 -8 -9q-67 -4 -191 -10zM142 -3q-9 0 -9 9v2q0 9 9 9t9 -9v-2q0 -9 -9 -9z" />
    <glyph glyph-name="oslash" unicode="&#xf8;" horiz-adv-x="529" 
d="M601 144q4 0 6.5 -3.5t1.5 -7.5q0 -4 -5 -6q-147 -79 -347 -79q-78 0 -120 11q-55 -51 -104 -51q-12 0 -24 3l-91 -76q-4 -2 -6 -2q-6 0 -8.5 4.5t2.5 9.5l87 73h-1q-15 11 -15 29q0 24 25 52t52 40q27 45 78 45q26 0 41 -15l118 98q4 2 5 2q6 0 8.5 -4.5t-1.5 -9.5
l-120 -101q3 -8 3 -19q0 -22 -17 -45q-2 -2 -7 -8t-8 -9q32 -9 108 -9q188 0 335 77q1 1 4 1zM142 169q-30 0 -58 -22q29 1 45 -13q30 25 32 26q-6 8 -19 9zM139 120q3 -9 3 -18q0 -5 -2 -15q28 34 28 52v5zM66 126q-1 -2 -1 -7q0 -12 16 -23q1 0 1 -0.5t1 -0.5l29 25
q-12 9 -38 9zM-2 48q0 -12 9 -16l62 51q-1 1 -3 2.5t-3 2.5q-16 15 -16 32q-16 -12 -20 -16q-7 -6 -18 -24t-11 -32zM120 80q3 6 3 12q0 5 -2 13l-22 -19q11 -4 21 -6zM108 57q-2 5 0 8l-24 9l-56 -47h1q19 0 37 6q10 3 42 24z" />
    <glyph glyph-name="ugrave" unicode="&#xf9;" horiz-adv-x="819" 
d="M287 363q-3 0 -5 3l-37 59q-1 1 -1 3q0 8 8 8q4 0 5 -3l36 -59q1 -2 1 -4q0 -7 -7 -7zM438 0q-38 0 -49 26q-5 10 -5 23q0 29 37 86q-126 -56 -226 -90q-11 -4 -37.5 -14t-46.5 -16t-39 -10q-6 -1 -19 -1q-39 0 -49 25q-4 12 -4 25q0 49 63 97q2 2 6 2q6 0 8.5 -4.5
t-2.5 -9.5q-57 -46 -57 -83q0 -35 33 -35q30 0 95 25q221 83 292 116q1 1 4 1q5 0 8 -4t0 -9q-1 -3 -11 -19.5t-16.5 -29t-12.5 -29.5t-6 -28q0 -27 31 -27q28 0 112 21q38 10 80 24.5t64.5 23.5t74 32t66.5 29l1 1h2q7 0 10 -6.5t-4 -9.5q-21 -9 -69.5 -30t-76 -32t-69 -26
t-80.5 -25t-79 -16q-13 -3 -29 -3z" />
    <glyph glyph-name="uacute" unicode="&#xfa;" horiz-adv-x="819" 
d="M251 355q-4 0 -6.5 3.5t0.5 7.5q13 19 37 59q2 3 5 3q4 0 6.5 -4t-0.5 -8q-32 -51 -37 -58q-2 -3 -5 -3zM438 0q-38 0 -49 26q-5 10 -5 23q0 29 37 86q-126 -56 -226 -90q-11 -4 -37.5 -14t-46.5 -16t-39 -10q-6 -1 -19 -1q-39 0 -49 25q-4 12 -4 25q0 49 63 97q2 2 6 2
q6 0 8.5 -4.5t-2.5 -9.5q-57 -46 -57 -83q0 -35 33 -35q30 0 95 25q221 83 292 116q1 1 4 1q5 0 8 -4t0 -9q-1 -3 -11 -19.5t-16.5 -29t-12.5 -29.5t-6 -28q0 -27 31 -27q28 0 112 21q38 10 80 24.5t64.5 23.5t74 32t66.5 29l1 1h2q7 0 10 -6.5t-4 -9.5q-21 -9 -69.5 -30
t-76 -32t-69 -26t-80.5 -25t-79 -16q-13 -3 -29 -3z" />
    <glyph glyph-name="ucircumflex" unicode="&#xfb;" horiz-adv-x="819" 
d="M377 362q-4 0 -7 4l-33 48q-9 13 -22 13q-7 0 -31 -8l-122 -41h-3q-8 0 -8 10q2 6 6 7l168 56h2q4 0 8 -4l51 -72q1 -1 1 -4q0 -9 -10 -9zM438 0q-38 0 -49 26q-5 10 -5 23q0 29 37 86q-126 -56 -226 -90q-11 -4 -37.5 -14t-46.5 -16t-39 -10q-6 -1 -19 -1q-39 0 -49 25
q-4 12 -4 25q0 49 63 97q2 2 6 2q6 0 8.5 -4.5t-2.5 -9.5q-57 -46 -57 -83q0 -35 33 -35q30 0 95 25q221 83 292 116q1 1 4 1q5 0 8 -4t0 -9q-1 -3 -11 -19.5t-16.5 -29t-12.5 -29.5t-6 -28q0 -27 31 -27q28 0 112 21q38 10 80 24.5t64.5 23.5t74 32t66.5 29l1 1h2
q7 0 10 -6.5t-4 -9.5q-21 -9 -69.5 -30t-76 -32t-69 -26t-80.5 -25t-79 -16q-13 -3 -29 -3z" />
    <glyph glyph-name="udieresis" unicode="&#xfc;" horiz-adv-x="819" 
d="M213 349q-12 0 -9 11l3 8q1 6 8 6q11 0 8 -10q-1 -2 -1 -5t-1 -4q-1 -6 -8 -6zM326 347q-5 0 -8 4t-1 9l2 4q3 4 6 4q5 0 8 -4t1 -9q-2 -2 -2 -4q-3 -4 -6 -4zM438 0q-38 0 -49 26q-5 10 -5 23q0 29 37 86q-126 -56 -226 -90q-11 -4 -37.5 -14t-46.5 -16t-39 -10
q-6 -1 -19 -1q-39 0 -49 25q-4 12 -4 25q0 49 63 97q2 2 6 2q6 0 8.5 -4.5t-2.5 -9.5q-57 -46 -57 -83q0 -35 33 -35q30 0 95 25q221 83 292 116q1 1 4 1q5 0 8 -4t0 -9q-1 -3 -11 -19.5t-16.5 -29t-12.5 -29.5t-6 -28q0 -27 31 -27q28 0 112 21q38 10 80 24.5t64.5 23.5
t74 32t66.5 29l1 1h2q7 0 10 -6.5t-4 -9.5q-21 -9 -69.5 -30t-76 -32t-69 -26t-80.5 -25t-79 -16q-13 -3 -29 -3z" />
    <glyph glyph-name="yacute" unicode="&#xfd;" horiz-adv-x="971" 
d="M251 355q-4 0 -6.5 3.5t0.5 7.5q13 19 37 59q2 3 5 3q4 0 6.5 -4t-0.5 -8q-32 -51 -37 -58q-2 -3 -5 -3zM-168 -652q-62 -4 -62 61q0 46 27 105q34 72 90.5 136.5t129 118t138.5 92.5t148 80q30 14 62 28l99 158q-86 -38 -179 -67q-9 -3 -35.5 -10.5t-40.5 -11.5t-36 -9
t-41 -7.5t-37 -3.5q-80 0 -94 58q-2 8 -2 12q0 35 67 85q4 2 5 2q6 0 8.5 -5.5t-2.5 -9.5q-38 -28 -49 -46q-7 -13 -7 -26q0 -21 15 -35t38 -16q38 -2 132 20q145 35 276 97q2 1 5 1q5 0 7.5 -4t-0.5 -9l-101 -160q283 123 588 155h2q8 0 8 -10q0 -7 -7 -7
q-319 -32 -607 -164q-157 -248 -300 -402q-76 -83 -138 -136q-3 -3 -14.5 -14t-17 -16t-17 -14t-19.5 -13.5t-18.5 -8.5t-20.5 -4zM-184 -635q35 0 89 46q125 105 227 233q101 122 214 298q-138 -65 -255 -146q-155 -106 -224 -198q-55 -77 -72 -142q-9 -25 -9 -50
q0 -41 30 -41z" />
    <glyph glyph-name="thorn" unicode="&#xfe;" horiz-adv-x="324" 
d="M10 0q-5 0 -8 4.5t-1 9.5l162 349l-1 1q0 5 5 8l65 142q3 4 7 4q5 0 8.5 -4t0.5 -10l-55 -120q10 2 16 2q35 0 61.5 -29t23.5 -66q-5 -67 -65.5 -97t-134.5 -28h-2l-75 -161q-3 -5 -7 -5zM100 184q126 0 164 72q11 18 11 42q0 33 -23 52q-20 17 -43 17q-14 0 -28 -8z" />
    <glyph glyph-name="ydieresis" unicode="&#xff;" horiz-adv-x="971" 
d="M213 349q-12 0 -9 11l3 8q1 6 8 6q11 0 8 -10q-1 -2 -1 -5t-1 -4q-1 -6 -8 -6zM326 347q-5 0 -8 4t-1 9l2 4q3 4 6 4q5 0 8 -4t1 -9q-2 -2 -2 -4q-3 -4 -6 -4zM-168 -652q-62 -4 -62 61q0 46 27 105q34 72 90.5 136.5t129 118t138.5 92.5t148 80q30 14 62 28l99 158
q-86 -38 -179 -67q-9 -3 -35.5 -10.5t-40.5 -11.5t-36 -9t-41 -7.5t-37 -3.5q-80 0 -94 58q-2 8 -2 12q0 35 67 85q4 2 5 2q6 0 8.5 -5.5t-2.5 -9.5q-38 -28 -49 -46q-7 -13 -7 -26q0 -21 15 -35t38 -16q38 -2 132 20q145 35 276 97q2 1 5 1q5 0 7.5 -4t-0.5 -9l-101 -160
q283 123 588 155h2q8 0 8 -10q0 -7 -7 -7q-319 -32 -607 -164q-157 -248 -300 -402q-76 -83 -138 -136q-3 -3 -14.5 -14t-17 -16t-17 -14t-19.5 -13.5t-18.5 -8.5t-20.5 -4zM-184 -635q35 0 89 46q125 105 227 233q101 122 214 298q-138 -65 -255 -146q-155 -106 -224 -198
q-55 -77 -72 -142q-9 -25 -9 -50q0 -41 30 -41z" />
    <glyph glyph-name="Amacron" unicode="&#x100;" horiz-adv-x="972" 
d="M793 771q-114 2 -169 2q-9 1 -9 9q0 9 9 9q28 -1 84.5 -1.5t84.5 -0.5q8 0 8 -9t-8 -9zM559 -243q-18 0 -31 8q-24 14 -27 80q0 20 5 45.5t10 42t15.5 47.5t13.5 41q38 113 91 238q-67 -93 -158 -160.5t-196 -97.5q-47 -14 -87 -14q-82 0 -121 58q-24 37 -24 84
q0 70 48 156q63 114 170 195t236 118q62 18 105 18q44 0 74 -19q36 -23 47 -58q5 -14 5 -30q0 -25 -32 -73q-3 -4 -8 -4t-8 4t0 9q29 40 29 71q0 28 -21 49q-31 31 -88 31q-63 0 -151 -33q-112 -43 -202 -115.5t-141 -170.5q-46 -90 -46 -152q0 -65 49 -96q38 -25 87 -25
q65 0 159 47q111 54 197 143.5t138 202.5q3 4 7 4t7.5 -4t1.5 -9q-98 -216 -140 -340q-35 -100 -50 -176q-3 -10 -3 -28v-3q0 -65 38 -65q4 0 14 2q33 10 61 33t67 69.5t46 53.5q40 41 120 116t95 82q3 2 7 -2q8 -8 2 -12q-11 -8 -35 -30t-57.5 -53.5t-37.5 -35.5
q-73 -68 -139 -142q-60 -67 -96 -86q-25 -14 -46 -14z" />
    <glyph glyph-name="amacron" unicode="&#x101;" horiz-adv-x="499" 
d="M350 378q-114 2 -169 2q-9 2 -9 9q0 9 9 9q28 -1 84.5 -1.5t84.5 -0.5q8 0 8 -9t-8 -9zM63 0q-16 0 -31 6q-32 11 -32 40q0 27 27 51q34 30 81.5 54t88.5 24q10 0 15 -1q15 -2 24 -13t9 -24q0 -20 -21 -29q-1 -1 -3 -1q-8 0 -8 10q2 6 6 8q8 11 8 17q0 13 -28 15
q-18 -2 -27 -4q-23 -5 -53 -19q-58 -29 -80 -50q-16 -16 -21 -30q-1 -3 -1 -8q0 -25 47 -25q20 0 35 6q57 18 108 66q4 2 6 2q5 0 8 -4t0 -9q-10 -13 -10 -25q0 -18 21.5 -27.5t47.5 -9.5q3 0 9 0.5t8 0.5l34 9q54 18 81 28q89 33 174 79q1 1 4 1q9 0 9 -9q0 -4 -5 -7
q-128 -73 -269 -112q-36 -10 -59 -10q-30 0 -50 16q-19 18 -21 44q-72 -60 -132 -60z" />
    <glyph glyph-name="Abreve" unicode="&#x102;" horiz-adv-x="972" 
d="M730 759q-41 0 -79 20q-4 3 -4 7q0 5 4 7.5t9 0.5q34 -17 69 -17q41 0 75 21q1 1 4 1q9 0 9 -10q0 -4 -4 -7q-40 -23 -83 -23zM559 -243q-18 0 -31 8q-24 14 -27 80q0 20 5 45.5t10 42t15.5 47.5t13.5 41q38 113 91 238q-67 -93 -158 -160.5t-196 -97.5q-47 -14 -87 -14
q-82 0 -121 58q-24 37 -24 84q0 70 48 156q63 114 170 195t236 118q62 18 105 18q44 0 74 -19q36 -23 47 -58q5 -14 5 -30q0 -25 -32 -73q-3 -4 -8 -4t-8 4t0 9q29 40 29 71q0 28 -21 49q-31 31 -88 31q-63 0 -151 -33q-112 -43 -202 -115.5t-141 -170.5q-46 -90 -46 -152
q0 -65 49 -96q38 -25 87 -25q65 0 159 47q111 54 197 143.5t138 202.5q3 4 7 4t7.5 -4t1.5 -9q-98 -216 -140 -340q-35 -100 -50 -176q-3 -10 -3 -28v-3q0 -65 38 -65q4 0 14 2q33 10 61 33t67 69.5t46 53.5q40 41 120 116t95 82q3 2 7 -2q8 -8 2 -12q-11 -8 -35 -30
t-57.5 -53.5t-37.5 -35.5q-73 -68 -139 -142q-60 -67 -96 -86q-25 -14 -46 -14z" />
    <glyph glyph-name="abreve" unicode="&#x103;" horiz-adv-x="499" 
d="M304 412q-41 0 -79 20q-4 3 -4 7q0 5 4 7.5t9 0.5q34 -17 69 -17q41 0 75 21q1 1 4 1q9 0 9 -10q0 -4 -4 -7q-40 -23 -83 -23zM63 0q-16 0 -31 6q-32 11 -32 40q0 27 27 51q34 30 81.5 54t88.5 24q10 0 15 -1q15 -2 24 -13t9 -24q0 -20 -21 -29q-1 -1 -3 -1q-8 0 -8 10
q2 6 6 8q8 11 8 17q0 13 -28 15q-18 -2 -27 -4q-23 -5 -53 -19q-58 -29 -80 -50q-16 -16 -21 -30q-1 -3 -1 -8q0 -25 47 -25q20 0 35 6q57 18 108 66q4 2 6 2q5 0 8 -4t0 -9q-10 -13 -10 -25q0 -18 21.5 -27.5t47.5 -9.5q3 0 9 0.5t8 0.5l34 9q54 18 81 28q89 33 174 79
q1 1 4 1q9 0 9 -9q0 -4 -5 -7q-128 -73 -269 -112q-36 -10 -59 -10q-30 0 -50 16q-19 18 -21 44q-72 -60 -132 -60z" />
    <glyph glyph-name="Aogonek" unicode="&#x104;" horiz-adv-x="972" 
d="M968 130q8 -8 2 -12q-11 -8 -35 -30t-57.5 -53.5t-37.5 -35.5q-73 -68 -139 -142q-60 -67 -96 -86q-25 -14 -46 -14q-10 0 -14 1q-56 -32 -94 -65l-25 -23q-38 -34 -51 -58q-5 -10 -5 -14q0 -10 14 -10q10 0 25.5 4.5t30 10.5t15.5 6h3q8 0 8 -9q-2 -7 -7 -8t-21 -7
t-30 -9.5t-25 -3.5q-12 0 -19 4q-12 7 -12 19q0 11 10 27q50 78 163 145q-21 17 -24 78q0 20 5 45.5t10 42t15.5 47.5t13.5 41q38 113 91 238q-67 -93 -158 -160.5t-196 -97.5q-47 -14 -87 -14q-82 0 -121 58q-24 37 -24 84q0 70 48 156q63 114 170 195t236 118
q62 18 105 18q44 0 74 -19q36 -23 47 -58q5 -14 5 -30q0 -25 -32 -73q-3 -4 -8 -4t-8 4t0 9q29 40 29 71q0 28 -21 49q-31 31 -88 31q-63 0 -151 -33q-112 -43 -202 -115.5t-141 -170.5q-46 -90 -46 -152q0 -65 49 -96q38 -25 87 -25q65 0 159 47q111 54 197 143.5
t138 202.5q3 4 7 4t7.5 -4t1.5 -9q-98 -216 -140 -340q-35 -100 -50 -176q-3 -10 -3 -28v-3q0 -51 25 -62q1 1 2 1t2 1q2 1 4 1q6 0 8 -6q3 0 11 2q33 10 61 33t67 69.5t46 53.5q40 41 120 116t95 82q3 2 7 -2z" />
    <glyph glyph-name="aogonek" unicode="&#x105;" horiz-adv-x="499" 
d="M590 138q9 0 9 -9q0 -4 -5 -7q-128 -73 -269 -112q-34 -10 -56 -10q-56 -32 -100 -69l-25 -23q-38 -34 -51 -58q-5 -10 -5 -14q0 -10 14 -10q10 0 25.5 4.5t30 10.5t15.5 6h3q8 0 8 -9q-2 -7 -7 -8t-21 -7t-30 -9.5t-25 -3.5q-12 0 -19 4q-12 7 -12 19q0 11 10 27
q50 78 160 143q-13 5 -24 13q-19 18 -21 44q-72 -60 -132 -60q-16 0 -31 6q-32 11 -32 40q0 27 27 51q34 30 81.5 54t88.5 24q10 0 15 -1q15 -2 24 -13t9 -24q0 -20 -21 -29q-1 -1 -3 -1q-8 0 -8 10q2 6 6 8q8 11 8 17q0 13 -28 15q-18 -2 -27 -4q-23 -5 -53 -19
q-58 -29 -80 -50q-16 -16 -21 -30q-1 -3 -1 -8q0 -25 47 -25q20 0 35 6q57 18 108 66q4 2 6 2q5 0 8 -4t0 -9q-10 -13 -10 -25q0 -18 21.5 -27.5t47.5 -9.5q3 0 9 0.5t8 0.5l34 9q54 18 81 28q89 33 174 79q1 1 4 1z" />
    <glyph glyph-name="Cacute" unicode="&#x106;" horiz-adv-x="609" 
d="M643 700q-4 0 -6.5 3t0.5 8q13 19 37 59q2 3 5 3q4 0 6.5 -3.5t-0.5 -8.5q-32 -51 -37 -58q-2 -3 -5 -3zM214 -97q-61 0 -103 31q-62 47 -62 151q0 23 3 42q14 113 95 223q76 103 183.5 182t218.5 93q18 2 26 2q84 0 99 -72q3 -17 3 -34q0 -63 -37 -128q-3 -4 -7 -4
q-5 0 -8.5 4.5t-0.5 8.5q37 62 37 122q0 46 -27 68q-23 20 -62 20q-73 0 -192 -73q-103 -63 -182.5 -153t-112.5 -194q-18 -58 -18 -109q0 -73 35 -115q39 -47 113 -47q35 0 74 12q25 9 92.5 48t114.5 44q1 0 5.5 0.5t6.5 0.5q11 0 14 -9v-4q0 -8 -9 -8q-1 0 -4 0.5t-5 0.5
q-14 0 -38 -6q-40 -10 -72 -30q-4 -2 -26 -15.5t-30 -18t-25 -12t-31 -11.5q-37 -10 -68 -10z" />
    <glyph glyph-name="cacute" unicode="&#x107;" horiz-adv-x="479" 
d="M251 355q-4 0 -6.5 3.5t0.5 7.5q13 19 37 59q2 3 5 3q4 0 6.5 -4t-0.5 -8q-32 -51 -37 -58q-2 -3 -5 -3zM59 0q-52 0 -59 44q-5 34 46 66q34 22 52.5 33t50.5 22.5t60 11.5t36 -18q4 -9 4 -19q0 -21 -21 -30h-1q-1 -1 -2 -1q-8 0 -8 10q2 6 6 8q8 11 8 17q0 14 -27 15
q-18 -2 -28 -4q-34 -9 -52 -19q-80 -44 -102 -76q-5 -38 26 -41q3 0 9 -0.5t9 -0.5q12 0 24 3q10 3 28.5 8.5t33.5 10t28 8.5q10 3 63.5 12t129.5 27.5t153 48.5l4 1q8 0 8 -7t-12 -12q-71 -27 -144.5 -45.5t-127 -27.5t-55.5 -9l-34 -12q-34 -12 -59 -18t-47 -6z" />
    <glyph glyph-name="Cdotaccent" unicode="&#x10a;" horiz-adv-x="609" 
d="M638 700q-7 0 -11 4.5t-2 11.5q2 8 4 13q3 9 12 9q6 0 10 -4.5t2 -11.5l-3 -13q-3 -9 -12 -9zM214 -97q-61 0 -103 31q-62 47 -62 151q0 23 3 42q14 113 95 223q76 103 183.5 182t218.5 93q18 2 26 2q84 0 99 -72q3 -17 3 -34q0 -63 -37 -128q-3 -4 -7 -4q-5 0 -8.5 4.5
t-0.5 8.5q37 62 37 122q0 46 -27 68q-23 20 -62 20q-73 0 -192 -73q-103 -63 -182.5 -153t-112.5 -194q-18 -58 -18 -109q0 -73 35 -115q39 -47 113 -47q35 0 74 12q25 9 92.5 48t114.5 44q1 0 5.5 0.5t6.5 0.5q11 0 14 -9v-4q0 -8 -9 -8q-1 0 -4 0.5t-5 0.5q-14 0 -38 -6
q-40 -10 -72 -30q-4 -2 -26 -15.5t-30 -18t-25 -12t-31 -11.5q-37 -10 -68 -10z" />
    <glyph glyph-name="cdotaccent" unicode="&#x10b;" horiz-adv-x="479" 
d="M280 364q-7 0 -11 4.5t-2 11.5q2 8 4 13q3 9 12 9q6 0 10 -4.5t2 -11.5l-3 -13q-3 -9 -12 -9zM59 0q-52 0 -59 44q-5 34 46 66q34 22 52.5 33t50.5 22.5t60 11.5t36 -18q4 -9 4 -19q0 -21 -21 -30h-1q-1 -1 -2 -1q-8 0 -8 10q2 6 6 8q8 11 8 17q0 14 -27 15
q-18 -2 -28 -4q-34 -9 -52 -19q-80 -44 -102 -76q-5 -38 26 -41q3 0 9 -0.5t9 -0.5q12 0 24 3q10 3 28.5 8.5t33.5 10t28 8.5q10 3 63.5 12t129.5 27.5t153 48.5l4 1q8 0 8 -7t-12 -12q-71 -27 -144.5 -45.5t-127 -27.5t-55.5 -9l-34 -12q-34 -12 -59 -18t-47 -6z" />
    <glyph glyph-name="Ccaron" unicode="&#x10c;" horiz-adv-x="609" 
d="M659 729q-4 0 -8 4l-50 72q-1 1 -1 4q0 6 6 8.5t10 -3.5l34 -48q9 -13 21 -13q7 0 31 8l123 41h2q8 0 8 -8t-6 -9l-168 -56h-2zM214 -97q-61 0 -103 31q-62 47 -62 151q0 23 3 42q14 113 95 223q76 103 183.5 182t218.5 93q18 2 26 2q84 0 99 -72q3 -17 3 -34
q0 -63 -37 -128q-3 -4 -7 -4q-5 0 -8.5 4.5t-0.5 8.5q37 62 37 122q0 46 -27 68q-23 20 -62 20q-73 0 -192 -73q-103 -63 -182.5 -153t-112.5 -194q-18 -58 -18 -109q0 -73 35 -115q39 -47 113 -47q35 0 74 12q25 9 92.5 48t114.5 44q1 0 5.5 0.5t6.5 0.5q11 0 14 -9v-4
q0 -8 -9 -8q-1 0 -4 0.5t-5 0.5q-14 0 -38 -6q-40 -10 -72 -30q-4 -2 -26 -15.5t-30 -18t-25 -12t-31 -11.5q-37 -10 -68 -10z" />
    <glyph glyph-name="ccaron" unicode="&#x10d;" horiz-adv-x="479" 
d="M281 354q-4 0 -8 4l-50 72q-1 1 -1 4q0 6 6 8.5t10 -3.5l34 -48q9 -13 21 -13q7 0 31 8l123 41h2q8 0 8 -8t-6 -9l-168 -56h-2zM59 0q-52 0 -59 44q-5 34 46 66q34 22 52.5 33t50.5 22.5t60 11.5t36 -18q4 -9 4 -19q0 -21 -21 -30h-1q-1 -1 -2 -1q-8 0 -8 10q2 6 6 8
q8 11 8 17q0 14 -27 15q-18 -2 -28 -4q-34 -9 -52 -19q-80 -44 -102 -76q-5 -38 26 -41q3 0 9 -0.5t9 -0.5q12 0 24 3q10 3 28.5 8.5t33.5 10t28 8.5q10 3 63.5 12t129.5 27.5t153 48.5l4 1q8 0 8 -7t-12 -12q-71 -27 -144.5 -45.5t-127 -27.5t-55.5 -9l-34 -12
q-34 -12 -59 -18t-47 -6z" />
    <glyph glyph-name="Dcaron" unicode="&#x10e;" horiz-adv-x="1032" 
d="M912 729q-4 0 -8 4l-50 72q-1 1 -1 4q0 6 6 8.5t10 -3.5l34 -48q9 -13 21 -13q7 0 31 8l123 41h2q8 0 8 -8t-6 -9l-168 -56h-2zM406 -179q-54 0 -97 14q-62 21 -119 76q-12 12 -29 22l-27 -27q-52 -52 -81 -52q-9 0 -16 3q-32 13 -32 41q0 5 1 8q7 34 31 50.5t57 16.5
t65 -16l29 30q78 85 132 149q132 157 260 334q3 4 7 4q5 0 8 -4t0 -9q-104 -145 -189 -248q-115 -143 -231 -265q12 -8 53.5 -45t73.5 -47q56 -17 110 -17q34 0 67 6q189 35 324 184q64 71 105.5 155t41.5 167q0 11 -2 33q-12 99 -90.5 156t-182.5 53q-91 -4 -177.5 -44.5
t-152.5 -106.5q-3 -3 -6 -3q-5 0 -7.5 5.5t1.5 9.5q82 84 185 122q85 33 167 33q71 0 135 -26q62 -26 102 -79.5t44 -119.5q1 -8 1 -24q0 -152 -105.5 -291.5t-251.5 -201.5q-107 -46 -204 -46zM51 -127q19 0 32 12q18 12 38 33l24 24q-32 17 -60 17q-26 0 -41 -18
q-20 -15 -20 -33q0 -17 17 -34q3 -1 10 -1z" />
    <glyph glyph-name="dcaron" unicode="&#x10f;" horiz-adv-x="825" 
d="M41 -29q-41 0 -53 23q-6 12 -6 23q0 29 27 52q75 62 137 79q30 6 40 6q27 0 35 -18q5 -9 5 -21q0 -19 -20 -29h-1q-1 -1 -2 -1q-7 0 -7 9q0 8 5 10q7 8 7 16q0 13 -29 15q-8 -1 -27 -5q-36 -12 -53 -21q-57 -36 -71 -47q-26 -22 -26 -48q0 -20 22 -24q6 -1 16 -1
q16 0 29 4q12 5 91 31q56 22 106 58q1 7 23 67q84 209 178 342q2 4 22.5 37t35 54t38 41.5t43.5 20.5q9 0 14 -2q21 -7 21 -36q0 -40 -43 -123t-74 -128.5t-54 -77.5q-101 -144 -188 -209q-5 -48 35 -62q13 -5 32 -5q11 0 29 2q40 5 84.5 14.5t78 18t86 26.5t76.5 27
l84 31.5t77 28.5h2q9 0 9 -9q0 -8 -6 -9q-230 -84 -364 -120q-114 -27 -152 -28q-32 0 -53 10q-36 21 -38 61q-3 -2 -15.5 -10.5t-20.5 -11.5q-91 -47 -163 -59q-12 -2 -22 -2zM290 101q82 65 173 198q98 142 139 237q17 41 21 61q0 1 0.5 4t0.5 4q0 19 -17 19
q-19 0 -36 -19q-14 -15 -26.5 -32t-31 -44.5t-22.5 -33.5q-95 -134 -187 -356q0 -1 -6 -15.5t-8 -22.5zM741 532q-4 0 -6.5 3t0.5 8q13 19 37 59q2 3 5 3q4 0 6.5 -3.5t-0.5 -8.5q-32 -51 -37 -58q-2 -3 -5 -3z" />
    <glyph glyph-name="Dcroat" unicode="&#x110;" horiz-adv-x="1032" 
d="M406 -179q-54 0 -97 14q-62 21 -119 76q-12 12 -29 22l-27 -27q-52 -52 -81 -52q-9 0 -16 3q-32 13 -32 41q0 5 1 8q7 34 31 50.5t57 16.5t65 -16l29 30l100 112l-33 -1q-9 0 -9 8t9 10q15 1 35 1h14l16 19q132 157 260 334q3 4 7 4q5 0 8 -4t0 -9q-104 -145 -189 -248
l-79 -96h46q7 0 7 -6q0 -11 -8 -11l-60 -1q-70 -81 -137 -151q12 -8 53.5 -45t73.5 -47q56 -17 110 -17q34 0 67 6q189 35 324 184q64 71 105.5 155t41.5 167q0 11 -2 33q-12 99 -90.5 156t-182.5 53q-91 -4 -177.5 -44.5t-152.5 -106.5q-3 -3 -6 -3q-5 0 -7.5 5.5t1.5 9.5
q82 84 185 122q85 33 167 33q71 0 135 -26q62 -26 102 -79.5t44 -119.5q1 -8 1 -24q0 -152 -105.5 -291.5t-251.5 -201.5q-107 -46 -204 -46zM51 -127q19 0 32 12q18 12 38 33l24 24q-32 17 -60 17q-26 0 -41 -18q-20 -15 -20 -33q0 -17 17 -34q3 -1 10 -1z" />
    <glyph glyph-name="dcroat" unicode="&#x111;" horiz-adv-x="825" 
d="M866 149q9 0 9 -9q0 -8 -6 -9q-230 -84 -364 -120q-114 -27 -152 -28q-32 0 -53 10q-36 21 -38 61q-3 -2 -15.5 -10.5t-20.5 -11.5q-91 -47 -163 -59q-12 -2 -22 -2q-41 0 -53 23q-6 12 -6 23q0 29 27 52q75 62 137 79q30 6 40 6q27 0 35 -18q5 -9 5 -21q0 -19 -20 -29
h-1q-1 -1 -2 -1q-7 0 -7 9q0 8 5 10q7 8 7 16q0 13 -29 15q-8 -1 -27 -5q-36 -12 -53 -21q-57 -36 -71 -47q-26 -22 -26 -48q0 -20 22 -24q6 -1 16 -1q16 0 29 4q12 5 91 31q56 22 106 58q1 7 23 67l19 46h-29q-9 1 -9 9q0 9 9 9q24 0 37 -1q71 165 151 279q2 4 22.5 37
t35 54t38 41.5t43.5 20.5q9 0 14 -2q21 -7 21 -36q0 -40 -43 -123t-74 -128.5t-54 -77.5q-22 -33 -48 -66h26q8 0 8 -9t-8 -9q-27 0 -40 1q-61 -78 -126 -126q-5 -48 35 -62q13 -5 32 -5q11 0 29 2q40 5 84.5 14.5t78 18t86 26.5t76.5 27l84 31.5t77 28.5h2zM491 495
q-83 -118 -156 -283h64q40 50 64 87q98 142 139 237q17 41 21 61q0 1 0.5 4t0.5 4q0 19 -17 19q-19 0 -36 -19q-14 -15 -26.5 -32t-31 -44.5t-22.5 -33.5zM304 139q0 -1 -6 -15.5t-8 -22.5q45 36 94 93q-10 0 -28 0.5t-28 0.5z" />
    <glyph glyph-name="Emacron" unicode="&#x112;" horiz-adv-x="851" 
d="M713 733q-114 2 -169 2q-9 1 -9 9q0 9 9 9q28 -1 84.5 -1.5t84.5 -0.5q8 0 8 -9t-8 -9zM247 -153q-82 0 -152 41t-86 116q-5 20 -5 49q0 64 33 123.5t88 99.5q91 65 147 86l31 12q-26 18 -35 53q-2 8 -2 23q0 77 93 130t203 53h12q81 -3 132.5 -40.5t51.5 -109.5
q0 -16 -1 -24q0 -9 -10 -9q-8 0 -8 9q2 16 2 24q0 68 -50.5 101.5t-128.5 33.5q-85 0 -164.5 -36t-105.5 -90q-9 -20 -9 -38q0 -48 44 -72q31 11 61 11q22 0 42 -7q6 -3 6 -9q0 -4 -4 -7q-29 -17 -63 -17q-26 0 -47 10l-57 -22q-45 -18 -120 -72q-53 -38 -90 -96t-37 -118
q0 -28 11 -58q48 -126 231 -126q112 0 251 43.5t262 109.5q1 1 4 1q7 0 7 -8q0 -5 -4 -8q-109 -69 -270 -115.5t-263 -46.5zM371 370q14 0 29 5q-22 1 -45 -3q10 -2 16 -2z" />
    <glyph glyph-name="emacron" unicode="&#x113;" horiz-adv-x="522" 
d="M350 378q-114 2 -169 2q-9 2 -9 9q0 9 9 9q28 -1 84.5 -1.5t84.5 -0.5q8 0 8 -9t-8 -9zM125 -32q-59 0 -91 26t-32 66q0 44 34 85q59 75 123 75q49 0 63 -29q3 -6 3 -13q0 -20 -20.5 -41t-39.5 -29q-39 -18 -80 -18q-29 0 -57 9h-1q-3 -7 -7 -21q-3 -14 -3 -25
q0 -64 98 -64q60 0 141 21q149 36 328 139q2 1 4 1q6 0 8.5 -6.5t-3.5 -9.5q-189 -101 -272 -125q-5 -2 -25 -7.5t-28.5 -8t-26.5 -7.5t-30 -7.5t-28 -5.5t-30 -4t-28 -1zM88 108q41 0 68 15q45 26 49 52q2 10 -7.5 17t-19.5 8.5t-19 1.5q-34 0 -68.5 -25.5t-55.5 -61.5
q24 -7 53 -7z" />
    <glyph glyph-name="Edotaccent" unicode="&#x116;" horiz-adv-x="851" 
d="M625 700q-7 0 -11 4.5t-2 11.5q2 8 4 13q3 9 12 9q6 0 10 -4.5t2 -11.5l-3 -13q-3 -9 -12 -9zM247 -153q-82 0 -152 41t-86 116q-5 20 -5 49q0 64 33 123.5t88 99.5q91 65 147 86l31 12q-26 18 -35 53q-2 8 -2 23q0 77 93 130t203 53h12q81 -3 132.5 -40.5t51.5 -109.5
q0 -16 -1 -24q0 -9 -10 -9q-8 0 -8 9q2 16 2 24q0 68 -50.5 101.5t-128.5 33.5q-85 0 -164.5 -36t-105.5 -90q-9 -20 -9 -38q0 -48 44 -72q31 11 61 11q22 0 42 -7q6 -3 6 -9q0 -4 -4 -7q-29 -17 -63 -17q-26 0 -47 10l-57 -22q-45 -18 -120 -72q-53 -38 -90 -96t-37 -118
q0 -28 11 -58q48 -126 231 -126q112 0 251 43.5t262 109.5q1 1 4 1q7 0 7 -8q0 -5 -4 -8q-109 -69 -270 -115.5t-263 -46.5zM371 370q14 0 29 5q-22 1 -45 -3q10 -2 16 -2z" />
    <glyph glyph-name="edotaccent" unicode="&#x117;" horiz-adv-x="522" 
d="M280 364q-7 0 -11 4.5t-2 11.5q2 8 4 13q3 9 12 9q6 0 10 -4.5t2 -11.5l-3 -13q-3 -9 -12 -9zM125 -32q-59 0 -91 26t-32 66q0 44 34 85q59 75 123 75q49 0 63 -29q3 -6 3 -13q0 -20 -20.5 -41t-39.5 -29q-39 -18 -80 -18q-29 0 -57 9h-1q-3 -7 -7 -21q-3 -14 -3 -25
q0 -64 98 -64q60 0 141 21q149 36 328 139q2 1 4 1q6 0 8.5 -6.5t-3.5 -9.5q-189 -101 -272 -125q-5 -2 -25 -7.5t-28.5 -8t-26.5 -7.5t-30 -7.5t-28 -5.5t-30 -4t-28 -1zM88 108q41 0 68 15q45 26 49 52q2 10 -7.5 17t-19.5 8.5t-19 1.5q-34 0 -68.5 -25.5t-55.5 -61.5
q24 -7 53 -7z" />
    <glyph glyph-name="Eogonek" unicode="&#x118;" horiz-adv-x="851" 
d="M777 25q7 0 7 -8q0 -5 -4 -8l-12 -7q0 -2 -2 -2q-60 -33 -107 -73l-25 -23q-38 -34 -51 -58q-5 -10 -5 -14q0 -10 14 -10q10 0 25.5 4.5t30 10.5t15.5 6h3q8 0 8 -9q-2 -7 -7 -8t-21 -7t-30 -9.5t-25 -3.5q-12 0 -19 4q-12 7 -12 19q0 11 10 27q28 45 79 86
q-104 -43 -216 -69t-186 -26q-82 0 -152 41t-86 116q-5 20 -5 49q0 64 33 123.5t88 99.5q91 65 147 86l31 12q-26 18 -35 53q-2 8 -2 23q0 77 93 130t203 53h12q81 -3 132.5 -40.5t51.5 -109.5q0 -16 -1 -24q0 -9 -10 -9q-8 0 -8 9q2 16 2 24q0 68 -50.5 101.5t-128.5 33.5
q-85 0 -164.5 -36t-105.5 -90q-9 -20 -9 -38q0 -48 44 -72q31 11 61 11q22 0 42 -7q6 -3 6 -9q0 -4 -4 -7q-29 -17 -63 -17q-26 0 -47 10l-57 -22q-45 -18 -120 -72q-53 -38 -90 -96t-37 -118q0 -28 11 -58q48 -126 231 -126q112 0 251 43.5t262 109.5q1 1 4 1zM400 375
q-22 1 -45 -3q10 -2 16 -2q14 0 29 5z" />
    <glyph glyph-name="eogonek" unicode="&#x119;" horiz-adv-x="522" 
d="M588 150q6 0 8.5 -6.5t-3.5 -9.5q-189 -101 -272 -125l-32 -9q0 -2 -2 -2q-60 -33 -107 -73l-25 -23q-38 -34 -51 -58q-5 -10 -5 -14q0 -10 14 -10q10 0 25.5 4.5t30 10.5t15.5 6h3q8 0 8 -9q-2 -7 -7 -8t-21 -7t-30 -9.5t-25 -3.5q-12 0 -19 4q-12 7 -12 19q0 11 10 27
q45 70 136 128q-60 -14 -102 -14q-59 0 -91 26t-32 66q0 44 34 85q59 75 123 75q49 0 63 -29q3 -6 3 -13q0 -20 -20.5 -41t-39.5 -29q-39 -18 -80 -18q-29 0 -57 9h-1q-3 -7 -7 -21q-3 -14 -3 -25q0 -64 98 -64q60 0 141 21q149 36 328 139q2 1 4 1zM159 202
q-34 0 -68.5 -25.5t-55.5 -61.5q24 -7 53 -7q41 0 68 15q45 26 49 52q2 10 -7.5 17t-19.5 8.5t-19 1.5z" />
    <glyph glyph-name="Ecaron" unicode="&#x11a;" horiz-adv-x="851" 
d="M646 729q-4 0 -8 4l-50 72q-1 1 -1 4q0 6 6 8.5t10 -3.5l34 -48q9 -13 21 -13q7 0 31 8l123 41h2q8 0 8 -8t-6 -9l-168 -56h-2zM247 -153q-82 0 -152 41t-86 116q-5 20 -5 49q0 64 33 123.5t88 99.5q91 65 147 86l31 12q-26 18 -35 53q-2 8 -2 23q0 77 93 130t203 53h12
q81 -3 132.5 -40.5t51.5 -109.5q0 -16 -1 -24q0 -9 -10 -9q-8 0 -8 9q2 16 2 24q0 68 -50.5 101.5t-128.5 33.5q-85 0 -164.5 -36t-105.5 -90q-9 -20 -9 -38q0 -48 44 -72q31 11 61 11q22 0 42 -7q6 -3 6 -9q0 -4 -4 -7q-29 -17 -63 -17q-26 0 -47 10l-57 -22
q-45 -18 -120 -72q-53 -38 -90 -96t-37 -118q0 -28 11 -58q48 -126 231 -126q112 0 251 43.5t262 109.5q1 1 4 1q7 0 7 -8q0 -5 -4 -8q-109 -69 -270 -115.5t-263 -46.5zM371 370q14 0 29 5q-22 1 -45 -3q10 -2 16 -2z" />
    <glyph glyph-name="ecaron" unicode="&#x11b;" horiz-adv-x="522" 
d="M281 354q-4 0 -8 4l-50 72q-1 1 -1 4q0 6 6 8.5t10 -3.5l34 -48q9 -13 21 -13q7 0 31 8l123 41h2q8 0 8 -8t-6 -9l-168 -56h-2zM125 -32q-59 0 -91 26t-32 66q0 44 34 85q59 75 123 75q49 0 63 -29q3 -6 3 -13q0 -20 -20.5 -41t-39.5 -29q-39 -18 -80 -18q-29 0 -57 9h-1
q-3 -7 -7 -21q-3 -14 -3 -25q0 -64 98 -64q60 0 141 21q149 36 328 139q2 1 4 1q6 0 8.5 -6.5t-3.5 -9.5q-189 -101 -272 -125q-5 -2 -25 -7.5t-28.5 -8t-26.5 -7.5t-30 -7.5t-28 -5.5t-30 -4t-28 -1zM88 108q41 0 68 15q45 26 49 52q2 10 -7.5 17t-19.5 8.5t-19 1.5
q-34 0 -68.5 -25.5t-55.5 -61.5q24 -7 53 -7z" />
    <glyph glyph-name="Gbreve" unicode="&#x11e;" horiz-adv-x="725" 
d="M729 721q-41 0 -79 20q-4 3 -4 7q0 5 4 7.5t9 0.5q34 -17 69 -17q40 0 75 21q1 1 4 1q9 0 9 -10q0 -4 -4 -7q-40 -23 -83 -23zM267 -329q-14 0 -25 12q-12 12 -12 28q0 46 90 121q44 41 88 72l1 2l1 2q8 17 28.5 65t32.5 73q-113 -105 -209 -105q-38 0 -76 16
q-90 40 -90 158q0 56 22 117q63 173 262 300q82 53 169 81q60 20 105 20t73 -20q35 -24 35 -77q0 -65 -46 -148q-1 -4 -6 -4t-8 5t0 10q41 76 41 134q0 81 -90 81q-48 0 -112 -22q-94 -32 -180 -93t-150 -140q-39 -50 -70 -119.5t-31 -131.5q0 -82 62 -123q41 -27 88 -27
q104 0 240 143q4 2 5 2q5 0 8 -4.5t0 -9.5q-37 -66 -82 -170q60 40 126 56h2q8 0 8 -9q-2 -7 -7 -8q-70 -17 -143 -70q-32 -72 -40 -88q-62 -129 -110 -129zM268 -306q6 0 17 6q35 20 72 99l33 69q-28 -22 -41 -34q-50 -44 -71 -69q-21 -28 -25 -39q-2 -5 -2 -14
q0 -18 17 -18z" />
    <glyph glyph-name="gbreve" unicode="&#x11f;" horiz-adv-x="633" 
d="M413 412q-41 0 -79 20q-4 3 -4 7q0 5 4 7.5t9 0.5q34 -17 69 -17q40 0 75 21q1 1 4 1q9 0 9 -10q0 -4 -4 -7q-40 -23 -83 -23zM-376 -646q-62 -4 -62 61q0 46 27 105q34 72 90.5 136.5t129 118t138.5 92.5t148 80q30 14 62 28l53 84q-62 -27 -101 -27q-45 0 -64 35
q-5 10 -5 19q0 27 35 58.5t71.5 51.5t58.5 26q34 9 47 9q27 0 39 -20q8 -11 5 -23l7 3q3 1 9 1q22 0 22 -18q0 -5 -3 -12q-23 -53 -90 -86l-2 -2l-1 -2q-2 -3 -3 -5q-2 -2 -2 -4h-1l-47 -75q283 123 588 155h2q8 0 8 -10q0 -7 -7 -7q-319 -32 -607 -164q-157 -248 -300 -402
q-76 -83 -138 -136q-3 -3 -14.5 -14t-17 -16t-17 -14t-19.5 -13.5t-18.5 -8.5t-20.5 -4zM114 52q49 0 111 34l11 21q1 2 11.5 21t18.5 30q-8 8 2 12q10 10 10 19q0 14 -27 23q-15 0 -27 -4q-44 -11 -104 -53q-62 -47 -62 -72q0 -14 15 -22q18 -9 41 -9zM254 103q22 15 33 27
q16 15 27 38q-12 -2 -19 -4q-13 -14 -41 -61zM-392 -629q35 0 89 46q125 105 227 233q101 122 214 298q-138 -65 -255 -146q-155 -106 -224 -198q-55 -77 -72 -142q-9 -25 -9 -50q0 -41 30 -41z" />
    <glyph glyph-name="Gdotaccent" unicode="&#x120;" horiz-adv-x="725" 
d="M704 700q-7 0 -11 4.5t-2 11.5q2 8 4 13q3 9 12 9q6 0 10 -4.5t2 -11.5l-3 -13q-3 -9 -12 -9zM267 -329q-14 0 -25 12q-12 12 -12 28q0 46 90 121q44 41 88 72l1 2l1 2q8 17 28.5 65t32.5 73q-113 -105 -209 -105q-38 0 -76 16q-90 40 -90 158q0 56 22 117
q63 173 262 300q82 53 169 81q60 20 105 20t73 -20q35 -24 35 -77q0 -65 -46 -148q-1 -4 -6 -4t-8 5t0 10q41 76 41 134q0 81 -90 81q-48 0 -112 -22q-94 -32 -180 -93t-150 -140q-39 -50 -70 -119.5t-31 -131.5q0 -82 62 -123q41 -27 88 -27q104 0 240 143q4 2 5 2
q5 0 8 -4.5t0 -9.5q-37 -66 -82 -170q60 40 126 56h2q8 0 8 -9q-2 -7 -7 -8q-70 -17 -143 -70q-32 -72 -40 -88q-62 -129 -110 -129zM268 -306q6 0 17 6q35 20 72 99l33 69q-28 -22 -41 -34q-50 -44 -71 -69q-21 -28 -25 -39q-2 -5 -2 -14q0 -18 17 -18z" />
    <glyph glyph-name="gdotaccent" unicode="&#x121;" horiz-adv-x="633" 
d="M389 364q-7 0 -11 4.5t-2 11.5q2 8 4 13q3 9 12 9q6 0 10 -4.5t2 -11.5l-3 -13q-3 -9 -12 -9zM-376 -646q-62 -4 -62 61q0 46 27 105q34 72 90.5 136.5t129 118t138.5 92.5t148 80q30 14 62 28l53 84q-62 -27 -101 -27q-45 0 -64 35q-5 10 -5 19q0 27 35 58.5t71.5 51.5
t58.5 26q34 9 47 9q27 0 39 -20q8 -11 5 -23l7 3q3 1 9 1q22 0 22 -18q0 -5 -3 -12q-23 -53 -90 -86l-2 -2l-1 -2q-2 -3 -3 -5q-2 -2 -2 -4h-1l-47 -75q283 123 588 155h2q8 0 8 -10q0 -7 -7 -7q-319 -32 -607 -164q-157 -248 -300 -402q-76 -83 -138 -136q-3 -3 -14.5 -14
t-17 -16t-17 -14t-19.5 -13.5t-18.5 -8.5t-20.5 -4zM114 52q49 0 111 34l11 21q1 2 11.5 21t18.5 30q-8 8 2 12q10 10 10 19q0 14 -27 23q-15 0 -27 -4q-44 -11 -104 -53q-62 -47 -62 -72q0 -14 15 -22q18 -9 41 -9zM254 103q22 15 33 27q16 15 27 38q-12 -2 -19 -4
q-13 -14 -41 -61zM-392 -629q35 0 89 46q125 105 227 233q101 122 214 298q-138 -65 -255 -146q-155 -106 -224 -198q-55 -77 -72 -142q-9 -25 -9 -50q0 -41 30 -41z" />
    <glyph glyph-name="uni0122" unicode="&#x122;" horiz-adv-x="725" 
d="M267 -329q-14 0 -25 12q-12 12 -12 28q0 46 90 121q44 41 88 72l1 2l1 2q8 17 28.5 65t32.5 73q-113 -105 -209 -105q-38 0 -76 16q-90 40 -90 158q0 56 22 117q63 173 262 300q82 53 169 81q60 20 105 20t73 -20q35 -24 35 -77q0 -65 -46 -148q-1 -4 -6 -4t-8 5t0 10
q41 76 41 134q0 81 -90 81q-48 0 -112 -22q-94 -32 -180 -93t-150 -140q-39 -50 -70 -119.5t-31 -131.5q0 -82 62 -123q41 -27 88 -27q104 0 240 143q4 2 5 2q5 0 8 -4.5t0 -9.5q-37 -66 -82 -170q60 40 126 56h2q8 0 8 -9q-2 -7 -7 -8q-70 -17 -143 -70q-32 -72 -40 -88
q-62 -129 -110 -129zM130 -230q-8 0 -8 9q0 4 4 7q54 36 69 93q1 7 8 7q4 0 6.5 -3.5t1.5 -7.5q-16 -63 -77 -104q-1 -1 -4 -1zM268 -306q6 0 17 6q35 20 72 99l33 69q-28 -22 -41 -34q-50 -44 -71 -69q-21 -28 -25 -39q-2 -5 -2 -14q0 -18 17 -18z" />
    <glyph glyph-name="uni0123" unicode="&#x123;" horiz-adv-x="633" 
d="M456 468q8 0 8 -9q0 -4 -4 -7q-54 -36 -69 -93q-1 -7 -8 -7q-4 0 -6.5 3.5t-1.5 7.5q16 63 77 104q1 1 4 1zM-376 -646q-62 -4 -62 61q0 46 27 105q34 72 90.5 136.5t129 118t138.5 92.5t148 80q30 14 62 28l53 84q-62 -27 -101 -27q-45 0 -64 35q-5 10 -5 19
q0 27 35 58.5t71.5 51.5t58.5 26q34 9 47 9q27 0 39 -20q8 -11 5 -23l7 3q3 1 9 1q22 0 22 -18q0 -5 -3 -12q-23 -53 -90 -86l-2 -2l-1 -2q-2 -3 -3 -5q-2 -2 -2 -4h-1l-47 -75q283 123 588 155h2q8 0 8 -10q0 -7 -7 -7q-319 -32 -607 -164q-157 -248 -300 -402
q-76 -83 -138 -136q-3 -3 -14.5 -14t-17 -16t-17 -14t-19.5 -13.5t-18.5 -8.5t-20.5 -4zM114 52q49 0 111 34l11 21q1 2 11.5 21t18.5 30q-8 8 2 12q10 10 10 19q0 14 -27 23q-15 0 -27 -4q-44 -11 -104 -53q-62 -47 -62 -72q0 -14 15 -22q18 -9 41 -9zM254 103q22 15 33 27
q16 15 27 38q-12 -2 -19 -4q-13 -14 -41 -61zM-392 -629q35 0 89 46q125 105 227 233q101 122 214 298q-138 -65 -255 -146q-155 -106 -224 -198q-55 -77 -72 -142q-9 -25 -9 -50q0 -41 30 -41z" />
    <glyph glyph-name="Hbar" unicode="&#x126;" horiz-adv-x="600" 
d="M29 -215q-4 0 -7 4t-1 9l119 212q-54 22 -54 76q0 46 36 66.5t89 20.5q3 0 10 -0.5t10 -0.5l66 119q-29 -1 -61 -1q-7 0 -7 8q0 9 8 9l69 1l146 258q3 4 7 4t7 -4t1 -8l-141 -250q37 0 136.5 0.5t148.5 0.5l164 293q3 4 7 4t7 -4t1 -9l-159 -284q42 0 93 0.5t54 0.5
q7 0 7 -6q0 -10 -8 -11l-155 -1l-89 -159q57 12 117 12q52 0 106 -9q7 -1 7 -7q0 -4 -3 -7.5t-8 -2.5q-57 10 -104 10q-64 0 -126 -15l-94 -168q-6 -16 -17 -31q-3 -4 -8 -4t-7.5 4t0.5 9l18 33q8 19 8 42q0 34 -21 66q-76 -41 -108 -53q-34 -14 -82 -14q-30 0 -54 7
l-121 -216q-3 -4 -7 -4zM404 89q34 17 56 24q23 9 50 15l91 164q-95 -1 -284 -1l-67 -120q29 -5 50 -11q66 -22 104 -71zM150 28l72 128q-71 2 -102 -32q-18 -18 -18 -48q0 -22 14 -30q17 -11 34 -18zM215 14q15 0 32 3.5t28 6.5t30.5 12.5t26.5 13t30 16.5t27 15
q-58 64 -148 74l-75 -133h1q1 -1 2 -1q22 -7 46 -7zM439 1l59 106q-1 0 -2.5 -0.5t-2.5 -0.5q-33 -11 -77 -33q21 -34 23 -72z" />
    <glyph glyph-name="hbar" unicode="&#x127;" horiz-adv-x="679" 
d="M-12 -93q-23 9 -23 35q0 11 5 24q11 26 41 71t35 54q8 12 22 36q-14 -6 -113 -42q-1 0 -3 -1q-8 0 -8 10q2 6 6 8q121 46 133 51l2 4l-64 -1q-8 0 -8 9q0 8 8 8l75 1q75 126 119.5 197.5t119 173t147.5 176.5q2 2 17.5 18t23 23t22 18t27.5 16t26 5q55 0 71 -59
q3 -10 3 -20q0 -37 -51 -112q-46 -70 -95 -129q-117 -137 -254 -235q-56 -41 -104 -70l30 1q8 0 8 -8t-8 -10l-62 -1l-24 -12q-2 -1 -6 -2.5t-6 -2.5q-40 -67 -69 -109q-4 -6 -14 -19.5t-17 -24t-11 -21.5q-3 -8 -3 -16q0 -21 20 -21q4 0 14 4q9 4 58 43t102.5 80t115 75.5
t97.5 34.5q18 0 36.5 -13.5t18.5 -31.5q0 -20 -12 -46q-6 -14 -6 -21q0 -20 28 -20q30 0 72 16l198 65h3q8 0 8 -9q-2 -6 -6 -7l-182 -61q-7 -2 -26.5 -10t-37.5 -13.5t-32 -5.5q-13 0 -21 4q-24 11 -24 34q0 11 5 24l6.5 13t6.5 17q-4 50 -48 45q-37 -9 -86 -37
t-86.5 -55.5t-97.5 -73.5t-90 -67q-16 -12 -32 -7zM120 175h8l14 7q84 51 144 96q156 118 271 270q5 7 22.5 29.5t28 37.5t23.5 36.5t18.5 40.5t3.5 36q-5 53 -46 53q-40 0 -80 -40q-29 -28 -64 -66q-112 -125 -229 -308q-18 -28 -37 -60t-41.5 -71.5t-35.5 -60.5z" />
    <glyph glyph-name="Imacron" unicode="&#x12a;" horiz-adv-x="684" 
d="M906 804q-114 2 -169 2q-9 2 -9 9q0 9 9 9q28 -1 84.5 -1.5t84.5 -0.5q8 0 8 -9t-8 -9zM70 -258q-71 0 -94 55v1l-1 2q0 7 6.5 10t9.5 -4q21 -50 71 -50q44 0 98.5 34.5t87.5 69.5q87 94 158 225q18 33 88.5 172t115.5 209q-106 -52 -220 -64q-7 0 -7 9t8 9
q122 12 231 72q2 0 4 2t4 2q12 18 28 41q48 62 78 91q2 2 13 13.5t18 18.5t18 14t19 7q30 0 30 -22q0 -27 -37 -61q-71 -68 -153 -114q-59 -87 -132 -232q-94 -190 -141 -263q-53 -83 -111 -142q-87 -90 -172 -104q-6 -1 -18 -1zM670 520q44 29 60 42q22 18 44 38q2 1 9 7
t12 10t11.5 11.5t7 12t-1.5 10.5q-4 5 -10 5q-9 0 -22 -10q-19 -14 -41 -41q-26 -28 -38 -43l-18 -23q-10 -17 -13 -19z" />
    <glyph glyph-name="imacron" unicode="&#x12b;" horiz-adv-x="447" 
d="M350 378q-114 2 -169 2q-9 2 -9 9q0 9 9 9q28 -1 84.5 -1.5t84.5 -0.5q8 0 8 -9t-8 -9zM28 -50q-73 0 -78 56q-1 20 22.5 47.5t53.5 54.5t38 40q3 4 7 4q5 0 8.5 -4t1.5 -9q-10 -16 -54.5 -57t-53.5 -62q-4 -9 -4 -19q0 -34 62 -34q11 0 19 2q14 3 47 13q14 4 45 13
t48 13q239 68 359 128q1 1 4 1q4 0 7.5 -3.5t3.5 -7.5t-5 -5q-114 -55 -242 -94l-137 -40q-12 -3 -46.5 -14.5t-58.5 -17t-47 -5.5z" />
    <glyph glyph-name="Iogonek" unicode="&#x12e;" horiz-adv-x="684" 
d="M804 681q30 0 30 -22q0 -27 -37 -61q-71 -68 -153 -114q-59 -87 -132 -232q-94 -190 -141 -263q-53 -83 -111 -142q-87 -90 -172 -104q-6 -1 -18 -1q-8 0 -22 2q-1 -3 -4 -4q-60 -33 -107 -73l-25 -23q-38 -34 -51 -58q-5 -10 -5 -14q0 -10 14 -10q10 0 25.5 4.5t30 10.5
t15.5 6h3q8 0 8 -9q-2 -7 -7 -8t-21 -7t-30 -9.5t-25 -3.5q-12 0 -19 4q-12 7 -12 19q0 11 10 27q52 82 178 154q-35 13 -50 47v1l-1 2q0 7 6.5 10t9.5 -4q21 -50 71 -50q44 0 98.5 34.5t87.5 69.5q87 94 158 225q18 33 88.5 172t115.5 209q-106 -52 -220 -64q-7 0 -7 9t8 9
q122 12 231 72q2 0 4 2t4 2q12 18 28 41q48 62 78 91q2 2 13 13.5t18 18.5t18 14t19 7zM774 600q2 1 9 7t12 10t11.5 11.5t7 12t-1.5 10.5q-4 5 -10 5q-9 0 -22 -10q-19 -14 -41 -41q-26 -28 -38 -43l-18 -23q-10 -17 -13 -19q44 29 60 42q22 18 44 38z" />
    <glyph glyph-name="iogonek" unicode="&#x12f;" horiz-adv-x="447" 
d="M280 364q-7 0 -11 4.5t-2 11.5q2 8 4 13q3 9 12 9q6 0 10 -4.5t2 -11.5l-3 -13q-3 -9 -12 -9zM553 137q4 0 7.5 -3.5t3.5 -7.5t-5 -5q-114 -55 -242 -94l-137 -40h-1l-3 -3q-60 -33 -107 -73l-25 -23q-38 -34 -51 -58q-5 -10 -5 -14q0 -10 14 -10q10 0 25.5 4.5t30 10.5
t15.5 6h3q8 0 8 -9q-2 -7 -7 -8t-21 -7t-30 -9.5t-25 -3.5q-12 0 -19 4q-12 7 -12 19q0 11 10 27q44 67 132 126q-50 -16 -84 -16q-73 0 -78 56q-1 20 22.5 47.5t53.5 54.5t38 40q3 4 7 4q5 0 8.5 -4t1.5 -9q-10 -16 -54.5 -57t-53.5 -62q-4 -9 -4 -19q0 -34 62 -34
q11 0 19 2q14 3 47 13q14 4 45 13t48 13q239 68 359 128q1 1 4 1z" />
    <glyph glyph-name="Idotaccent" unicode="&#x130;" horiz-adv-x="684" 
d="M818 771q-7 0 -11 4.5t-2 11.5q2 8 4 13q3 9 12 9q6 0 10 -4.5t2 -11.5l-3 -13q-3 -9 -12 -9zM70 -258q-71 0 -94 55v1l-1 2q0 7 6.5 10t9.5 -4q21 -50 71 -50q44 0 98.5 34.5t87.5 69.5q87 94 158 225q18 33 88.5 172t115.5 209q-106 -52 -220 -64q-7 0 -7 9t8 9
q122 12 231 72q2 0 4 2t4 2q12 18 28 41q48 62 78 91q2 2 13 13.5t18 18.5t18 14t19 7q30 0 30 -22q0 -27 -37 -61q-71 -68 -153 -114q-59 -87 -132 -232q-94 -190 -141 -263q-53 -83 -111 -142q-87 -90 -172 -104q-6 -1 -18 -1zM670 520q44 29 60 42q22 18 44 38q2 1 9 7
t12 10t11.5 11.5t7 12t-1.5 10.5q-4 5 -10 5q-9 0 -22 -10q-19 -14 -41 -41q-26 -28 -38 -43l-18 -23q-10 -17 -13 -19z" />
    <glyph glyph-name="dotlessi" unicode="&#x131;" horiz-adv-x="447" 
d="M28 -50q-73 0 -78 56q-1 20 22.5 47.5t53.5 54.5t38 40q3 4 7 4q5 0 8.5 -4t1.5 -9q-10 -16 -54.5 -57t-53.5 -62q-4 -9 -4 -19q0 -34 62 -34q11 0 19 2q14 3 47 13q14 4 45 13t48 13q239 68 359 128q1 1 4 1q4 0 7.5 -3.5t3.5 -7.5t-5 -5q-114 -55 -242 -94l-137 -40
q-12 -3 -46.5 -14.5t-58.5 -17t-47 -5.5z" />
    <glyph glyph-name="IJ" unicode="&#x132;" horiz-adv-x="1421" 
d="M770 -240q-29 0 -47.5 15.5t-18.5 49.5q0 43 47 106q55 72 110 120q161 147 358 208q31 47 60 96q117 196 167 339l6 20q2 14 2 18q0 45 -56 45q-59 0 -131 -37q-117 -62 -222.5 -160.5t-176.5 -212.5q-3 -4 -7 -4q-5 0 -8 4t0 9q97 155 270 290q49 38 82.5 61t87 46
t99.5 23q79 0 79 -59q0 -31 -23 -85q-73 -173 -161 -319l-42 -66q97 26 197 29q7 0 7 -6q0 -11 -8 -11q-110 -5 -210 -34q-81 -121 -150 -205q-57 -72 -126 -145q-8 -9 -26 -29t-29 -32.5t-28 -27.5t-32 -25q-33 -21 -70 -21zM70 -258q-71 0 -94 55v1l-1 2q0 7 6.5 10
t9.5 -4q21 -50 71 -50q44 0 98.5 34.5t87.5 69.5q87 94 158 225q18 33 88.5 172t115.5 209q-106 -52 -220 -64q-7 0 -7 9t8 9q122 12 231 72q2 0 4 2t4 2q12 18 28 41q48 62 78 91q2 2 13 13.5t18 18.5t18 14t19 7q30 0 30 -22q0 -27 -37 -61q-71 -68 -153 -114
q-59 -87 -132 -232q-94 -190 -141 -263q-53 -83 -111 -142q-87 -90 -172 -104q-6 -1 -18 -1zM670 520q44 29 60 42q22 18 44 38q2 1 9 7t12 10t11.5 11.5t7 12t-1.5 10.5q-4 5 -10 5q-9 0 -22 -10q-19 -14 -41 -41q-26 -28 -38 -43l-18 -23q-10 -17 -13 -19zM775 -225
q10 0 19 3q21 6 44 23t36 30t37.5 41t31.5 35q69 76 117 134q73 90 144 196l-25 -9q-177 -67 -306 -189q-82 -76 -124 -141q-29 -42 -29 -70q0 -9 3 -18q14 -35 52 -35z" />
    <glyph glyph-name="ij" unicode="&#x133;" horiz-adv-x="1016" 
d="M248 504q-2 0 -2 2q-3 3 -3 6q0 5 5.5 7.5t9.5 -1.5l2 -2q3 -3 3 -6q0 -5 -5.5 -7.5t-9.5 1.5zM687 498q-9 0 -9 8v3q0 8 9 8q8 0 8 -8v-3q0 -8 -8 -8zM36 -674q-11 0 -22 8q-27 20 -27 62q0 48 38 127q104 225 398 388l112 199q-107 -50 -218 -83l-137 -40
q-12 -3 -46.5 -14.5t-58.5 -17t-47 -5.5q-73 0 -78 56q-1 20 22.5 47.5t53.5 54.5t38 40q3 4 7 4q5 0 8.5 -4t1.5 -9q-10 -16 -54.5 -57t-53.5 -62q-4 -9 -4 -19q0 -34 62 -34q11 0 19 2q14 3 47 13q14 4 45 13t48 13q239 68 359 128l1 1l22 40q3 5 7 5q5 0 7.5 -4t0.5 -9
l-23 -43q0 -2 -2 -4l-110 -195q10 6 15 8q118 42 342 110.5t296 92.5h1l2 1q8 0 8 -9q0 -8 -6 -9q-65 -20 -192.5 -58.5t-191.5 -58.5t-148 -49.5t-143 -56.5q-121 -208 -240 -391q-10 -14 -29.5 -47t-36.5 -57.5t-35 -43.5q-31 -33 -58 -33zM33 -650q18 0 40 11
q13 15 27.5 34.5t23 33t24.5 39t22 34.5l82 127l153 252q-211 -124 -313 -274q-46 -71 -66 -127q-14 -42 -18 -64q-3 -15 -3 -31q1 -35 28 -35z" />
    <glyph glyph-name="uni0136" unicode="&#x136;" horiz-adv-x="727" 
d="M804 -209q-8 0 -16 2q-216 31 -320 171q-13 17 -24 35t-22.5 40t-18 35.5t-19.5 42t-18 38.5q-24 50 -54 90q-55 -39 -83 -42q-17 0 -28 4l-178 -318q-3 -4 -7 -4q-6 0 -9 4t0 9l179 319q-15 13 -15 37q0 28 19.5 46.5t46.5 15.5l4 -1l241 431q3 4 7 4q5 0 8 -4t1 -9
l-239 -427q29 -10 56 -40l3 2q19 13 89.5 58.5t106.5 75.5q179 145 297 350q3 4 7 4q5 0 8 -4t0 -9q-151 -263 -394 -424q-15 -10 -51 -32t-54 -35q29 -38 48 -79q8 -17 29 -61t32.5 -66t32.5 -55t44 -58q90 -96 271 -125q1 0 6.5 -1t11.5 -2.5t10 -3.5q12 -4 1 -12
q-2 -2 -9 -2zM196 235q24 44 37 66q-17 -2 -29 -12q-16 -13 -16 -32q0 -12 8 -22zM227 222q28 0 73 37q-27 30 -49 38l-41 -73q10 -2 17 -2zM109 -257q-8 0 -8 9q0 4 4 7q54 36 69 93q1 7 8 7q4 0 6.5 -3.5t1.5 -7.5q-16 -63 -77 -104q-1 -1 -4 -1z" />
    <glyph glyph-name="uni0137" unicode="&#x137;" horiz-adv-x="732" 
d="M-13 -45q-5 0 -7.5 4t-0.5 9q32 75 60 133q-8 2 -8 10q0 4 4 7l18 13q123 245 280 457q18 24 50 69.5t47 65.5q20 26 31 39t32.5 32t41.5 26q9 4 20 4q22 0 34.5 -18.5t12.5 -44.5q0 -2 -0.5 -5.5t-0.5 -4.5q-12 -99 -116 -234q-167 -222 -417 -397q-34 -71 -41 -86
q15 15 62 56q72 62 143 99q128 65 198 65q15 0 22 -1q32 -4 32 -25q0 -16 -15.5 -35.5t-31.5 -28.5q-144 -78 -308 -84q132 -87 291 -87q186 0 332 120q4 2 6 2q6 0 8.5 -4.5t-2.5 -9.5q-150 -126 -346 -126q-174 0 -319 104q-77 -62 -105 -119q-2 -5 -7 -5zM84 153
q205 149 361 342q113 135 134 233q3 10 3 25v5q0 49 -26 49q-10 0 -19 -5q-28 -15 -54 -44q-37 -40 -90 -118q-20 -30 -60 -84.5t-58 -80.5q-105 -154 -191 -322zM123 98q146 3 263 59q2 1 20.5 9.5t29 15t17.5 14.5q12 14 12 26q0 15 -27 15q-20 0 -54 -6
q-104 -23 -211 -98zM-10 -265q-8 0 -8 9q0 4 4 7q54 36 69 93q1 7 8 7q4 0 6.5 -3.5t1.5 -7.5q-16 -63 -77 -104q-1 -1 -4 -1z" />
    <glyph glyph-name="Lacute" unicode="&#x139;" horiz-adv-x="769" 
d="M676 791q-4 0 -6.5 3.5t0.5 7.5q13 19 37 59q1 3 5 3t6.5 -4t-0.5 -8q-32 -51 -37 -58q-1 -3 -5 -3zM496 -128q-189 0 -324 115l-13 10q-2 -3 -9.5 -14t-11 -15t-10.5 -13t-12 -13.5t-12.5 -10t-15.5 -9.5q-15 -7 -29 -7q-19 0 -29 14t-10 35q0 28 20 51t54 23
q32 0 61 -17q286 399 453 692q3 4 7 4q5 0 8 -4t0 -9q-11 -19 -45 -77q-114 -187 -300 -458l-109 -158q8 -4 16 -12q70 -62 149 -86q80 -24 160 -24q105 0 214 38h3q8 0 8 -8t-6 -9q-112 -38 -217 -38zM60 -71q26 0 71 59q5 6 13 18q-25 15 -50 15q-28 0 -44 -20
q-15 -19 -15 -41q0 -11 6 -20q7 -11 19 -11z" />
    <glyph glyph-name="lacute" unicode="&#x13a;" horiz-adv-x="482" 
d="M519 774q-4 0 -6.5 3t0.5 8q13 19 37 59q2 3 5 3q4 0 6.5 -3.5t-0.5 -8.5q-32 -51 -37 -58q-2 -3 -5 -3zM145 -30q-62 0 -95 28.5t-29 87.5q1 3 1 9t1 9q-1 -1 -10 -7q-2 -1 -4 -1q-6 0 -8 6t3 10q10 9 23 16q25 127 122 281q85 134 209 259q17 19 57.5 46t67.5 27
q31 0 31 -40q0 -43 -58 -126q-108 -153 -204.5 -265.5t-208.5 -191.5l-3 -16q-1 -7 -1 -20q0 -91 113 -91q73 0 176 35.5t200 88.5q2 1 5 1q6 0 8.5 -6t-3.5 -9q-246 -131 -393 -131zM49 144q91 66 172 158t173 217q72 100 89 136q14 28 14 44q0 20 -21 20q-24 0 -49 -17
q-36 -23 -83 -75q-123 -137 -180 -227q-82 -131 -115 -256z" />
    <glyph glyph-name="uni013B" unicode="&#x13b;" horiz-adv-x="769" 
d="M496 -128q-189 0 -324 115l-13 10q-2 -3 -9.5 -14t-11 -15t-10.5 -13t-12 -13.5t-12.5 -10t-15.5 -9.5q-15 -7 -29 -7q-19 0 -29 14t-10 35q0 28 20 51t54 23q32 0 61 -17q286 399 453 692q3 4 7 4q5 0 8 -4t0 -9q-11 -19 -45 -77q-114 -187 -300 -458l-109 -158
q8 -4 16 -12q70 -62 149 -86q80 -24 160 -24q105 0 214 38h3q8 0 8 -8t-6 -9q-112 -38 -217 -38zM60 -71q26 0 71 59q5 6 13 18q-25 15 -50 15q-28 0 -44 -20q-15 -19 -15 -41q0 -11 6 -20q7 -11 19 -11zM127 -345q-8 0 -8 9q0 4 4 7q54 36 69 93q1 7 8 7q4 0 6.5 -3.5
t1.5 -7.5q-16 -63 -77 -104q-1 -1 -4 -1z" />
    <glyph glyph-name="uni013C" unicode="&#x13c;" horiz-adv-x="482" 
d="M145 -30q-62 0 -95 28.5t-29 87.5q1 3 1 9t1 9q-1 -1 -10 -7q-2 -1 -4 -1q-6 0 -8 6t3 10q10 9 23 16q25 127 122 281q85 134 209 259q17 19 57.5 46t67.5 27q31 0 31 -40q0 -43 -58 -126q-108 -153 -204.5 -265.5t-208.5 -191.5l-3 -16q-1 -7 -1 -20q0 -91 113 -91
q73 0 176 35.5t200 88.5q2 1 5 1q6 0 8.5 -6t-3.5 -9q-246 -131 -393 -131zM49 144q91 66 172 158t173 217q72 100 89 136q14 28 14 44q0 20 -21 20q-24 0 -49 -17q-36 -23 -83 -75q-123 -137 -180 -227q-82 -131 -115 -256zM-100 -247q-8 0 -8 9q0 4 4 7q54 36 69 93
q1 7 8 7q4 0 6.5 -3.5t1.5 -7.5q-16 -63 -77 -104q-1 -1 -4 -1z" />
    <glyph glyph-name="Lcaron" unicode="&#x13d;" horiz-adv-x="769" 
d="M496 -128q-189 0 -324 115l-13 10q-2 -3 -9.5 -14t-11 -15t-10.5 -13t-12 -13.5t-12.5 -10t-15.5 -9.5q-15 -7 -29 -7q-19 0 -29 14t-10 35q0 28 20 51t54 23q32 0 61 -17q286 399 453 692q3 4 7 4q5 0 8 -4t0 -9q-11 -19 -45 -77q-114 -187 -300 -458l-109 -158
q8 -4 16 -12q70 -62 149 -86q80 -24 160 -24q105 0 214 38h3q8 0 8 -8t-6 -9q-112 -38 -217 -38zM731 608q-4 0 -6.5 3t0.5 8q13 19 37 59q2 3 5 3q4 0 6.5 -3.5t-0.5 -8.5q-32 -51 -37 -58q-2 -3 -5 -3zM60 -71q26 0 71 59q5 6 13 18q-25 15 -50 15q-28 0 -44 -20
q-15 -19 -15 -41q0 -11 6 -20q7 -11 19 -11z" />
    <glyph glyph-name="lcaron" unicode="&#x13e;" horiz-adv-x="482" 
d="M145 -30q-62 0 -95 28.5t-29 87.5q1 3 1 9t1 9q-1 -1 -10 -7q-2 -1 -4 -1q-6 0 -8 6t3 10q10 9 23 16q25 127 122 281q85 134 209 259q17 19 57.5 46t67.5 27q31 0 31 -40q0 -43 -58 -126q-108 -153 -204.5 -265.5t-208.5 -191.5l-3 -16q-1 -7 -1 -20q0 -91 113 -91
q73 0 176 35.5t200 88.5q2 1 5 1q6 0 8.5 -6t-3.5 -9q-246 -131 -393 -131zM49 144q91 66 172 158t173 217q72 100 89 136q14 28 14 44q0 20 -21 20q-24 0 -49 -17q-36 -23 -83 -75q-123 -137 -180 -227q-82 -131 -115 -256zM577 608q-4 0 -6.5 3t0.5 8q13 19 37 59q2 3 5 3
q4 0 6.5 -3.5t-0.5 -8.5q-32 -51 -37 -58q-2 -3 -5 -3z" />
    <glyph glyph-name="Lslash" unicode="&#x141;" horiz-adv-x="769" 
d="M496 -128q-189 0 -324 115l-13 10q-2 -3 -9.5 -14t-11 -15t-10.5 -13t-12 -13.5t-12.5 -10t-15.5 -9.5q-15 -7 -29 -7q-19 0 -29 14t-10 35q0 28 20 51t54 23q32 0 61 -17l149 211l-91 -76q-4 -2 -6 -2q-6 0 -8.5 5t2.5 9l138 116q155 228 269 429q3 4 7 4q5 0 8 -4t0 -9
q-11 -19 -45 -77q-82 -134 -199 -310l78 66q4 2 6 2q6 0 8.5 -5.5t-2.5 -9.5l-125 -104l-66 -97l-109 -158q8 -4 16 -12q70 -62 149 -86q80 -24 160 -24q105 0 214 38h3q8 0 8 -8t-6 -9q-112 -38 -217 -38zM60 -71q26 0 71 59q5 6 13 18q-25 15 -50 15q-28 0 -44 -20
q-15 -19 -15 -41q0 -11 6 -20q7 -11 19 -11z" />
    <glyph glyph-name="lslash" unicode="&#x142;" horiz-adv-x="482" 
d="M-265 -102q-6 0 -8.5 5t1.5 9l311 263q33 113 110 234q85 134 209 259q17 19 57.5 46t67.5 27q31 0 31 -40q0 -43 -58 -126q-45 -65 -85 -117l301 254q4 2 5 2q6 0 8.5 -5t-1.5 -9l-363 -308q-144 -179 -278 -274l-3 -16q-1 -7 -1 -20q0 -91 113 -91q73 0 176 35.5
t200 88.5q2 1 5 1q6 0 8.5 -6t-3.5 -9q-246 -131 -393 -131q-62 0 -95 28.5t-29 87.5q1 3 1 9t1 9q-1 -1 -10 -7q-2 -1 -4 -1q-6 0 -8 6t3 10q10 9 23 16l4 18l-291 -246q-4 -2 -5 -2zM66 199l237 201l91 119q72 100 89 136q14 28 14 44q0 20 -21 20q-24 0 -49 -17
q-36 -23 -83 -75q-123 -137 -180 -227q-59 -93 -98 -201zM49 144q94 68 190 179l-183 -156q-4 -10 -7 -23z" />
    <glyph glyph-name="Nacute" unicode="&#x143;" horiz-adv-x="652" 
d="M623 700q-4 0 -6.5 3t0.5 8q13 19 37 59q2 3 5 3q4 0 6.5 -3.5t-0.5 -8.5q-32 -51 -37 -58q-2 -3 -5 -3zM-212 -215q-6 0 -9 5.5t2 10.5q56 50 112.5 119t91 120.5t91.5 142t84 130.5q80 119 152 203q22 24 35.5 37.5t40 30t48.5 16.5q60 0 60 -91q0 -18 -2 -42
q-9 -89 -46 -214q50 72 97.5 126.5t108.5 106t132 79t149 27.5q19 0 28 -1q9 0 9 -10q0 -8 -9 -8q-9 1 -27 1q-66 0 -129.5 -23t-113 -57.5t-100.5 -88t-86.5 -101t-77.5 -110.5q-49 -151 -107 -273q-2 -3 -13 -28t-19 -41.5t-22.5 -33.5t-27.5 -18t-18.5 5.5t-5.5 19.5
q0 35 29 93q47 101 154 263q4 7 14 21q11 33 25 82q40 140 40 219q0 54 -16 70q-11 10 -26 10q-44 0 -107 -76q-64 -73 -135 -178.5t-122.5 -191t-126 -183.5t-151.5 -166q-3 -3 -6 -3zM234 -176q2 -4 4.5 -4t5.5 3t5.5 6t6 8.5t4.5 7.5q40 60 90 186q21 49 39 102
q-89 -139 -128 -224q-29 -54 -29 -75q0 -4 2 -10z" />
    <glyph glyph-name="nacute" unicode="&#x144;" horiz-adv-x="827" 
d="M405 340q-4 0 -6.5 3t0.5 8q13 19 37 59q2 3 5 3q4 0 6.5 -3.5t-0.5 -8.5q-32 -51 -37 -58q-2 -3 -5 -3zM-7 -10q-4 0 -6.5 3.5t-1.5 7.5q5 16 14.5 38t17.5 38t21 40.5t18 34.5q3 5 7 5q5 0 7.5 -4.5t0.5 -9.5q-51 -103 -62 -128q13 6 64.5 31.5t74 35.5t64.5 27.5
t76.5 28t69.5 16.5q8 2 21 2q33 0 33 -24q0 -21 -19 -51q-26 -37 -28 -47q0 -8 25 -8q99 0 493 108h3q9 0 9 -10q0 -6 -6 -7q-414 -114 -512 -114q-13 0 -16 2q-14 8 -14 23q0 12 10 30q2 3 12.5 18.5t17 28.5t6.5 21q0 13 -16 13q-3 0 -15 -2q-45 -10 -99.5 -30t-81 -31
t-101 -46t-83.5 -39q-1 -1 -4 -1z" />
    <glyph glyph-name="uni0145" unicode="&#x145;" horiz-adv-x="652" 
d="M-212 -215q-6 0 -9 5.5t2 10.5q56 50 112.5 119t91 120.5t91.5 142t84 130.5q80 119 152 203q22 24 35.5 37.5t40 30t48.5 16.5q60 0 60 -91q0 -18 -2 -42q-9 -89 -46 -214q50 72 97.5 126.5t108.5 106t132 79t149 27.5q19 0 28 -1q9 0 9 -10q0 -8 -9 -8q-9 1 -27 1
q-66 0 -129.5 -23t-113 -57.5t-100.5 -88t-86.5 -101t-77.5 -110.5q-49 -151 -107 -273q-2 -3 -13 -28t-19 -41.5t-22.5 -33.5t-27.5 -18t-18.5 5.5t-5.5 19.5q0 35 29 93q47 101 154 263q4 7 14 21q11 33 25 82q40 140 40 219q0 54 -16 70q-11 10 -26 10q-44 0 -107 -76
q-64 -73 -135 -178.5t-122.5 -191t-126 -183.5t-151.5 -166q-3 -3 -6 -3zM234 -176q2 -4 4.5 -4t5.5 3t5.5 6t6 8.5t4.5 7.5q40 60 90 186q21 49 39 102q-89 -139 -128 -224q-29 -54 -29 -75q0 -4 2 -10zM-77 -356q-8 0 -8 9q0 4 4 7q54 36 69 93q1 7 8 7q4 0 6.5 -3.5
t1.5 -7.5q-16 -63 -77 -104q-1 -1 -4 -1z" />
    <glyph glyph-name="uni0146" unicode="&#x146;" horiz-adv-x="827" 
d="M-7 -10q-4 0 -6.5 3.5t-1.5 7.5q5 16 14.5 38t17.5 38t21 40.5t18 34.5q3 5 7 5q5 0 7.5 -4.5t0.5 -9.5q-51 -103 -62 -128q13 6 64.5 31.5t74 35.5t64.5 27.5t76.5 28t69.5 16.5q8 2 21 2q33 0 33 -24q0 -21 -19 -51q-26 -37 -28 -47q0 -8 25 -8q99 0 493 108h3
q9 0 9 -10q0 -6 -6 -7q-414 -114 -512 -114q-13 0 -16 2q-14 8 -14 23q0 12 10 30q2 3 12.5 18.5t17 28.5t6.5 21q0 13 -16 13q-3 0 -15 -2q-45 -10 -99.5 -30t-81 -31t-101 -46t-83.5 -39q-1 -1 -4 -1zM44 -231q-8 0 -8 9q0 4 4 7q54 36 69 93q1 7 8 7q4 0 6.5 -3.5
t1.5 -7.5q-16 -63 -77 -104q-1 -1 -4 -1z" />
    <glyph glyph-name="Ncaron" unicode="&#x147;" horiz-adv-x="652" 
d="M639 729q-4 0 -8 4l-50 72q-1 1 -1 4q0 6 6 8.5t10 -3.5l34 -48q9 -13 21 -13q7 0 31 8l123 41h2q8 0 8 -8t-6 -9l-168 -56h-2zM-212 -215q-6 0 -9 5.5t2 10.5q56 50 112.5 119t91 120.5t91.5 142t84 130.5q80 119 152 203q22 24 35.5 37.5t40 30t48.5 16.5q60 0 60 -91
q0 -18 -2 -42q-9 -89 -46 -214q50 72 97.5 126.5t108.5 106t132 79t149 27.5q19 0 28 -1q9 0 9 -10q0 -8 -9 -8q-9 1 -27 1q-66 0 -129.5 -23t-113 -57.5t-100.5 -88t-86.5 -101t-77.5 -110.5q-49 -151 -107 -273q-2 -3 -13 -28t-19 -41.5t-22.5 -33.5t-27.5 -18t-18.5 5.5
t-5.5 19.5q0 35 29 93q47 101 154 263q4 7 14 21q11 33 25 82q40 140 40 219q0 54 -16 70q-11 10 -26 10q-44 0 -107 -76q-64 -73 -135 -178.5t-122.5 -191t-126 -183.5t-151.5 -166q-3 -3 -6 -3zM234 -176q2 -4 4.5 -4t5.5 3t5.5 6t6 8.5t4.5 7.5q40 60 90 186
q21 49 39 102q-89 -139 -128 -224q-29 -54 -29 -75q0 -4 2 -10z" />
    <glyph glyph-name="ncaron" unicode="&#x148;" horiz-adv-x="827" 
d="M435 339q-4 0 -8 4l-50 72q-1 1 -1 4q0 6 6 8.5t10 -3.5l34 -48q9 -13 21 -13q7 0 31 8l123 41h2q8 0 8 -8t-6 -9l-168 -56h-2zM-7 -10q-4 0 -6.5 3.5t-1.5 7.5q5 16 14.5 38t17.5 38t21 40.5t18 34.5q3 5 7 5q5 0 7.5 -4.5t0.5 -9.5q-51 -103 -62 -128q13 6 64.5 31.5
t74 35.5t64.5 27.5t76.5 28t69.5 16.5q8 2 21 2q33 0 33 -24q0 -21 -19 -51q-26 -37 -28 -47q0 -8 25 -8q99 0 493 108h3q9 0 9 -10q0 -6 -6 -7q-414 -114 -512 -114q-13 0 -16 2q-14 8 -14 23q0 12 10 30q2 3 12.5 18.5t17 28.5t6.5 21q0 13 -16 13q-3 0 -15 -2
q-45 -10 -99.5 -30t-81 -31t-101 -46t-83.5 -39q-1 -1 -4 -1z" />
    <glyph glyph-name="Eng" unicode="&#x14a;" horiz-adv-x="852" 
d="M326 -279q-24 0 -41 11q-22 17 -32 48l-1 1v2q0 9 11 9q5 0 9 -7q6 -15 12 -24q5 -8 15 -13q1 -2 6 -3v-1h2l10 -3h18l2 1q22 4 46 18q23 16 40 35q4 4 10 12q-18 1 -18 25q0 33 30 93q47 101 154 263q4 7 14 21q11 33 25 82q40 140 40 219q0 54 -16 70q-11 10 -26 10
q-44 0 -107 -76q-64 -73 -135 -178.5t-122.5 -191t-126 -183.5t-151.5 -166q-3 -3 -6 -3q-6 0 -9 6t2 10q56 50 112.5 119t91 120.5t91.5 142t84 130.5q80 119 152 203q22 24 35.5 37.5t40 30t48.5 16.5q60 0 60 -91q0 -18 -2 -42q-9 -89 -46 -214q50 72 97.5 126.5
t108.5 106t132 79t149 27.5q19 0 28 -1q9 0 9 -10q0 -8 -9 -8q-9 1 -27 1q-66 0 -129.5 -23t-113 -57.5t-100.5 -88t-86.5 -101t-77.5 -110.5q-49 -151 -107 -273q-1 -2 -12 -27.5t-22.5 -46t-23.5 -33.5q-14 -30 -37 -51q-49 -49 -101 -49zM438 -173q5 0 10 7q0 4 4 6
q1 2 3.5 6t4.5 6q40 60 90 186q21 50 39 102q-89 -139 -128 -224q-29 -54 -29 -75q0 -4 2 -10q1 -4 4 -4z" />
    <glyph glyph-name="eng" unicode="&#x14b;" horiz-adv-x="473" 
d="M242 -89q-25 0 -40 12q-23 15 -33 47l-1 1v2q0 9 11 9q5 0 9 -7q16 -46 58 -46q26 0 53 21q68 53 98 135q7 24 7 25q0 14 -16 14q-7 0 -15 -2q-45 -10 -99.5 -30t-81 -31t-101 -46t-83.5 -39q-1 -1 -4 -1q-4 0 -6.5 3.5t-1.5 7.5q5 16 14.5 38t17.5 38t21 40.5t18 34.5
q3 5 7 5q5 0 7.5 -4.5t0.5 -9.5q-51 -103 -62 -128q13 6 64.5 31.5t74 35.5t64.5 27.5t76.5 28t69.5 16.5q12 2 21 2q33 0 33 -26q0 -29 -28 -80t-55 -75q-49 -49 -98 -49z" />
    <glyph glyph-name="Omacron" unicode="&#x14c;" horiz-adv-x="795" 
d="M839 838q-114 2 -169 2q-9 2 -9 9q0 9 9 9q28 -1 84.5 -1.5t84.5 -0.5q8 0 8 -9t-8 -9zM176 -118q-47 0 -80 26q-46 37 -46 104q0 64 37 136q28 57 71 104q-1 8 -1 23q0 60 31 117q76 137 249 243q118 72 213 72q43 0 81 -14q92 -34 92 -130q0 -84 -58.5 -189.5
t-121.5 -181.5q-45 -54 -97 -103q10 2 15 4q62 18 134.5 51t112.5 55.5t125 71.5q1 1 4 1q8 0 8 -9q0 -4 -4 -7q-5 -3 -47 -28t-52.5 -30.5t-49 -27.5t-55.5 -29.5t-51.5 -24t-58 -24.5t-53.5 -17t-58 -14q-59 -52 -129 -97q-132 -82 -211 -82zM416 71q43 0 95 10h1
q147 134 227 284q64 121 64 187q0 60 -36.5 97t-95.5 40q-165 10 -359 -172q-140 -130 -140 -249q60 64 139 107q2 1 5 1q8 0 8 -9q0 -4 -4 -7q-84 -45 -141 -110q-4 -4 -5 -6q5 -36 26 -69q65 -104 216 -104zM181 -97q124 0 303 153q-38 -4 -57 -4q-28 0 -63 5
q-61 9 -111 39t-74 81q-12 25 -18 53q-63 -79 -83 -151q-9 -36 -9 -67q0 -91 71 -105q19 -4 41 -4z" />
    <glyph glyph-name="omacron" unicode="&#x14d;" horiz-adv-x="529" 
d="M350 378q-114 2 -169 2q-9 2 -9 9q0 9 9 9q28 -1 84.5 -1.5t84.5 -0.5q8 0 8 -9t-8 -9zM33 8q-24 0 -41 12q-15 11 -15 29q0 24 25 52t52 40q27 45 78 45q23 0 38.5 -12.5t15.5 -36.5q0 -22 -17 -45q-2 -2 -7 -8t-8 -9q32 -9 108 -9q188 0 335 77q1 1 4 1q4 0 6.5 -3.5
t1.5 -7.5q0 -4 -5 -6q-147 -79 -347 -79q-78 0 -120 11q-55 -51 -104 -51zM140 87q28 34 28 52q0 28 -26 30q-30 0 -58 -22q27 1 42.5 -11.5t15.5 -33.5q0 -5 -2 -15zM120 80q3 6 3 12q0 37 -49 37l-8 -3q-1 -2 -1 -7q0 -12 16 -23q20 -13 39 -16zM29 27q19 0 37 6
q10 3 42 24q-2 5 0 8q-30 10 -45 23q-16 15 -16 32q-16 -12 -20 -16q-7 -6 -18 -24t-11 -32q0 -21 31 -21z" />
    <glyph glyph-name="Ohungarumlaut" unicode="&#x150;" horiz-adv-x="795" 
d="M718 797q-4 0 -6.5 3.5t0.5 7.5q13 19 37 59q1 3 5 3t6.5 -4t-0.5 -8q-32 -51 -37 -58q-1 -3 -5 -3zM789 797q-4 0 -6.5 3.5t0.5 7.5q13 19 37 59q2 3 5 3q4 0 6.5 -4t-0.5 -8q-32 -51 -37 -58q-2 -3 -5 -3zM176 -118q-47 0 -80 26q-46 37 -46 104q0 64 37 136
q28 57 71 104q-1 8 -1 23q0 60 31 117q76 137 249 243q118 72 213 72q43 0 81 -14q92 -34 92 -130q0 -84 -58.5 -189.5t-121.5 -181.5q-45 -54 -97 -103q10 2 15 4q62 18 134.5 51t112.5 55.5t125 71.5q1 1 4 1q8 0 8 -9q0 -4 -4 -7q-5 -3 -47 -28t-52.5 -30.5t-49 -27.5
t-55.5 -29.5t-51.5 -24t-58 -24.5t-53.5 -17t-58 -14q-59 -52 -129 -97q-132 -82 -211 -82zM416 71q43 0 95 10h1q147 134 227 284q64 121 64 187q0 60 -36.5 97t-95.5 40q-165 10 -359 -172q-140 -130 -140 -249q60 64 139 107q2 1 5 1q8 0 8 -9q0 -4 -4 -7
q-84 -45 -141 -110q-4 -4 -5 -6q5 -36 26 -69q65 -104 216 -104zM181 -97q124 0 303 153q-38 -4 -57 -4q-28 0 -63 5q-61 9 -111 39t-74 81q-12 25 -18 53q-63 -79 -83 -151q-9 -36 -9 -67q0 -91 71 -105q19 -4 41 -4z" />
    <glyph glyph-name="ohungarumlaut" unicode="&#x151;" horiz-adv-x="529" 
d="M238 355q-4 0 -6.5 3.5t0.5 7.5q13 19 37 59q1 3 5 3t6.5 -4t-0.5 -8q-32 -51 -37 -58q-1 -3 -5 -3zM309 355q-4 0 -6.5 3.5t0.5 7.5q13 19 37 59q2 3 5 3q4 0 6.5 -4t-0.5 -8q-32 -51 -37 -58q-2 -3 -5 -3zM33 8q-24 0 -41 12q-15 11 -15 29q0 24 25 52t52 40
q27 45 78 45q23 0 38.5 -12.5t15.5 -36.5q0 -22 -17 -45q-2 -2 -7 -8t-8 -9q32 -9 108 -9q188 0 335 77q1 1 4 1q4 0 6.5 -3.5t1.5 -7.5q0 -4 -5 -6q-147 -79 -347 -79q-78 0 -120 11q-55 -51 -104 -51zM140 87q28 34 28 52q0 28 -26 30q-30 0 -58 -22q27 1 42.5 -11.5
t15.5 -33.5q0 -5 -2 -15zM120 80q3 6 3 12q0 37 -49 37l-8 -3q-1 -2 -1 -7q0 -12 16 -23q20 -13 39 -16zM29 27q19 0 37 6q10 3 42 24q-2 5 0 8q-30 10 -45 23q-16 15 -16 32q-16 -12 -20 -16q-7 -6 -18 -24t-11 -32q0 -21 31 -21z" />
    <glyph glyph-name="OE" unicode="&#x152;" horiz-adv-x="1646" 
d="M1042 -153q-82 0 -152 41t-86 116q-5 20 -5 49q0 78 48 148q-199 -116 -331 -140q-59 -52 -129 -97q-132 -82 -211 -82q-47 0 -80 26q-46 37 -46 104q0 64 37 136q28 57 71 104q-1 8 -1 23q0 60 31 117q76 137 249 243q118 72 213 72q43 0 81 -14q92 -34 92 -130
q0 -84 -58.5 -189.5t-121.5 -181.5q-45 -54 -97 -103q10 2 15 4q124 35 317 146q18 19 42 37q91 65 147 86l31 12q-26 18 -35 53q-2 8 -2 23q0 77 93 130t203 53h12q81 -3 132.5 -40.5t51.5 -109.5q0 -16 -1 -24q0 -9 -10 -9q-8 0 -8 9q2 16 2 24q0 68 -50.5 101.5
t-128.5 33.5q-85 0 -164.5 -36t-105.5 -90q-9 -20 -9 -38q0 -48 44 -72q31 11 61 11q22 0 42 -7q6 -3 6 -9q0 -4 -4 -7q-29 -17 -63 -17q-26 0 -47 10l-57 -22q-49 -19 -118 -71q3 -2 3 -7q0 -4 -4 -7l-49 -29q-79 -83 -79 -172q0 -28 11 -58q48 -126 231 -126
q112 0 251 43.5t262 109.5q1 1 4 1q7 0 7 -8q0 -5 -4 -8q-109 -69 -270 -115.5t-263 -46.5zM416 71q43 0 95 10h1q147 134 227 284q64 121 64 187q0 60 -36.5 97t-95.5 40q-165 10 -359 -172q-140 -130 -140 -249q60 64 139 107q2 1 5 1q8 0 8 -9q0 -4 -4 -7
q-84 -45 -141 -110q-4 -4 -5 -6q5 -36 26 -69q65 -104 216 -104zM1166 370q14 0 29 5q-23 1 -45 -3q10 -2 16 -2zM181 -97q124 0 303 153q-38 -4 -57 -4q-28 0 -63 5q-61 9 -111 39t-74 81q-12 25 -18 53q-63 -79 -83 -151q-9 -36 -9 -67q0 -91 71 -105q19 -4 41 -4z" />
    <glyph glyph-name="oe" unicode="&#x153;" horiz-adv-x="1091" 
d="M694 -32q-59 0 -91 26t-32 66q0 29 16 58q-141 -70 -330 -70q-78 0 -120 11q-55 -51 -104 -51q-24 0 -41 12q-15 11 -15 29q0 24 25 52t52 40q27 45 78 45q23 0 38.5 -12.5t15.5 -36.5q0 -22 -17 -45q-2 -2 -7 -8t-8 -9q32 -9 108 -9q188 0 335 77q1 1 4 1l3 -1
q0 1 0.5 1t0.5 1q59 75 123 75q48 0 63 -29q3 -6 3 -13q0 -20 -20.5 -41t-39.5 -29q-39 -18 -80 -18q-28 0 -57 9h-1q-3 -7 -7 -21q-3 -13 -3 -25q0 -64 98 -64q60 0 141 21q149 36 328 139q2 1 4 1q6 0 8.5 -6.5t-3.5 -9.5q-189 -101 -272 -125q-5 -2 -25 -7.5t-28.5 -8
t-26.5 -7.5t-30 -7.5t-28 -5.5t-30 -4t-28 -1zM657 108q41 0 68 15q45 26 49 52q2 10 -7.5 17t-19.5 8.5t-19 1.5q-34 0 -68.5 -25.5t-55.5 -61.5q24 -7 53 -7zM140 87q28 34 28 52q0 28 -26 30q-30 0 -58 -22q27 1 42.5 -11.5t15.5 -33.5q0 -5 -2 -15zM120 80q3 6 3 12
q0 37 -49 37l-8 -3q-1 -2 -1 -7q0 -12 16 -23q20 -13 39 -16zM29 27q19 0 37 6q10 3 42 24q-2 5 0 8q-30 10 -45 23q-16 15 -16 32q-16 -12 -20 -16q-7 -6 -18 -24t-11 -32q0 -21 31 -21z" />
    <glyph glyph-name="Racute" unicode="&#x154;" horiz-adv-x="725" 
d="M550 700q-4 0 -6.5 3t0.5 8q13 19 37 59q1 3 5 3t6.5 -3.5t-0.5 -8.5q-32 -51 -37 -58q-1 -3 -5 -3zM747 -324q-159 0 -202 101q-26 61 -26 149q0 43 8 124t9 115q0 7 1 26.5t1 30.5q0 38 -9 59q0 2 -10 9q-6 -1 -19 -1q-36 0 -41 16q-2 6 -2 9q0 21 37 21q21 0 29 -7
q12 -8 17 -19q35 2 68 6q69 7 116 33q35 20 61 54t26 69q0 28 -19 51q-29 36 -80 36q-48 0 -114 -33q-73 -37 -155 -121q-77 -81 -130 -145q-5 -10 -13 -30q-62 -153 -111 -239q-1 -1 -14 -24t-22.5 -38t-25 -35t-30 -31t-27.5 -11q-24 0 -24 26q0 45 77 158
q106 151 175 236q14 31 38 95q24 70 24 104q0 11 -1 16q-3 29 -25.5 47.5t-51.5 18.5q-9 0 -13 -1h-2q-9 0 -9 10q0 7 6 7q6 1 17 1q37 0 65 -23t31 -60q1 -6 1 -18q0 -57 -38 -148q63 73 121 127q53 50 121.5 91t128.5 41q58 0 95 -45q25 -31 25 -65q0 -56 -60 -105.5
t-122 -61.5q-46 -8 -101 -10q10 -31 10 -74q0 -20 -2.5 -52.5t-2.5 -34.5q-1 -23 -7 -93t-6 -109q0 -57 9 -99q18 -99 102 -124q34 -11 89 -11q6 0 17 0.5t17 0.5q81 3 264.5 26t281.5 23q31 0 46 -1q9 -2 9 -10t-7 -8q-8 0 -22 0.5t-22 0.5q-69 0 -144 -7t-170 -19
t-143 -17q-96 -8 -120 -8zM484 310h1q-6 3 -10 3q1 0 5 -1zM70 -125q4 0 8 3q14 6 27.5 18.5t27 32.5t21 32.5t21 38.5t15.5 30q30 56 80 172q1 1 1.5 3.5t0.5 3.5q-50 -63 -96 -129q-60 -88 -70 -105q-18 -30 -30 -58q-8 -22 -9 -25q-3 -10 -3 -15q0 -4 6 -2z" />
    <glyph glyph-name="racute" unicode="&#x155;" horiz-adv-x="520" 
d="M227 355q-4 0 -6.5 3.5t0.5 7.5q13 19 37 59q2 3 5 3q4 0 6.5 -4t-0.5 -8q-32 -51 -37 -58q-2 -3 -5 -3zM80 -50q-33 0 -56.5 14.5t-23.5 46.5q0 23 30 51q2 2 31 26t35 30q1 1 7.5 6.5t6.5 7.5t-5.5 4t-6.5 3q-4 2 -7 7q-8 -6 -58 -31q-2 -1 -5 -1q-8 0 -8 8q0 4 5 8
q36 18 61 33q0 3 1 5q3 21 22 21q7 0 11 -2q6 -4 6 -9q0 -16 -13 -29q5 -2 14 -2.5t11 -1.5q6 -1 6 -8q0 -5 -4 -8q-110 -80 -117 -109q-2 -10 -2 -14q0 -37 68 -37h9q36 0 219 56t284 104q1 0 3 1q7 0 10 -7t-4 -10q-109 -50 -243 -89q-240 -74 -287 -74z" />
    <glyph glyph-name="uni0156" unicode="&#x156;" horiz-adv-x="725" 
d="M747 -324q-159 0 -202 101q-26 61 -26 149q0 43 8 124t9 115q0 7 1 26.5t1 30.5q0 38 -9 59q0 2 -10 9q-6 -1 -19 -1q-36 0 -41 16q-2 6 -2 9q0 21 37 21q21 0 29 -7q12 -8 17 -19q35 2 68 6q69 7 116 33q35 20 61 54t26 69q0 28 -19 51q-29 36 -80 36q-48 0 -114 -33
q-73 -37 -155 -121q-77 -81 -130 -145q-5 -10 -13 -30q-62 -153 -111 -239q-1 -1 -14 -24t-22.5 -38t-25 -35t-30 -31t-27.5 -11q-24 0 -24 26q0 45 77 158q106 151 175 236q14 31 38 95q24 70 24 104q0 11 -1 16q-3 29 -25.5 47.5t-51.5 18.5q-9 0 -13 -1h-2q-9 0 -9 10
q0 7 6 7q6 1 17 1q37 0 65 -23t31 -60q1 -6 1 -18q0 -57 -38 -148q63 73 121 127q53 50 121.5 91t128.5 41q58 0 95 -45q25 -31 25 -65q0 -56 -60 -105.5t-122 -61.5q-46 -8 -101 -10q10 -31 10 -74q0 -20 -2.5 -52.5t-2.5 -34.5q-1 -23 -7 -93t-6 -109q0 -57 9 -99
q18 -99 102 -124q34 -11 89 -11q6 0 17 0.5t17 0.5q81 3 264.5 26t281.5 23q31 0 46 -1q9 -2 9 -10t-7 -8q-8 0 -22 0.5t-22 0.5q-69 0 -144 -7t-170 -19t-143 -17q-96 -8 -120 -8zM484 310h1q-6 3 -10 3q1 0 5 -1zM70 -125q4 0 8 3q14 6 27.5 18.5t27 32.5t21 32.5t21 38.5
t15.5 30q30 56 80 172q1 1 1.5 3.5t0.5 3.5q-50 -63 -96 -129q-60 -88 -70 -105q-18 -30 -30 -58q-8 -22 -9 -25q-3 -10 -3 -15q0 -4 6 -2zM216 -317q-8 0 -8 9q0 4 4 7q54 36 69 93q1 7 8 7q4 0 6.5 -3.5t1.5 -7.5q-16 -63 -77 -104q-1 -1 -4 -1z" />
    <glyph glyph-name="uni0157" unicode="&#x157;" horiz-adv-x="520" 
d="M80 -50q-33 0 -56.5 14.5t-23.5 46.5q0 23 30 51q2 2 31 26t35 30q1 1 7.5 6.5t6.5 7.5t-5.5 4t-6.5 3q-4 2 -7 7q-8 -6 -58 -31q-2 -1 -5 -1q-8 0 -8 8q0 4 5 8q36 18 61 33q0 3 1 5q3 21 22 21q7 0 11 -2q6 -4 6 -9q0 -16 -13 -29q5 -2 14 -2.5t11 -1.5q6 -1 6 -8
q0 -5 -4 -8q-110 -80 -117 -109q-2 -10 -2 -14q0 -37 68 -37h9q36 0 219 56t284 104q1 0 3 1q7 0 10 -7t-4 -10q-109 -50 -243 -89q-240 -74 -287 -74zM-78 -276q-8 0 -8 9q0 4 4 7q54 36 69 93q1 7 8 7q4 0 6.5 -3.5t1.5 -7.5q-16 -63 -77 -104q-1 -1 -4 -1z" />
    <glyph glyph-name="Rcaron" unicode="&#x158;" horiz-adv-x="725" 
d="M566 729q-4 0 -8 4l-50 72q-1 1 -1 4q0 6 6 8.5t10 -3.5l34 -48q9 -13 21 -13q7 0 31 8l123 41h2q8 0 8 -8t-6 -9l-168 -56h-2zM747 -324q-159 0 -202 101q-26 61 -26 149q0 43 8 124t9 115q0 7 1 26.5t1 30.5q0 38 -9 59q0 2 -10 9q-6 -1 -19 -1q-36 0 -41 16q-2 6 -2 9
q0 21 37 21q21 0 29 -7q12 -8 17 -19q35 2 68 6q69 7 116 33q35 20 61 54t26 69q0 28 -19 51q-29 36 -80 36q-48 0 -114 -33q-73 -37 -155 -121q-77 -81 -130 -145q-5 -10 -13 -30q-62 -153 -111 -239q-1 -1 -14 -24t-22.5 -38t-25 -35t-30 -31t-27.5 -11q-24 0 -24 26
q0 45 77 158q106 151 175 236q14 31 38 95q24 70 24 104q0 11 -1 16q-3 29 -25.5 47.5t-51.5 18.5q-9 0 -13 -1h-2q-9 0 -9 10q0 7 6 7q6 1 17 1q37 0 65 -23t31 -60q1 -6 1 -18q0 -57 -38 -148q63 73 121 127q53 50 121.5 91t128.5 41q58 0 95 -45q25 -31 25 -65
q0 -56 -60 -105.5t-122 -61.5q-46 -8 -101 -10q10 -31 10 -74q0 -20 -2.5 -52.5t-2.5 -34.5q-1 -23 -7 -93t-6 -109q0 -57 9 -99q18 -99 102 -124q34 -11 89 -11q6 0 17 0.5t17 0.5q81 3 264.5 26t281.5 23q31 0 46 -1q9 -2 9 -10t-7 -8q-8 0 -22 0.5t-22 0.5q-69 0 -144 -7
t-170 -19t-143 -17q-96 -8 -120 -8zM484 310h1q-6 3 -10 3q1 0 5 -1zM70 -125q4 0 8 3q14 6 27.5 18.5t27 32.5t21 32.5t21 38.5t15.5 30q30 56 80 172q1 1 1.5 3.5t0.5 3.5q-50 -63 -96 -129q-60 -88 -70 -105q-18 -30 -30 -58q-8 -22 -9 -25q-3 -10 -3 -15q0 -4 6 -2z" />
    <glyph glyph-name="rcaron" unicode="&#x159;" horiz-adv-x="520" 
d="M257 354q-4 0 -8 4l-50 72q-1 1 -1 4q0 6 6 8.5t10 -3.5l34 -48q9 -13 21 -13q7 0 31 8l123 41h2q8 0 8 -8t-6 -9l-168 -56h-2zM80 -50q-33 0 -56.5 14.5t-23.5 46.5q0 23 30 51q2 2 31 26t35 30q1 1 7.5 6.5t6.5 7.5t-5.5 4t-6.5 3q-4 2 -7 7q-8 -6 -58 -31q-2 -1 -5 -1
q-8 0 -8 8q0 4 5 8q36 18 61 33q0 3 1 5q3 21 22 21q7 0 11 -2q6 -4 6 -9q0 -16 -13 -29q5 -2 14 -2.5t11 -1.5q6 -1 6 -8q0 -5 -4 -8q-110 -80 -117 -109q-2 -10 -2 -14q0 -37 68 -37h9q36 0 219 56t284 104q1 0 3 1q7 0 10 -7t-4 -10q-109 -50 -243 -89q-240 -74 -287 -74
z" />
    <glyph glyph-name="Sacute" unicode="&#x15a;" horiz-adv-x="793" 
d="M676 700q-4 0 -6.5 3t0.5 8q13 19 37 59q1 3 5 3t6.5 -3.5t-0.5 -8.5q-32 -51 -37 -58q-1 -3 -5 -3zM127 -310q-36 0 -67 14q-40 18 -67.5 52.5t-27.5 73.5q0 34 23 64q23 31 58 51.5t80 30t77.5 13.5t82.5 6q20 1 59 1q29 0 43 -1q0 50 -13 105q-2 11 -27.5 102
t-25.5 138q0 25 4 45q13 63 50 118.5t91 84.5q67 35 167 35q17 0 51 -2q133 -12 199 -58q4 -3 4 -7q0 -6 -4 -8.5t-9 0.5q-15 11 -37 21q-93 38 -195 38q-50 0 -100 -11q-84 -19 -143.5 -90.5t-59.5 -157.5q0 -27 4.5 -52.5t16.5 -67t14 -50.5q27 -101 30 -161v-23
q137 -6 271 -45q6 -1 6 -8q0 -12 -11 -9q-133 39 -266 46q-8 -130 -106 -215q-86 -73 -172 -73zM124 -290q46 0 92 20t80 54q75 77 87 145q5 28 5 49q-13 1 -39 1q-21 0 -63 -2q-138 -8 -202 -34q-40 -16 -71 -48t-31 -69q0 -23 12 -43q42 -73 130 -73z" />
    <glyph glyph-name="sacute" unicode="&#x15b;" horiz-adv-x="496" 
d="M251 355q-4 0 -6.5 3.5t0.5 7.5q13 19 37 59q2 3 5 3q4 0 6.5 -4t-0.5 -8q-32 -51 -37 -58q-2 -3 -5 -3zM-55 -154q-23 0 -37.5 16.5t-14.5 39.5q0 15 5 25q31 68 147 82q31 96 33 101q1 2 4 10t4.5 11l5 10t6 10t6.5 8t8.5 7t10 4t11.5 2q10 0 8 -12q-4 -28 -36 -37
q-4 0 -5 1q-8 -16 -15 -36.5t-13.5 -46.5t-6.5 -27q333 76 470 128h1q1 1 2 1q7 0 7 -8t-6 -10q-37 -14 -79 -27.5t-72.5 -22.5t-83.5 -23t-75.5 -19.5t-87.5 -21t-83 -19.5q-15 -40 -23 -54q-33 -68 -63 -85q-14 -7 -28 -7zM-54 -135q15 0 28 9.5t24 28.5t15.5 28.5
t13.5 30.5q7 15 11 28q-53 -7 -85 -28q-13 -9 -29 -32t-16 -40q0 -26 38 -25z" />
    <glyph glyph-name="Scedilla" unicode="&#x15e;" horiz-adv-x="793" 
d="M884 563q4 -3 4 -7q0 -6 -4 -8.5t-9 0.5q-15 11 -37 21q-93 38 -195 38q-50 0 -100 -11q-84 -19 -143.5 -90.5t-59.5 -157.5q0 -27 4.5 -52.5t16.5 -67t14 -50.5q27 -101 30 -161v-23q137 -6 271 -45q6 -1 6 -8q0 -12 -11 -9q-133 39 -266 46q-8 -130 -106 -215
q-86 -73 -172 -73q-20 0 -43 5l-1 -1h-1q-23 -16 -43 -31q4 -8 4 -18q0 -29 -31.5 -62t-61.5 -51q-11 -7 -35.5 -16t-41.5 -9q-23 0 -23 18q0 6 3 15q3 6 9 6q11 0 8 -10l-1 -4q0 -6 10 -6q23 0 51 14q27 16 41 29q54 50 54 78q0 7 -5 15q-1 1 -1 4q0 4 4 8q7 5 20.5 14.5
t20.5 13.5l-4 2q-40 18 -67.5 52.5t-27.5 73.5q0 34 23 64q23 31 58 51.5t80 30t77.5 13.5t82.5 6q20 1 59 1q29 0 43 -1q0 50 -13 105q-2 11 -27.5 102t-25.5 138q0 25 4 45q13 63 50 118.5t91 84.5q67 35 167 35q17 0 51 -2q133 -12 199 -58zM383 -71q5 28 5 49
q-13 1 -39 1q-21 0 -63 -2q-138 -8 -202 -34q-40 -16 -71 -48t-31 -69q0 -23 12 -43q42 -73 130 -73q46 0 92 20t80 54q75 77 87 145z" />
    <glyph glyph-name="scedilla" unicode="&#x15f;" horiz-adv-x="496" 
d="M539 143q7 0 7 -8t-6 -10q-37 -14 -79 -27.5t-72.5 -22.5t-83.5 -23t-75.5 -19.5t-87.5 -21t-83 -19.5q-15 -40 -23 -54q-33 -68 -63 -85q-14 -7 -28 -7q-5 0 -13 2q-2 -4 -4 -5q-23 -16 -43 -31q4 -8 4 -18q0 -29 -31.5 -62t-61.5 -51q-11 -7 -35.5 -16t-41.5 -9
q-23 0 -23 18q0 6 3 15q3 6 9 6q11 0 8 -10l-1 -4q0 -6 10 -6q23 0 51 14q27 16 41 29q54 50 54 78q0 7 -5 15q-1 1 -1 4q0 4 4 8q16 10 46 32q-22 17 -22 47q0 15 5 25q31 68 147 82q31 96 33 101q1 2 4 10t4.5 11l5 10t6 10t6.5 8t8.5 7t10 4t11.5 2q10 0 8 -12
q-4 -28 -36 -37q-4 0 -5 1q-8 -16 -15 -36.5t-13.5 -46.5t-6.5 -27q333 76 470 128h1q1 1 2 1zM27 -38q7 15 11 28q-53 -7 -85 -28q-13 -9 -29 -32t-16 -40q0 -26 38 -25q15 0 28 9.5t24 28.5t15.5 28.5t13.5 30.5z" />
    <glyph glyph-name="Scaron" unicode="&#x160;" horiz-adv-x="793" 
d="M692 729q-4 0 -8 4l-50 72q-1 1 -1 4q0 6 6 8.5t10 -3.5l34 -48q9 -13 21 -13q7 0 31 8l123 41h2q8 0 8 -8t-6 -9l-168 -56h-2zM127 -310q-36 0 -67 14q-40 18 -67.5 52.5t-27.5 73.5q0 34 23 64q23 31 58 51.5t80 30t77.5 13.5t82.5 6q20 1 59 1q29 0 43 -1
q0 50 -13 105q-2 11 -27.5 102t-25.5 138q0 25 4 45q13 63 50 118.5t91 84.5q67 35 167 35q17 0 51 -2q133 -12 199 -58q4 -3 4 -7q0 -6 -4 -8.5t-9 0.5q-15 11 -37 21q-93 38 -195 38q-50 0 -100 -11q-84 -19 -143.5 -90.5t-59.5 -157.5q0 -27 4.5 -52.5t16.5 -67t14 -50.5
q27 -101 30 -161v-23q137 -6 271 -45q6 -1 6 -8q0 -12 -11 -9q-133 39 -266 46q-8 -130 -106 -215q-86 -73 -172 -73zM124 -290q46 0 92 20t80 54q75 77 87 145q5 28 5 49q-13 1 -39 1q-21 0 -63 -2q-138 -8 -202 -34q-40 -16 -71 -48t-31 -69q0 -23 12 -43q42 -73 130 -73z
" />
    <glyph glyph-name="scaron" unicode="&#x161;" horiz-adv-x="496" 
d="M281 354q-4 0 -8 4l-50 72q-1 1 -1 4q0 6 6 8.5t10 -3.5l34 -48q9 -13 21 -13q7 0 31 8l123 41h2q8 0 8 -8t-6 -9l-168 -56h-2zM-55 -154q-23 0 -37.5 16.5t-14.5 39.5q0 15 5 25q31 68 147 82q31 96 33 101q1 2 4 10t4.5 11l5 10t6 10t6.5 8t8.5 7t10 4t11.5 2
q10 0 8 -12q-4 -28 -36 -37q-4 0 -5 1q-8 -16 -15 -36.5t-13.5 -46.5t-6.5 -27q333 76 470 128h1q1 1 2 1q7 0 7 -8t-6 -10q-37 -14 -79 -27.5t-72.5 -22.5t-83.5 -23t-75.5 -19.5t-87.5 -21t-83 -19.5q-15 -40 -23 -54q-33 -68 -63 -85q-14 -7 -28 -7zM-54 -135
q15 0 28 9.5t24 28.5t15.5 28.5t13.5 30.5q7 15 11 28q-53 -7 -85 -28q-13 -9 -29 -32t-16 -40q0 -26 38 -25z" />
    <glyph glyph-name="uni0162" unicode="&#x162;" horiz-adv-x="450" 
d="M992 758q8 0 8 -8q0 -9 -8 -9q-236 -9 -468 -39l-483 -729q0 -2 -4 -6q-3 -4 -6 -4q-27 -19 -37 -27q4 -8 4 -18q0 -29 -31.5 -62t-61.5 -51q-11 -7 -35.5 -16t-41.5 -9q-23 0 -23 18q0 6 3 15q3 6 9 6q11 0 8 -10l-1 -4q0 -6 10 -6q23 0 51 14q27 16 41 29q54 50 54 78
q0 7 -5 15q-1 1 -1 4q0 4 4 8q16 10 46 32l477 720q-239 -33 -451 -83h-2q-9 0 -9 8q0 5 4 8q16 10 23 15q4 2 5 2q7 0 7 -9q221 49 435 77l8 12q3 4 7 4q5 0 8 -4t0 -9q216 29 456 38z" />
    <glyph glyph-name="uni0163" unicode="&#x163;" horiz-adv-x="527" 
d="M633 138q7 0 7 -8t-6 -10q-153 -68 -499 -151q-76 -19 -102 -19q-18 0 -33 4q-2 -4 -4 -5q-23 -16 -43 -31q4 -8 4 -18q0 -29 -31.5 -62t-61.5 -51q-11 -7 -35.5 -16t-41.5 -9q-23 0 -23 18q0 6 3 15q3 6 9 6q11 0 8 -10l-1 -4q0 -6 10 -6q23 0 51 14q27 16 41 29
q54 50 54 78q0 7 -5 15q-1 1 -1 4q0 4 4 8l45 31l-15 9q-39 25 -41 82q0 31 7 55q1 2 9 35q9 25 24 59q9 21 29 63q44 96 105 187l-263 -3q-8 0 -8 9t8 9q184 2 275 2q54 78 123 155q3 3 6 3q5 0 8 -5.5t-1 -9.5q-64 -71 -115 -143q27 1 80.5 1t80.5 1q8 0 8 -9t-8 -9
q-29 0 -87 -0.5t-86 -0.5q-56 -81 -98 -169q-42 -86 -56 -124q0 -4 -3 -7q-14 -42 -17 -64q-3 -14 -3 -30q0 -32 14.5 -56t46.5 -29q10 -2 28 -2q28 0 62 8q320 75 535 160l1 1h2z" />
    <glyph glyph-name="Tcaron" unicode="&#x164;" horiz-adv-x="450" 
d="M30 -37q-5 0 -8 4.5t0 8.5l479 723q-239 -33 -451 -83h-2q-9 0 -9 8q0 5 4 8q16 10 23 15q4 2 5 2q7 0 7 -9q221 49 435 77l8 12q3 4 7 4q5 0 8 -4t0 -9q216 29 456 38q8 0 8 -8q0 -9 -8 -9q-236 -9 -468 -39l-487 -735q-3 -4 -7 -4zM908 514q-4 0 -6.5 3t0.5 8
q13 19 37 59q1 3 5 3t6.5 -3.5t-0.5 -8.5q-32 -51 -37 -58q-1 -3 -5 -3z" />
    <glyph glyph-name="tcaron" unicode="&#x165;" horiz-adv-x="527" 
d="M33 -50q-18 0 -33 4q-18 4 -33 15q-39 25 -41 82q0 31 7 55q1 2 9 35q9 25 24 59q9 21 29 63q44 96 105 187l-263 -3q-8 0 -8 9t8 9q184 2 275 2q54 78 123 155q3 3 6 3q5 0 8 -5.5t-1 -9.5q-64 -71 -115 -143q27 1 80.5 1t80.5 1q8 0 8 -9t-8 -9q-29 0 -87 -0.5
t-86 -0.5q-56 -81 -98 -169q-42 -86 -56 -124q0 -4 -3 -7q-14 -42 -17 -64q-3 -14 -3 -30q0 -32 14.5 -56t46.5 -29q10 -2 28 -2q28 0 62 8q320 75 535 160l1 1h2q7 0 7 -8t-6 -10q-153 -68 -499 -151q-76 -19 -102 -19zM349 520q-4 0 -6.5 3t0.5 8q13 19 37 59q2 3 5 3
q4 0 6.5 -3.5t-0.5 -8.5q-32 -51 -37 -58q-2 -3 -5 -3z" />
    <glyph glyph-name="Tbar" unicode="&#x166;" horiz-adv-x="450" 
d="M992 758q8 0 8 -8q0 -9 -8 -9q-236 -9 -468 -39l-188 -284q23 -1 71 -1q8 0 8 -9t-8 -9q-56 0 -83 1l-287 -433q-3 -4 -7 -4q-5 0 -8 4.5t0 8.5l281 424q-22 1 -65 1q-9 1 -9 9q0 9 9 9q51 0 77 -1l186 281q-239 -33 -451 -83h-2q-9 0 -9 8q0 5 4 8q16 10 23 15q4 2 5 2
q7 0 7 -9q221 49 435 77l8 12q3 4 7 4q5 0 8 -4t0 -9q216 29 456 38z" />
    <glyph glyph-name="tbar" unicode="&#x167;" horiz-adv-x="527" 
d="M633 138q7 0 7 -8t-6 -10q-153 -68 -499 -151q-76 -19 -102 -19q-18 0 -33 4q-18 4 -33 15q-39 25 -41 82q0 31 7 55q1 2 9 35q9 25 24 59q9 21 29 63q13 30 30 60l-64 -1q-8 0 -8 9q0 8 8 8q12 0 36.5 0.5t36.5 0.5q28 52 66 110l-263 -3q-8 0 -8 9t8 9q184 2 275 2
q54 78 123 155q3 3 6 3q5 0 8 -5.5t-1 -9.5q-64 -71 -115 -143q27 1 80.5 1t80.5 1q8 0 8 -9t-8 -9q-29 0 -87 -0.5t-86 -0.5q-38 -56 -67 -109q28 0 84 2q8 0 8 -8t-8 -10l-94 -2l-21 -42q-42 -86 -56 -124q0 -4 -3 -7q-14 -42 -17 -64q-3 -14 -3 -30q0 -32 14.5 -56
t46.5 -29q10 -2 28 -2q28 0 62 8q320 75 535 160l1 1h2z" />
    <glyph glyph-name="Umacron" unicode="&#x16a;" horiz-adv-x="894" 
d="M806 733q-114 2 -169 2q-9 1 -9 9q0 9 9 9q28 -1 84.5 -1.5t84.5 -0.5q8 0 8 -9t-8 -9zM165 -172q-93 0 -137 55q-28 37 -28 81q0 37 19 77q22 45 61.5 90.5t76.5 77.5t87 75.5t79 73.5q56 55 73 101q7 21 7 38q0 26 -13.5 43t-40.5 17q-30 0 -68.5 -17.5t-60.5 -33
t-59 -43.5q-4 -2 -6 -2q-6 0 -9 5.5t2 9.5q109 84 180 97q12 2 18 2q33 0 54.5 -21t21.5 -56q0 -31 -18 -65t-36 -54.5t-48 -49.5l-153 -140q-42 -38 -63 -59t-48.5 -61.5t-35.5 -77.5q-3 -15 -3 -27q0 -54 44.5 -86t104.5 -32q128 1 241 73.5t224 190.5t206 255.5
t197 312.5q3 4 7 4q5 0 8 -4t0 -9q-110 -189 -214 -337.5t-228 -273.5q-215 -215 -421 -229q-4 0 -11 -0.5t-10 -0.5z" />
    <glyph glyph-name="umacron" unicode="&#x16b;" horiz-adv-x="819" 
d="M350 378q-114 2 -169 2q-9 2 -9 9q0 9 9 9q28 -1 84.5 -1.5t84.5 -0.5q8 0 8 -9t-8 -9zM438 0q-38 0 -49 26q-5 10 -5 23q0 29 37 86q-126 -56 -226 -90q-11 -4 -37.5 -14t-46.5 -16t-39 -10q-6 -1 -19 -1q-39 0 -49 25q-4 12 -4 25q0 49 63 97q2 2 6 2q6 0 8.5 -4.5
t-2.5 -9.5q-57 -46 -57 -83q0 -35 33 -35q30 0 95 25q221 83 292 116q1 1 4 1q5 0 8 -4t0 -9q-1 -3 -11 -19.5t-16.5 -29t-12.5 -29.5t-6 -28q0 -27 31 -27q28 0 112 21q38 10 80 24.5t64.5 23.5t74 32t66.5 29l1 1h2q7 0 10 -6.5t-4 -9.5q-21 -9 -69.5 -30t-76 -32t-69 -26
t-80.5 -25t-79 -16q-13 -3 -29 -3z" />
    <glyph glyph-name="Uring" unicode="&#x16e;" horiz-adv-x="894" 
d="M730 717q-11 0 -20 10t-5 21q10 21 31 18q1 0 3 -2q2 0 3 -1q11 -7 11 -21q0 -10 -6.5 -17.5t-16.5 -7.5zM729 735q5 0 6.5 5t-2.5 9h-3q-8 0 -8 -8q0 -6 7 -6zM165 -172q-93 0 -137 55q-28 37 -28 81q0 37 19 77q22 45 61.5 90.5t76.5 77.5t87 75.5t79 73.5
q56 55 73 101q7 21 7 38q0 26 -13.5 43t-40.5 17q-30 0 -68.5 -17.5t-60.5 -33t-59 -43.5q-4 -2 -6 -2q-6 0 -9 5.5t2 9.5q109 84 180 97q12 2 18 2q33 0 54.5 -21t21.5 -56q0 -31 -18 -65t-36 -54.5t-48 -49.5l-153 -140q-42 -38 -63 -59t-48.5 -61.5t-35.5 -77.5
q-3 -15 -3 -27q0 -54 44.5 -86t104.5 -32q128 1 241 73.5t224 190.5t206 255.5t197 312.5q3 4 7 4q5 0 8 -4t0 -9q-110 -189 -214 -337.5t-228 -273.5q-215 -215 -421 -229q-4 0 -11 -0.5t-10 -0.5z" />
    <glyph glyph-name="uring" unicode="&#x16f;" horiz-adv-x="819" 
d="M296 380q-11 0 -20 10t-5 21q10 21 31 18q1 0 3 -2q2 0 3 -1q11 -7 11 -21q0 -10 -6.5 -17.5t-16.5 -7.5zM295 398q5 0 6.5 5t-2.5 9h-3q-8 0 -8 -8q0 -6 7 -6zM438 0q-38 0 -49 26q-5 10 -5 23q0 29 37 86q-126 -56 -226 -90q-11 -4 -37.5 -14t-46.5 -16t-39 -10
q-6 -1 -19 -1q-39 0 -49 25q-4 12 -4 25q0 49 63 97q2 2 6 2q6 0 8.5 -4.5t-2.5 -9.5q-57 -46 -57 -83q0 -35 33 -35q30 0 95 25q221 83 292 116q1 1 4 1q5 0 8 -4t0 -9q-1 -3 -11 -19.5t-16.5 -29t-12.5 -29.5t-6 -28q0 -27 31 -27q28 0 112 21q38 10 80 24.5t64.5 23.5
t74 32t66.5 29l1 1h2q7 0 10 -6.5t-4 -9.5q-21 -9 -69.5 -30t-76 -32t-69 -26t-80.5 -25t-79 -16q-13 -3 -29 -3z" />
    <glyph glyph-name="Uhungarumlaut" unicode="&#x170;" horiz-adv-x="894" 
d="M685 692q-4 0 -6.5 3t0.5 8q13 19 37 59q2 3 5 3q4 0 6.5 -3.5t-0.5 -8.5q-32 -51 -37 -58q-2 -3 -5 -3zM756 692q-4 0 -6.5 3t0.5 8q13 19 37 59q1 3 5 3t6.5 -3.5t-0.5 -8.5q-32 -51 -37 -58q-1 -3 -5 -3zM165 -172q-93 0 -137 55q-28 37 -28 81q0 37 19 77
q22 45 61.5 90.5t76.5 77.5t87 75.5t79 73.5q56 55 73 101q7 21 7 38q0 26 -13.5 43t-40.5 17q-30 0 -68.5 -17.5t-60.5 -33t-59 -43.5q-4 -2 -6 -2q-6 0 -9 5.5t2 9.5q109 84 180 97q12 2 18 2q33 0 54.5 -21t21.5 -56q0 -31 -18 -65t-36 -54.5t-48 -49.5l-153 -140
q-42 -38 -63 -59t-48.5 -61.5t-35.5 -77.5q-3 -15 -3 -27q0 -54 44.5 -86t104.5 -32q128 1 241 73.5t224 190.5t206 255.5t197 312.5q3 4 7 4q5 0 8 -4t0 -9q-110 -189 -214 -337.5t-228 -273.5q-215 -215 -421 -229q-4 0 -11 -0.5t-10 -0.5z" />
    <glyph glyph-name="uhungarumlaut" unicode="&#x171;" horiz-adv-x="819" 
d="M238 355q-4 0 -6.5 3.5t0.5 7.5q13 19 37 59q1 3 5 3t6.5 -4t-0.5 -8q-32 -51 -37 -58q-1 -3 -5 -3zM309 355q-4 0 -6.5 3.5t0.5 7.5q13 19 37 59q2 3 5 3q4 0 6.5 -4t-0.5 -8q-32 -51 -37 -58q-2 -3 -5 -3zM438 0q-38 0 -49 26q-5 10 -5 23q0 29 37 86
q-126 -56 -226 -90q-11 -4 -37.5 -14t-46.5 -16t-39 -10q-6 -1 -19 -1q-39 0 -49 25q-4 12 -4 25q0 49 63 97q2 2 6 2q6 0 8.5 -4.5t-2.5 -9.5q-57 -46 -57 -83q0 -35 33 -35q30 0 95 25q221 83 292 116q1 1 4 1q5 0 8 -4t0 -9q-1 -3 -11 -19.5t-16.5 -29t-12.5 -29.5
t-6 -28q0 -27 31 -27q28 0 112 21q38 10 80 24.5t64.5 23.5t74 32t66.5 29l1 1h2q7 0 10 -6.5t-4 -9.5q-21 -9 -69.5 -30t-76 -32t-69 -26t-80.5 -25t-79 -16q-13 -3 -29 -3z" />
    <glyph glyph-name="Uogonek" unicode="&#x172;" horiz-adv-x="894" 
d="M1041 682q5 0 8 -4t0 -9q-110 -189 -214 -337.5t-228 -273.5q-147 -147 -286 -199q3 -7 -3 -10q-60 -33 -107 -73l-25 -23q-38 -34 -51 -58q-5 -10 -5 -14q0 -10 14 -10q10 0 25.5 4.5t30 10.5t15.5 6h3q8 0 8 -9q-2 -7 -7 -8t-21 -7t-30 -9.5t-25 -3.5q-12 0 -19 4
q-12 7 -12 19q0 11 10 27q48 74 152 139q-42 -12 -88 -15q-4 0 -11 -0.5t-10 -0.5q-93 0 -137 55q-28 37 -28 81q0 37 19 77q22 45 61.5 90.5t76.5 77.5t87 75.5t79 73.5q56 55 73 101q7 21 7 38q0 26 -13.5 43t-40.5 17q-30 0 -68.5 -17.5t-60.5 -33t-59 -43.5q-4 -2 -6 -2
q-6 0 -9 5.5t2 9.5q109 84 180 97q12 2 18 2q33 0 54.5 -21t21.5 -56q0 -31 -18 -65t-36 -54.5t-48 -49.5l-153 -140q-42 -38 -63 -59t-48.5 -61.5t-35.5 -77.5q-3 -15 -3 -27q0 -54 44.5 -86t104.5 -32q128 1 241 73.5t224 190.5t206 255.5t197 312.5q3 4 7 4z" />
    <glyph glyph-name="uogonek" unicode="&#x173;" horiz-adv-x="819" 
d="M835 148q7 0 10 -6.5t-4 -9.5q-19 -8 -68.5 -29.5t-75.5 -32t-68 -26t-80 -25t-78 -15.5l-3 -3q-60 -33 -107 -73l-25 -23q-38 -34 -51 -58q-5 -10 -5 -14q0 -10 14 -10q10 0 25.5 4.5t30 10.5t15.5 6h3q8 0 8 -9q-2 -7 -7 -8t-21 -7t-30 -9.5t-25 -3.5q-12 0 -19 4
q-12 7 -12 19q0 11 10 27q50 78 160 143q-33 2 -43 26q-5 10 -5 23q0 29 37 86q-126 -56 -226 -90q-11 -4 -37.5 -14t-46.5 -16t-39 -10q-6 -1 -19 -1q-39 0 -49 25q-4 12 -4 25q0 49 63 97q2 2 6 2q6 0 8.5 -4.5t-2.5 -9.5q-57 -46 -57 -83q0 -35 33 -35q30 0 95 25
q221 83 292 116q1 1 4 1q5 0 8 -4t0 -9q-1 -3 -11 -19.5t-16.5 -29t-12.5 -29.5t-6 -28q0 -27 31 -27q28 0 112 21q38 10 80 24.5t64.5 23.5t74 32t66.5 29l1 1h2z" />
    <glyph glyph-name="Wcircumflex" unicode="&#x174;" horiz-adv-x="815" 
d="M509 686q-4 0 -7 4l-33 48q-9 13 -22 13q-7 0 -31 -8l-122 -41h-3q-8 0 -8 10q2 6 6 7l168 56h2q4 0 8 -4l51 -72q1 -1 1 -4q0 -9 -10 -9zM373 -107q-30 0 -54 10q-116 47 -116 235q0 36 3 69l-283 -183q-1 -1 -4 -1q-4 0 -6.5 3.5t-0.5 7.5l2 4l319 597q3 5 7 5t7 -3.5
t1 -7.5l-308 -574l271 174q4 2 5 2q8 0 8 -11q-4 -48 -4 -81q0 -202 129 -227q13 -3 28 -3q63 0 134.5 47.5t127.5 117t93 151t37 146.5q0 84 -52 151.5t-134 76.5q-7 0 -7 7q0 3 3 6t7 2q78 -9 132.5 -68.5t64.5 -139.5q2 -22 2 -32q0 -93 -65 -207t-163 -194t-184 -80z
" />
    <glyph glyph-name="wcircumflex" unicode="&#x175;" horiz-adv-x="1077" 
d="M399 362q-4 0 -7 4l-33 48q-9 13 -22 13q-7 0 -31 -8l-122 -41h-3q-8 0 -8 10q2 6 6 7l168 56h2q4 0 8 -4l51 -72q1 -1 1 -4q0 -9 -10 -9zM350 0q-27 0 -59 5q-36 7 -62.5 23t-25.5 44q-90 -52 -195 -63q-4 0 -6.5 3.5t-1.5 7.5l50 142q3 6 9 6q11 0 8 -11l-45 -129
q103 15 189 70q1 1 4 1q5 0 7.5 -3.5t1.5 -7.5q-3 -9 -3 -17q0 -53 128 -53q18 0 23 1q87 8 136 39q22 14 33 24q-33 13 -47 35t-14 45q0 36 34 49q5 2 15 2q23 0 41 -20t18 -43q0 -31 -17 -56q10 -4 28 -7q87 -17 170 -17q185 0 355 76q1 1 4 1q6 0 8.5 -6.5t-3.5 -9.5
q-176 -79 -366 -79q-46 0 -109 7q-85 13 -100 17q-20 -23 -63 -45q-63 -31 -145 -31zM554 99q3 3 4 5q11 20 11 47q0 43 -37 43q-36 0 -36 -26q0 -16 14 -36.5t26 -25.5q6 -3 18 -7z" />
    <glyph glyph-name="Ycircumflex" unicode="&#x176;" horiz-adv-x="782" 
d="M652 684q-4 0 -7 4l-33 48q-9 13 -22 13q-7 0 -31 -8l-122 -41h-3q-8 0 -8 10q2 6 6 7l168 56h2q4 0 8 -4l51 -72q1 -1 1 -4q0 -9 -10 -9zM108 -354q-10 0 -7 10q139 377 363 663q-87 -78 -166 -110q-28 -11 -55 -11q-40 0 -67 22t-27 65q0 36 17.5 77.5t35 68t46.5 63.5
q30 39 63 75l16 18q26 30 26 54q0 20 -19 20q-27 0 -71.5 -31t-50.5 -53q-2 -6 -7 -6q-11 0 -8 10q7 26 56.5 62.5t83.5 36.5q33 0 33 -40q0 -11 -3 -21t-11 -21.5t-12.5 -16.5t-17 -18.5t-14.5 -15.5q-78 -91 -114 -157q-34 -61 -34 -104q0 -31 20 -52q22 -22 55 -22
q23 0 46 9q29 11 59.5 28.5t52.5 33.5t54 45t47 43.5t49 49t44 44.5q3 3 6 3q5 0 7.5 -5t-1.5 -9q-260 -275 -422 -642q71 108 171 195q80 71 148 98q58 22 129 22q15 0 45 -2q8 0 8 -8t-8 -8q-30 2 -45 2q-71 0 -124 -21q-66 -27 -152 -103q-162 -144 -237 -336
q-3 -5 -8 -5z" />
    <glyph glyph-name="ycircumflex" unicode="&#x177;" horiz-adv-x="971" 
d="M377 362q-4 0 -7 4l-33 48q-9 13 -22 13q-7 0 -31 -8l-122 -41h-3q-8 0 -8 10q2 6 6 7l168 56h2q4 0 8 -4l51 -72q1 -1 1 -4q0 -9 -10 -9zM-168 -652q-62 -4 -62 61q0 46 27 105q34 72 90.5 136.5t129 118t138.5 92.5t148 80q30 14 62 28l99 158q-86 -38 -179 -67
q-9 -3 -35.5 -10.5t-40.5 -11.5t-36 -9t-41 -7.5t-37 -3.5q-80 0 -94 58q-2 8 -2 12q0 35 67 85q4 2 5 2q6 0 8.5 -5.5t-2.5 -9.5q-38 -28 -49 -46q-7 -13 -7 -26q0 -21 15 -35t38 -16q38 -2 132 20q145 35 276 97q2 1 5 1q5 0 7.5 -4t-0.5 -9l-101 -160q283 123 588 155h2
q8 0 8 -10q0 -7 -7 -7q-319 -32 -607 -164q-157 -248 -300 -402q-76 -83 -138 -136q-3 -3 -14.5 -14t-17 -16t-17 -14t-19.5 -13.5t-18.5 -8.5t-20.5 -4zM-184 -635q35 0 89 46q125 105 227 233q101 122 214 298q-138 -65 -255 -146q-155 -106 -224 -198q-55 -77 -72 -142
q-9 -25 -9 -50q0 -41 30 -41z" />
    </font>
</defs>
</svg>
