<?xml version="1.0" standalone="no"?>
<!DOCTYPE svg PUBLIC "-//W3C//DTD SVG 1.1//EN" "http://www.w3.org/Graphics/SVG/1.1/DTD/svg11.dtd" >
<svg xmlns="http://www.w3.org/2000/svg" xmlns:xlink="http://www.w3.org/1999/xlink" version="1.1">
<metadata>
Created by FontForge 20170812 at Mon May 10 19:03:39 2021
 By www-data
Aka-Acid All rights reserved
</metadata>
<defs>
<font id="Aka-Acid-Simplifica" horiz-adv-x="338" >
  <font-face 
    font-family="Aka-Acid-Simplifica"
    font-weight="400"
    font-stretch="normal"
    units-per-em="1000"
    panose-1="2 0 0 0 0 0 0 0 0 0"
    ascent="750"
    descent="-250"
    x-height="492"
    cap-height="675"
    bbox="-171 -233 635 848"
    underline-thickness="50"
    underline-position="-100"
    unicode-range="U+000D-FB02"
  />
<missing-glyph horiz-adv-x="155" 
 />
    <glyph glyph-name=".notdef" horiz-adv-x="155" 
 />
    <glyph glyph-name="NULL" horiz-adv-x="0" 
 />
    <glyph glyph-name="NULL" horiz-adv-x="0" 
 />
    <glyph glyph-name="CR" unicode="&#xd;" horiz-adv-x="155" 
 />
    <glyph glyph-name="space" unicode=" " horiz-adv-x="155" 
 />
    <glyph glyph-name="e" unicode="e" 
d="M192 273c-24 -8 -124 -49 -159 -60v-85c0 -56 45 -101 101 -101s101 45 101 101h33c0 -75 -59 -134 -134 -134s-134 59 -134 134v235c0 75 59 134 134 134s134 -60 134 -133v-1c0 -41 -25 -71 -76 -90zM134 464c-56 0 -101 -45 -101 -101v-115c40 16 127 48 148 56
c24 9 54 27 54 60c0 55 -45 100 -101 100z" />
    <glyph glyph-name="f" unicode="f" horiz-adv-x="169" 
d="M149 492v-33h-108v-432v-28v-89c0 -75 -54 -135 -121 -135v34c48 0 88 45 88 101v89v28v432v5v28v90c0 75 54 134 121 134v-33c-48 0 -88 -46 -88 -101v-90h108z" />
    <glyph glyph-name="g" unicode="g" 
d="M235 492h33v-129v-235v-227c0 -75 -59 -134 -134 -134s-134 59 -134 134h33c0 -55 45 -101 101 -101s101 46 101 101v139c-25 -28 -61 -46 -101 -46c-75 0 -134 59 -134 134v235c0 75 59 134 134 134c40 0 76 -17 101 -46v41zM134 27c56 0 101 45 101 101v235
c0 56 -45 101 -101 101s-101 -45 -101 -101v-235c0 -56 45 -101 101 -101z" />
    <glyph glyph-name="h" unicode="h" 
d="M134 497c75 0 134 -59 134 -134v-117v-247h-33v247v117c0 56 -45 101 -101 101s-101 -45 -101 -101v-117v-247h-33v247v117v353h33v-265c25 29 61 46 101 46z" />
    <glyph glyph-name="i" unicode="i" horiz-adv-x="137" 
d="M0 500h33h34v-34v-460h-34v460h-33v34zM42 614c-15 0 -25 10 -25 25s10 25 25 25c13 0 25 -10 25 -25s-12 -25 -25 -25z" />
    <glyph glyph-name="j" unicode="j" horiz-adv-x="142" 
d="M47 607c-15 0 -25 10 -25 25s10 25 25 25c13 0 25 -10 25 -25s-12 -25 -25 -25zM5 492h33h34v-33v-432v-28v-89c0 -75 -54 -135 -122 -135v34c48 0 88 45 88 101v89v28v432h-33v33z" />
    <glyph glyph-name="k" unicode="k" horiz-adv-x="325" 
d="M112 282l173 -283h-39l-164 268h-49v-268h-33v717h33v-416h48l4 2l128 190h40z" />
    <glyph glyph-name="l" unicode="l" horiz-adv-x="113" 
d="M33 716v-717h-33v717h33z" />
    <glyph glyph-name="m" unicode="m" horiz-adv-x="573" 
d="M369 497c75 0 134 -59 134 -134v-117v-247h-33v247v117c0 56 -45 101 -101 101c-55 0 -101 -45 -101 -101v-117v-247h-33v247v117c0 56 -45 101 -101 101s-101 -45 -101 -101v-117v-247h-33v247v117v129h33v-41c25 29 61 46 101 46c51 0 95 -28 118 -69
c23 41 66 69 117 69z" />
    <glyph glyph-name="n" unicode="n" 
d="M134 497c75 0 134 -59 134 -134v-117v-247h-33v247v117c0 56 -45 101 -101 101s-101 -45 -101 -101v-117v-247h-33v247v117v129h33v-41c25 29 61 46 101 46z" />
    <glyph glyph-name="o" unicode="o" 
d="M134 -6c-75 0 -134 59 -134 134v235c0 75 59 134 134 134s134 -59 134 -134v-235c0 -75 -59 -134 -134 -134zM134 464c-56 0 -101 -45 -101 -101v-235c0 -56 45 -101 101 -101s101 45 101 101v235c0 56 -45 101 -101 101z" />
    <glyph glyph-name="p" unicode="p" 
d="M134 497c75 0 134 -59 134 -134v-235c0 -75 -59 -134 -134 -134c-40 0 -76 18 -101 46v-265h-33v353v235v129h33v-41c25 29 61 46 101 46zM235 128v235c0 56 -45 101 -101 101s-101 -45 -101 -101v-235c0 -56 45 -101 101 -101s101 45 101 101z" />
    <glyph glyph-name="q" unicode="q" 
d="M235 492h33v-129v-235v-353h-33v265c-25 -28 -61 -46 -101 -46c-75 0 -134 59 -134 134v235c0 75 59 134 134 134c40 0 76 -17 101 -46v41zM134 27c56 0 101 45 101 101v235c0 56 -45 101 -101 101s-101 -45 -101 -101v-235c0 -56 45 -101 101 -101z" />
    <glyph glyph-name="r" unicode="r" horiz-adv-x="266" 
d="M164 497h42v-33h-39c-55 0 -101 -45 -101 -101v-117v-247h-33v247v117v96h-33v33h33h33v-33v-8c25 29 58 45 98 46z" />
    <glyph glyph-name="s" unicode="s" 
d="M142 261c59 -29 126 -65 126 -133c0 -75 -59 -134 -134 -134s-134 59 -134 134h33c0 -56 45 -101 101 -101s101 45 101 101c0 49 -52 74 -108 103c-61 29 -127 64 -127 132c0 75 59 134 134 134s134 -59 134 -134h-33c0 56 -45 101 -101 101s-101 -45 -101 -101
c0 -48 53 -75 109 -102z" />
    <glyph glyph-name="t" unicode="t" horiz-adv-x="191" 
d="M33 459v-213v-118c0 -56 40 -101 88 -101v-33c-67 0 -121 59 -121 134v118v213v33v140h33v-140h108v-33h-108z" />
    <glyph glyph-name="u" unicode="u" 
d="M235 492h33v-246v-118v-129h-33v41c-25 -28 -61 -46 -101 -46c-75 0 -134 59 -134 134v118v246h33v-246v-118c0 -56 45 -101 101 -101s101 45 101 101v118v246z" />
    <glyph glyph-name="v" unicode="v" horiz-adv-x="327" 
d="M133 39l119 453h35l-130 -493h-13h-21h-13l-130 493h34z" />
    <glyph glyph-name="w" unicode="w" horiz-adv-x="484" 
d="M309 44l101 448h34l-112 -493h-49l-71 400l-71 -400h-50l-111 493h34l101 -448l80 448v0h33h1z" />
    <glyph glyph-name="x" unicode="x" horiz-adv-x="306" 
d="M17 -1h-37l124 251l-120 242h37l102 -204l101 204h37l-120 -242l125 -251h-38l-105 214z" />
    <glyph glyph-name="y" unicode="y" horiz-adv-x="318" 
d="M137 56l107 436h34l-175 -717h-34l52 216l-141 501h34z" />
    <glyph glyph-name="z" unicode="z" horiz-adv-x="294" 
d="M-20 492h254v-33v0v0l-217 -427h217v-33h-254v33v0l217 427h-217v33z" />
    <glyph glyph-name="period" unicode="." horiz-adv-x="142" 
d="M72 30c0 -20 -16 -37 -36 -37s-36 17 -36 37c0 19 16 36 36 36s36 -17 36 -36z" />
    <glyph glyph-name="comma" unicode="," horiz-adv-x="143" 
d="M72 30v-3c0 -15 -1 -60 -42 -104l-19 18c19 19 27 37 31 53c-3 0 -3 -1 -6 -1c-20 0 -36 17 -36 37c0 19 16 36 36 36s36 -17 36 -36z" />
    <glyph glyph-name="colon" unicode=":" horiz-adv-x="142" 
d="M72 30c0 -20 -16 -37 -36 -37s-36 17 -36 37c0 19 16 36 36 36s36 -17 36 -36zM72 413c0 -20 -16 -36 -36 -36s-36 16 -36 36s16 36 36 36s36 -16 36 -36z" />
    <glyph glyph-name="semicolon" unicode=";" horiz-adv-x="143" 
d="M72 30v-3c0 -15 -1 -60 -42 -104l-19 18c19 19 27 37 31 53c-3 0 -3 -1 -6 -1c-20 0 -36 17 -36 37c0 19 16 36 36 36s36 -17 36 -36zM72 413c0 -20 -16 -36 -36 -36s-36 16 -36 36s16 36 36 36s36 -16 36 -36z" />
    <glyph glyph-name="exclam" unicode="!" horiz-adv-x="182" 
d="M112 30c0 -20 -16 -37 -36 -37s-36 17 -36 37c0 19 16 36 36 36s36 -17 36 -36zM93 682v-502h-34v502h34z" />
    <glyph glyph-name="question" unicode="?" horiz-adv-x="359" 
d="M155 30c0 -20 -17 -37 -37 -37c-19 0 -36 17 -36 37c0 19 17 36 36 36c20 0 37 -17 37 -36zM289 541c0 -99 -42 -144 -106 -195s-50 -75 -50 -167h-33c0 108 -5 140 62 193c61 48 94 86 94 169c0 61 -51 112 -111 112c-61 0 -112 -51 -112 -112h-33c0 80 65 145 145 145
c79 0 144 -65 144 -145z" />
    <glyph glyph-name="percent" unicode="%" horiz-adv-x="465" 
d="M314 675l-199 -676h-34l200 676h33zM101 478c-56 0 -101 45 -101 101c0 55 45 101 101 101c55 0 101 -46 101 -101c0 -56 -46 -101 -101 -101zM101 646c-37 0 -68 -30 -68 -67c0 -39 31 -68 68 -68s68 29 68 68c0 37 -31 67 -68 67zM294 -6c-55 0 -101 45 -101 101
s46 101 101 101c56 0 101 -45 101 -101s-45 -101 -101 -101zM294 163c-37 0 -67 -31 -67 -68s30 -68 67 -68c39 0 68 31 68 68s-29 68 -68 68z" />
    <glyph glyph-name="perthousand" unicode="&#x2030;" horiz-adv-x="705" 
d="M314 675l-199 -676h-34l200 676h33zM101 478c-56 0 -101 45 -101 101c0 55 45 101 101 101c55 0 101 -46 101 -101c0 -56 -46 -101 -101 -101zM101 646c-37 0 -68 -30 -68 -67c0 -39 31 -68 68 -68s68 29 68 68c0 37 -31 67 -68 67zM294 -6c-55 0 -101 45 -101 101
s46 101 101 101c56 0 101 -45 101 -101s-45 -101 -101 -101zM294 163c-37 0 -67 -31 -67 -68s30 -68 67 -68c39 0 68 31 68 68s-29 68 -68 68zM535 -6c-56 0 -101 45 -101 101s45 101 101 101c55 0 100 -45 100 -101s-45 -101 -100 -101zM535 163c-39 0 -68 -31 -68 -68
s29 -68 68 -68c37 0 67 31 67 68s-30 68 -67 68z" />
    <glyph glyph-name="quotedblbase" unicode="&#x201e;" horiz-adv-x="183" 
d="M72 29v-2c0 -15 -1 -60 -42 -104l-19 18c19 19 27 37 31 53c-3 0 -3 -1 -6 -1c-20 0 -36 17 -36 36c0 20 16 37 36 37s36 -17 36 -37zM183 29v-2c0 -13 -1 -62 -43 -104l-18 18c17 19 26 37 31 53c-3 0 -3 -1 -6 -1c-20 0 -36 17 -36 36c0 20 16 37 36 37s36 -17 36 -37z
" />
    <glyph glyph-name="quotedblright" unicode="&#x201d;" horiz-adv-x="183" 
d="M72 651v-2c0 -16 -1 -61 -42 -105l-19 18c19 19 27 37 31 53h-6c-20 0 -36 16 -36 36s16 36 36 36s36 -16 36 -36zM183 651v-2c0 -14 -1 -63 -43 -105l-18 18c17 19 26 37 31 53h-6c-20 0 -36 16 -36 36s16 36 36 36s36 -16 36 -36z" />
    <glyph glyph-name="quotedblleft" unicode="&#x201c;" horiz-adv-x="183" 
d="M111 580v2c0 13 -1 62 42 105l18 -18c-17 -19 -26 -37 -30 -53h6c20 0 36 -16 36 -36s-16 -36 -36 -36s-36 16 -36 36zM0 580v2c0 13 2 62 42 105l19 -18c-19 -19 -26 -37 -31 -53h6c20 0 36 -16 36 -36s-16 -36 -36 -36s-36 16 -36 36z" />
    <glyph glyph-name="quoteright" unicode="&#x2019;" horiz-adv-x="73" 
d="M72 651v-2c0 -16 -1 -61 -42 -105l-19 18c19 19 27 37 31 53h-6c-20 0 -36 16 -36 36s16 36 36 36s36 -16 36 -36z" />
    <glyph glyph-name="quoteleft" unicode="&#x2018;" horiz-adv-x="72" 
d="M0 580v2c0 13 2 62 42 105l19 -18c-19 -19 -26 -37 -31 -53h6c20 0 36 -16 36 -36s-16 -36 -36 -36s-36 16 -36 36z" />
    <glyph glyph-name="A" unicode="A" horiz-adv-x="376" 
d="M336 -1h-34l-47 212h-194l-47 -212h-34l150 676h56zM158 648l-90 -404h180z" />
    <glyph glyph-name="B" unicode="B" horiz-adv-x="377" 
d="M211 415c56 -20 96 -72 96 -135v-138c0 -80 -65 -143 -144 -143h-130h-16h-17v676h17h16h97c79 0 144 -63 144 -143c0 -49 -24 -92 -63 -117zM130 642h-97v-219h101c59 3 107 49 107 109c0 61 -51 110 -111 110zM274 142v138c0 61 -48 107 -109 110h-31h-4h-97v-358h130
c60 0 111 49 111 110z" />
    <glyph glyph-name="C" unicode="C" horiz-adv-x="359" 
d="M145 27c60 0 111 51 111 112h33c0 -80 -65 -145 -144 -145c-80 0 -145 65 -145 145v395c0 80 65 145 145 145c79 0 144 -65 144 -145h-33c0 60 -51 111 -111 111c-61 0 -112 -51 -112 -111v-395c0 -61 51 -112 112 -112z" />
    <glyph glyph-name="D" unicode="D" horiz-adv-x="353" 
d="M33 675h105c80 0 145 -63 145 -143v-390c0 -80 -65 -143 -145 -143h-105h-8h-25v676h25h8zM249 142v390c0 61 -51 110 -111 110h-105v-610h105c60 0 111 49 111 110z" />
    <glyph glyph-name="E" unicode="E" horiz-adv-x="313" 
d="M263 675v-34h-230v-255h189v-33h-189v-321h230v-33h-230h-33v0v676v0h33h230z" />
    <glyph glyph-name="F" unicode="F" horiz-adv-x="313" 
d="M263 675v-34h-230v-255h189v-33h-189v-354h-33v676v0h33h230z" />
    <glyph glyph-name="G" unicode="G" horiz-adv-x="359" 
d="M120 380h136h33v-33v-101v-107v-11c-5 -75 -68 -134 -144 -134c-80 0 -145 65 -145 145v395c0 80 65 145 145 145c79 0 144 -65 144 -145h-33c0 60 -51 111 -111 111c-61 0 -112 -51 -112 -111v-395c0 -61 51 -112 112 -112c60 0 111 51 111 112v107v101h-136v33z" />
    <glyph glyph-name="H" unicode="H" horiz-adv-x="353" 
d="M250 386v289h33v-289v-33v-354h-33v354h-217v-354h-33v676h33v-289h217z" />
    <glyph glyph-name="I" unicode="I" horiz-adv-x="103" 
d="M33 675v-676h-33v676h33z" />
    <glyph glyph-name="J" unicode="J" horiz-adv-x="359" 
d="M256 675h33v-34v-160v-35v-307c0 -80 -65 -145 -144 -145c-80 0 -145 65 -145 145v107h33v-107c0 -61 51 -112 112 -112c60 0 111 51 111 112v307v35v160h-180v34h180z" />
    <glyph glyph-name="K" unicode="K" horiz-adv-x="352" 
d="M322 -1h-37l-175 335h-77v-335h-33v676h33v-307h77l160 307h37l-168 -324z" />
    <glyph glyph-name="L" unicode="L" horiz-adv-x="277" 
d="M33 675v-643h214v-33h-214h-33v0v676h33z" />
    <glyph glyph-name="M" unicode="M" horiz-adv-x="471" 
d="M201 219l166 456h34v-676h-33v582l-167 -459l-168 459v-582h-33v676h34z" />
    <glyph glyph-name="N" unicode="N" horiz-adv-x="348" 
d="M245 91v584h33v-676h-33l-212 584v-584h-33v676h33z" />
    <glyph glyph-name="O" unicode="O" horiz-adv-x="359" 
d="M145 -6c-80 0 -145 65 -145 145v395c0 80 65 145 145 145c79 0 144 -65 144 -145v-395c0 -80 -65 -145 -144 -145zM145 645c-61 0 -112 -51 -112 -111v-395c0 -61 51 -112 112 -112c60 0 111 51 111 112v395c0 60 -51 111 -111 111z" />
    <glyph glyph-name="P" unicode="P" horiz-adv-x="344" 
d="M33 675h99c79 0 142 -66 142 -143v-138c0 -76 -60 -138 -135 -143h-5h-4h-97v-252h-33v676h17h16zM241 394v138c0 59 -51 110 -111 110h-97v-358h99c61 0 109 51 109 110z" />
    <glyph glyph-name="Q" unicode="Q" horiz-adv-x="359" 
d="M145 679c79 0 144 -65 144 -145v-395c0 -75 -56 -136 -128 -144v-87h-33v87c-72 8 -128 69 -128 144v395c0 80 65 145 145 145zM256 139v395c0 60 -51 111 -111 111c-61 0 -112 -51 -112 -111v-395c0 -56 40 -102 95 -111v218h33v-218c55 9 95 55 95 111z" />
    <glyph glyph-name="R" unicode="R" horiz-adv-x="342" 
d="M236 -1l-121 285h-82v-285h-33v285v33v325v33h33h89c80 0 145 -63 145 -143v-18v-87c0 -69 -51 -127 -117 -140l122 -288h-36zM33 642v-325h89c60 0 111 49 111 110v87v18c0 59 -51 110 -111 110h-89z" />
    <glyph glyph-name="S" unicode="S" horiz-adv-x="359" 
d="M152 356c67 -53 137 -110 137 -217c0 -80 -65 -145 -144 -145c-80 0 -145 65 -145 145h33c0 -61 51 -112 112 -112c60 0 111 51 111 112c0 91 -61 140 -125 191s-131 104 -131 204c0 80 65 145 145 145c79 0 144 -65 144 -145h-33c0 60 -51 111 -111 111
c-61 0 -112 -51 -112 -111c0 -83 57 -130 119 -178z" />
    <glyph glyph-name="T" unicode="T" horiz-adv-x="303" 
d="M128 675h135v-34h-135v-642h-33v642h-135v34h135h33z" />
    <glyph glyph-name="U" unicode="U" horiz-adv-x="359" 
d="M256 675h33v-288v-17v-230c0 -80 -65 -145 -144 -145c-80 0 -145 65 -145 145v230v17v288h33v-288v-17v-230c0 -61 51 -112 112 -112c60 0 111 51 111 112v230v17v288z" />
    <glyph glyph-name="V" unicode="V" horiz-adv-x="387" 
d="M168 54l135 621h34l-147 -676h-44l-146 676h34z" />
    <glyph glyph-name="W" unicode="W" horiz-adv-x="623" 
d="M403 48l136 627h34l-146 -676h-50l-91 603l-90 -603h-50l-146 676h34l136 -627l94 627h45z" />
    <glyph glyph-name="X" unicode="X" horiz-adv-x="351" 
d="M36 -1h-36l132 340l-130 336h35l113 -290l113 290h36l-131 -336l133 -340h-36l-115 294z" />
    <glyph glyph-name="Y" unicode="Y" horiz-adv-x="327" 
d="M128 385l113 290h36l-131 -336l-1 -3v-337h-33v337l-1 3l-131 336h36z" />
    <glyph glyph-name="Z" unicode="Z" horiz-adv-x="321" 
d="M271 641l-238 -609h238v-33h-271v33v0l238 609h-238v34h271v-34z" />
    <glyph glyph-name="quotesingle" unicode="'" horiz-adv-x="133" 
d="M33 714v-183h-33v183h33z" />
    <glyph glyph-name="quotedbl" unicode="&#x22;" horiz-adv-x="184" 
d="M33 715v-183h-33v183h33zM114 715v-183h-33v183h33z" />
    <glyph glyph-name="asterisk" unicode="*" horiz-adv-x="255" 
d="M168 641l17 -29l-60 -34l60 -34l-17 -29l-59 34v-68h-33v68l-59 -34l-17 29l59 34l-59 34l17 29l59 -35v69h33v-69z" />
    <glyph glyph-name="plus" unicode="+" horiz-adv-x="417" 
d="M190 335h157v-33h-157v-157h-33v157h-157v33h157v157h33v-157z" />
    <glyph glyph-name="divide" unicode="&#xf7;" horiz-adv-x="417" 
d="M347 335v-33h-347v33h347zM210 456c0 -20 -17 -36 -36 -36c-20 0 -37 16 -37 36s17 36 37 36c19 0 36 -16 36 -36zM210 181c0 -20 -17 -36 -36 -36c-20 0 -37 16 -37 36s17 36 37 36c19 0 36 -16 36 -36z" />
    <glyph glyph-name="hyphen" unicode="-" horiz-adv-x="318" 
d="M218 335v-33h-218v33h218z" />
    <glyph glyph-name="multiply" unicode="&#xd7;" horiz-adv-x="339" 
d="M245 453l24 -23l-111 -111l111 -111l-24 -24l-111 111l-111 -111l-23 24l111 111l-111 111l23 23l111 -111z" />
    <glyph glyph-name="ampersand" unicode="&#x26;" horiz-adv-x="533" 
d="M395 108c35 -55 60 -96 68 -109h-39c-11 19 -28 45 -48 77c-40 -55 -100 -82 -180 -82c-108 0 -196 88 -196 196c0 109 86 161 163 209c3 1 3 3 6 4l-42 67c-23 35 -31 54 -31 90c0 65 54 119 118 119s118 -54 118 -119c0 -81 -55 -126 -117 -167
c45 -72 106 -173 159 -252c19 46 28 108 28 186h34c0 -93 -14 -166 -41 -219zM154 488l43 -67c56 36 102 75 102 139c0 47 -38 85 -85 85s-85 -38 -85 -85c0 -25 5 -40 25 -72zM196 27c73 0 127 27 160 80c-53 82 -122 192 -169 268c-3 -1 -4 -3 -7 -4
c-75 -48 -147 -89 -147 -181c0 -90 73 -163 163 -163z" />
    <glyph glyph-name="at" unicode="@" horiz-adv-x="682" 
d="M548 69c-19 -19 -41 -35 -66 -50c-24 -13 -50 -24 -77 -31c-26 -7 -53 -10 -82 -10c-46 0 -89 8 -128 25c-38 17 -72 40 -102 70c-29 29 -52 64 -68 103c-17 39 -25 82 -25 127c0 43 9 85 26 125c16 39 39 72 69 101c29 29 63 52 102 69c37 17 78 25 122 25
c41 0 79 -7 115 -20c35 -13 66 -31 93 -56c26 -23 47 -51 62 -84c15 -31 23 -67 23 -108c0 -34 -6 -65 -18 -94c-12 -31 -28 -57 -47 -79c-19 -23 -40 -41 -63 -54s-45 -19 -67 -19c-15 0 -28 3 -41 10c-13 6 -22 16 -26 29l-5 13l-9 -9c-12 -13 -28 -23 -45 -31
c-19 -7 -36 -11 -53 -11c-16 0 -32 3 -47 10c-13 6 -25 15 -36 26c-9 11 -17 24 -22 39c-5 13 -8 29 -8 48c0 28 5 57 15 87c11 31 24 58 43 83s41 46 66 62s53 24 84 24c19 0 37 -5 54 -14s29 -22 37 -39l8 -19l18 54h41l-84 -252l-9 -28c-2 -10 -3 -18 -2 -25
c1 -9 4 -15 9 -20s13 -8 24 -8c20 0 39 7 58 22c18 13 33 31 46 53c13 21 24 45 31 70c8 26 12 51 12 75c0 37 -7 70 -21 99c-15 31 -33 56 -56 75c-23 21 -50 36 -81 47s-63 17 -97 17c-42 0 -80 -8 -115 -24s-65 -38 -90 -65s-45 -59 -59 -95s-21 -74 -21 -115
c0 -39 7 -77 22 -114c15 -35 36 -66 61 -93c25 -26 55 -47 90 -62c36 -15 74 -23 114 -23c22 0 45 3 68 8c22 5 44 13 65 24c21 10 40 23 57 39c17 14 32 30 45 48h34c-13 -20 -27 -39 -44 -55zM360 236c13 24 24 49 32 76c7 27 11 51 11 70s-6 36 -18 50
c-13 15 -29 22 -50 22c-25 0 -47 -8 -68 -23c-19 -15 -36 -32 -49 -55c-15 -23 -24 -46 -32 -70c-7 -26 -11 -49 -11 -69c0 -23 6 -43 19 -60c13 -19 32 -28 57 -28c22 0 43 9 62 27c17 15 32 35 47 60z" />
    <glyph glyph-name="zero" unicode="0" horiz-adv-x="359" 
d="M145 -6c-80 0 -145 65 -145 145v395c0 80 65 145 145 145c79 0 144 -65 144 -145v-395c0 -80 -65 -145 -144 -145zM145 645c-61 0 -112 -51 -112 -111v-395c0 -61 51 -112 112 -112c60 0 111 51 111 112v395c0 60 -51 111 -111 111z" />
    <glyph glyph-name="one" unicode="1" horiz-adv-x="249" 
d="M130 675v-643h49v-33h-49h-33h-74v33h74v607l-85 -34l-12 31l97 38v1h33z" />
    <glyph glyph-name="two" unicode="2" horiz-adv-x="359" 
d="M33 139v-107h256v-33h-256h-16h-17v140c0 107 70 164 137 217c62 48 119 95 119 178c0 60 -51 111 -111 111c-61 0 -112 -51 -112 -111h-33c0 80 65 145 145 145c79 0 144 -65 144 -145c0 -100 -67 -153 -131 -204s-125 -100 -125 -191z" />
    <glyph glyph-name="three" unicode="3" horiz-adv-x="359" 
d="M289 533v-69c0 -56 -30 -104 -77 -129c47 -24 77 -72 77 -128v-68c0 -80 -65 -145 -144 -145c-80 0 -145 65 -145 145h33c0 -61 51 -112 112 -112c60 0 111 51 111 112v68c0 61 -51 112 -111 112h-36v33h36c60 0 111 51 111 112v69c0 61 -51 112 -111 112
c-61 0 -112 -51 -112 -112h-33c0 80 65 146 145 146c79 0 144 -66 144 -146z" />
    <glyph glyph-name="four" unicode="4" horiz-adv-x="326" 
d="M222 242v181h34v-181v-34v-209h-34v209h-242v34v0l174 433h37l-175 -433h206z" />
    <glyph glyph-name="five" unicode="5" horiz-adv-x="359" 
d="M52 423h93c79 0 144 -65 144 -145v-139c0 -80 -65 -145 -144 -145c-80 0 -145 65 -145 145h33c0 -61 51 -112 112 -112c60 0 111 51 111 112v139c0 61 -51 112 -111 112h-95h-14h-19l16 285h8h25h204v-34h-206z" />
    <glyph glyph-name="six" unicode="6" horiz-adv-x="359" 
d="M145 423c79 0 144 -65 144 -145v-139c0 -80 -65 -145 -144 -145c-80 0 -145 65 -145 145v395c0 80 65 145 145 145c79 0 144 -65 144 -145h-33c0 60 -51 111 -111 111c-61 0 -112 -51 -112 -111v-164c27 32 67 53 112 53zM256 139v139c0 61 -51 112 -111 112
c-61 0 -112 -51 -112 -112v-139c0 -61 51 -112 112 -112c60 0 111 51 111 112z" />
    <glyph glyph-name="seven" unicode="7" horiz-adv-x="301" 
d="M-20 641v34h251v-34l-180 -642h-34l181 642h-218z" />
    <glyph glyph-name="eight" unicode="8" horiz-adv-x="359" 
d="M289 534v-69c0 -56 -32 -105 -80 -129c48 -24 80 -72 80 -129v-68c0 -80 -65 -145 -144 -145c-80 0 -145 65 -145 145v68c0 57 32 105 80 129c-48 24 -80 73 -80 129v69c0 80 65 145 145 145c79 0 144 -65 144 -145zM256 139v68c0 61 -51 112 -111 112
c-61 0 -112 -51 -112 -112v-68c0 -61 51 -112 112 -112c60 0 111 51 111 112zM145 354c60 0 111 51 111 111v69c0 60 -51 111 -111 111c-61 0 -112 -51 -112 -111v-69c0 -60 51 -111 112 -111z" />
    <glyph glyph-name="nine" unicode="9" horiz-adv-x="359" 
d="M145 679c79 0 144 -65 144 -145v-395c0 -80 -65 -145 -144 -145c-80 0 -145 65 -145 145h33c0 -61 51 -112 112 -112c60 0 111 51 111 112v234c-27 -32 -67 -52 -111 -52c-80 0 -145 65 -145 144v69c0 80 65 145 145 145zM145 354c60 0 111 51 111 111v69
c0 60 -51 111 -111 111c-61 0 -112 -51 -112 -111v-69c0 -60 51 -111 112 -111z" />
    <glyph glyph-name="slash" unicode="/" horiz-adv-x="302" 
d="M232 675l-199 -676h-33l199 676h33z" />
    <glyph glyph-name="backslash" unicode="\" horiz-adv-x="302" 
d="M232 -1h-33l-199 676h33z" />
    <glyph glyph-name="Euro" unicode="&#x20ac;" horiz-adv-x="443" 
d="M229 27c60 0 111 51 111 112h33c0 -80 -65 -145 -144 -145c-80 0 -145 65 -145 145v130h-54v33h54v62h-54v33h54v137c0 80 65 145 145 145c79 0 144 -65 144 -145h-33c0 60 -51 111 -111 111s-111 -51 -111 -111v-137h170v-33h-170v-62h170v-33h-170v-130
c0 -61 51 -112 111 -112z" />
    <glyph glyph-name="sterling" unicode="&#xa3;" horiz-adv-x="437" 
d="M334 143h33c0 -79 -56 -144 -136 -144h-231v33c60 0 85 47 86 107v176h-86v33h86v186c0 80 56 145 136 145s137 -65 137 -145h-34c0 61 -40 111 -103 111c-61 0 -103 -50 -103 -111v-186h113v-33h-113v-172h1c0 -44 -13 -84 -38 -111h149c61 0 103 50 103 111z" />
    <glyph glyph-name="dollar" unicode="$" horiz-adv-x="359" 
d="M161 644v-295c64 -53 128 -106 128 -210c0 -75 -56 -136 -128 -144v-45h-33v45c-72 8 -128 69 -128 144h33c0 -56 40 -102 95 -111v305c-64 51 -128 102 -128 201c0 74 56 136 128 144v37h33v-37c72 -8 128 -70 128 -144h-33c0 56 -40 102 -95 110zM33 534
c0 -72 44 -118 95 -159v269c-55 -8 -95 -54 -95 -110zM161 306v-278c55 9 95 55 95 111c0 77 -43 124 -95 167z" />
    <glyph glyph-name="yen" unicode="&#xa5;" horiz-adv-x="367" 
d="M166 339l-1 -3v-8h112v-33h-112v-62h112v-33h-112v-201h-33v201h-112v33h112v62h-112v33h112v8l-1 3l-131 336h36l112 -290l113 290h36z" />
    <glyph glyph-name="dagger" unicode="&#x2020;" horiz-adv-x="430" 
d="M196 527h164v-34h-164v-568h-33v568h-163v34h163v190h33v-190z" />
    <glyph glyph-name="daggerdbl" unicode="&#x2021;" horiz-adv-x="430" 
d="M360 527v-34h-164v-232h164v-33h-164v-303h-33v303h-163v33h163v232h-163v34h163v190h33v-190h164z" />
    <glyph glyph-name="d" unicode="d" 
d="M235 716h33v-353v-235v-129h-33v41c-25 -28 -61 -46 -101 -46c-75 0 -134 59 -134 134v235c0 75 59 134 134 134c40 0 76 -17 101 -46v265zM134 27c56 0 101 45 101 101v235c0 56 -45 101 -101 101s-101 -45 -101 -101v-235c0 -56 45 -101 101 -101z" />
    <glyph glyph-name="fl" unicode="&#xfb02;" horiz-adv-x="424" 
d="M354 716v-33v-684h-34v684h-111c-48 0 -88 -45 -88 -101v-90h108v-33h-108v-432v-28v-89c0 -75 -54 -135 -121 -135v34c48 0 88 45 88 101v89v28v432v5v28v90c0 75 54 134 121 134h111h34z" />
    <glyph glyph-name="fi" unicode="&#xfb01;" horiz-adv-x="424" 
d="M354 683h-145c-48 0 -88 -45 -88 -101v-90h191h17h16v-493h-33v460h-191v-432v-28v-89c0 -75 -54 -135 -121 -135v34c48 0 88 45 88 101v89v28v432v5v28v90c0 75 54 134 121 134h145v-33z" />
    <glyph glyph-name="dieresis" unicode="&#xa8;" horiz-adv-x="176" 
d="M25 614c-15 0 -25 10 -25 25s10 25 25 25s25 -10 25 -25s-10 -25 -25 -25zM149 614c-15 0 -25 10 -25 25s10 25 25 25s25 -10 25 -25s-10 -25 -25 -25z" />
    <glyph glyph-name="adieresis" unicode="&#xe4;" 
d="M142 497c74 0 126 -59 126 -134v-117v-118v-129h-33v41c-25 -28 -61 -46 -101 -46c-75 0 -134 59 -134 134v28c0 41 25 71 76 90c24 11 127 48 159 61v56c0 56 -37 101 -93 101c-55 0 -101 -45 -101 -101h-33c0 75 59 134 134 134zM235 128v118v25
c-40 -16 -126 -48 -147 -56c-25 -9 -55 -27 -55 -59v-28c0 -56 45 -101 101 -101s101 45 101 101zM82 614c-15 0 -25 10 -25 25s10 25 25 25s25 -10 25 -25s-10 -25 -25 -25zM206 614c-15 0 -25 10 -25 25s10 25 25 25s25 -10 25 -25s-10 -25 -25 -25z" />
    <glyph glyph-name="odieresis" unicode="&#xf6;" 
d="M134 -6c-75 0 -134 59 -134 134v235c0 75 59 134 134 134s134 -59 134 -134v-235c0 -75 -59 -134 -134 -134zM134 464c-56 0 -101 -45 -101 -101v-235c0 -56 45 -101 101 -101s101 45 101 101v235c0 56 -45 101 -101 101zM72 614c-15 0 -25 10 -25 25s10 25 25 25
s25 -10 25 -25s-10 -25 -25 -25zM196 614c-15 0 -25 10 -25 25s10 25 25 25s25 -10 25 -25s-10 -25 -25 -25z" />
    <glyph glyph-name="acute" unicode="&#xb4;" horiz-adv-x="201" 
d="M10 572l-10 32l192 60l10 -32z" />
    <glyph glyph-name="grave" unicode="`" horiz-adv-x="272" 
d="M10 664l192 -60l-10 -32l-192 60z" />
    <glyph glyph-name="agrave" unicode="&#xe0;" 
d="M142 497c74 0 126 -59 126 -134v-117v-118v-129h-33v41c-25 -28 -61 -46 -101 -46c-75 0 -134 59 -134 134v28c0 41 25 71 76 90c24 11 127 48 159 61v56c0 56 -37 101 -93 101c-55 0 -101 -45 -101 -101h-33c0 75 59 134 134 134zM235 128v118v25
c-40 -16 -126 -48 -147 -56c-25 -9 -55 -27 -55 -59v-28c0 -56 45 -101 101 -101s101 45 101 101zM60 664l192 -60l-10 -32l-192 60z" />
    <glyph glyph-name="eacute" unicode="&#xe9;" 
d="M192 273c-24 -8 -124 -49 -159 -60v-85c0 -56 45 -101 101 -101s101 45 101 101h33c0 -75 -59 -134 -134 -134s-134 59 -134 134v235c0 75 59 134 134 134s134 -60 134 -133v-1c0 -41 -25 -71 -76 -90zM134 464c-56 0 -101 -45 -101 -101v-115c40 16 127 48 148 56
c24 9 54 27 54 60c0 55 -45 100 -101 100zM43 572l-10 32l192 60l10 -32z" />
    <glyph glyph-name="egrave" unicode="&#xe8;" 
d="M192 273c-24 -8 -124 -49 -159 -60v-85c0 -56 45 -101 101 -101s101 45 101 101h33c0 -75 -59 -134 -134 -134s-134 59 -134 134v235c0 75 59 134 134 134s134 -60 134 -133v-1c0 -41 -25 -71 -76 -90zM134 464c-56 0 -101 -45 -101 -101v-115c40 16 127 48 148 56
c24 9 54 27 54 60c0 55 -45 100 -101 100zM45 664l192 -60l-10 -32l-192 60z" />
    <glyph glyph-name="oacute" unicode="&#xf3;" 
d="M134 -6c-75 0 -134 59 -134 134v235c0 75 59 134 134 134s134 -59 134 -134v-235c0 -75 -59 -134 -134 -134zM134 464c-56 0 -101 -45 -101 -101v-235c0 -56 45 -101 101 -101s101 45 101 101v235c0 56 -45 101 -101 101zM39 572l-10 32l192 60l10 -32z" />
    <glyph glyph-name="aacute" unicode="&#xe1;" 
d="M142 497c74 0 126 -59 126 -134v-117v-118v-129h-33v41c-25 -28 -61 -46 -101 -46c-75 0 -134 59 -134 134v28c0 41 25 71 76 90c24 11 127 48 159 61v56c0 56 -37 101 -93 101c-55 0 -101 -45 -101 -101h-33c0 75 59 134 134 134zM235 128v118v25
c-40 -16 -126 -48 -147 -56c-25 -9 -55 -27 -55 -59v-28c0 -56 45 -101 101 -101s101 45 101 101zM46 572l-10 32l192 60l10 -32z" />
    <glyph glyph-name="ugrave" unicode="&#xf9;" 
d="M235 492h33v-246v-118v-129h-33v41c-25 -28 -61 -46 -101 -46c-75 0 -134 59 -134 134v118v246h33v-246v-118c0 -56 45 -101 101 -101s101 45 101 101v118v246zM46 664l192 -60l-10 -32l-192 60z" />
    <glyph glyph-name="uacute" unicode="&#xfa;" 
d="M235 492h33v-246v-118v-129h-33v41c-25 -28 -61 -46 -101 -46c-75 0 -134 59 -134 134v118v246h33v-246v-118c0 -56 45 -101 101 -101s101 45 101 101v118v246zM45 572l-10 32l192 60l10 -32z" />
    <glyph glyph-name="Agrave" unicode="&#xc0;" horiz-adv-x="376" 
d="M336 -1h-34l-47 212h-194l-47 -212h-34l150 676h56zM158 648l-90 -404h180zM67 847l192 -60l-10 -32l-192 60z" />
    <glyph glyph-name="Aacute" unicode="&#xc1;" horiz-adv-x="376" 
d="M336 -1h-34l-47 212h-194l-47 -212h-34l150 676h56zM158 648l-90 -404h180zM68 755l-10 32l192 60l10 -32z" />
    <glyph glyph-name="Egrave" unicode="&#xc8;" horiz-adv-x="313" 
d="M263 675v-34h-230v-255h189v-33h-189v-321h230v-33h-230h-33v0v676v0h33h230zM47 847l192 -60l-10 -32l-192 60z" />
    <glyph glyph-name="Eacute" unicode="&#xc9;" horiz-adv-x="313" 
d="M263 675v-34h-230v-255h189v-33h-189v-321h230v-33h-230h-33v0v676v0h33h230zM43 755l-10 32l192 60l10 -32z" />
    <glyph glyph-name="Ograve" unicode="&#xd2;" horiz-adv-x="359" 
d="M145 -6c-80 0 -145 65 -145 145v395c0 80 65 145 145 145c79 0 144 -65 144 -145v-395c0 -80 -65 -145 -144 -145zM145 645c-61 0 -112 -51 -112 -111v-395c0 -61 51 -112 112 -112c60 0 111 51 111 112v395c0 60 -51 111 -111 111zM56 847l192 -60l-10 -32l-192 60z" />
    <glyph glyph-name="Oacute" unicode="&#xd3;" horiz-adv-x="359" 
d="M145 -6c-80 0 -145 65 -145 145v395c0 80 65 145 145 145c79 0 144 -65 144 -145v-395c0 -80 -65 -145 -144 -145zM145 645c-61 0 -112 -51 -112 -111v-395c0 -61 51 -112 112 -112c60 0 111 51 111 112v395c0 60 -51 111 -111 111zM53 755l-10 32l192 60l10 -32z" />
    <glyph glyph-name="Udieresis" unicode="&#xdc;" horiz-adv-x="359" 
d="M256 675h33v-288v-17v-230c0 -80 -65 -145 -144 -145c-80 0 -145 65 -145 145v230v17v288h33v-288v-17v-230c0 -61 51 -112 112 -112c60 0 111 51 111 112v230v17v288zM79 797c-15 0 -25 10 -25 25s10 25 25 25s25 -10 25 -25s-10 -25 -25 -25zM203 797
c-15 0 -25 10 -25 25s10 25 25 25s25 -10 25 -25s-10 -25 -25 -25z" />
    <glyph glyph-name="edieresis" unicode="&#xeb;" 
d="M192 273c-24 -8 -124 -49 -159 -60v-85c0 -56 45 -101 101 -101s101 45 101 101h33c0 -75 -59 -134 -134 -134s-134 59 -134 134v235c0 75 59 134 134 134s134 -60 134 -133v-1c0 -41 -25 -71 -76 -90zM134 464c-56 0 -101 -45 -101 -101v-115c40 16 127 48 148 56
c24 9 54 27 54 60c0 55 -45 100 -101 100zM72 614c-15 0 -25 10 -25 25s10 25 25 25s25 -10 25 -25s-10 -25 -25 -25zM196 614c-15 0 -25 10 -25 25s10 25 25 25s25 -10 25 -25s-10 -25 -25 -25z" />
    <glyph glyph-name="ydieresis" unicode="&#xff;" 
d="M157 56l107 436h34l-175 -717h-34l52 216l-141 501h34zM95 614c-15 0 -25 10 -25 25s10 25 25 25s25 -10 25 -25s-10 -25 -25 -25zM219 614c-15 0 -25 10 -25 25s10 25 25 25s25 -10 25 -25s-10 -25 -25 -25z" />
    <glyph glyph-name="Odieresis" unicode="&#xd6;" horiz-adv-x="359" 
d="M145 -6c-80 0 -145 65 -145 145v395c0 80 65 145 145 145c79 0 144 -65 144 -145v-395c0 -80 -65 -145 -144 -145zM145 645c-61 0 -112 -51 -112 -111v-395c0 -61 51 -112 112 -112c60 0 111 51 111 112v395c0 60 -51 111 -111 111zM83 797c-15 0 -25 10 -25 25
s10 25 25 25s25 -10 25 -25s-10 -25 -25 -25zM207 797c-15 0 -25 10 -25 25s10 25 25 25s25 -10 25 -25s-10 -25 -25 -25z" />
    <glyph glyph-name="Edieresis" unicode="&#xcb;" horiz-adv-x="313" 
d="M263 675v-34h-230v-255h189v-33h-189v-321h230v-33h-230h-33v676h33h230zM79 797c-15 0 -25 10 -25 25s10 25 25 25s25 -10 25 -25s-10 -25 -25 -25zM203 797c-15 0 -25 10 -25 25s10 25 25 25s25 -10 25 -25s-10 -25 -25 -25z" />
    <glyph glyph-name="Ugrave" unicode="&#xd9;" horiz-adv-x="359" 
d="M256 675h33v-288v-17v-230c0 -80 -65 -145 -144 -145c-80 0 -145 65 -145 145v230v17v288h33v-288v-17v-230c0 -61 51 -112 112 -112c60 0 111 51 111 112v230v17v288zM50 847l192 -60l-10 -32l-192 60z" />
    <glyph glyph-name="Uacute" unicode="&#xda;" horiz-adv-x="359" 
d="M256 675h33v-288v-17v-230c0 -80 -65 -145 -144 -145c-80 0 -145 65 -145 145v230v17v288h33v-288v-17v-230c0 -61 51 -112 112 -112c60 0 111 51 111 112v230v17v288zM50 755l-10 32l192 60l10 -32z" />
    <glyph glyph-name="Adieresis" unicode="&#xc4;" horiz-adv-x="376" 
d="M336 -1h-34l-47 212h-194l-47 -212h-34l150 676h56zM158 648l-90 -404h180zM96 797c-15 0 -25 10 -25 25s10 25 25 25s25 -10 25 -25s-10 -25 -25 -25zM220 797c-15 0 -25 10 -25 25s10 25 25 25s25 -10 25 -25s-10 -25 -25 -25z" />
    <glyph glyph-name="ograve" unicode="&#xf2;" 
d="M134 -6c-75 0 -134 59 -134 134v235c0 75 59 134 134 134s134 -59 134 -134v-235c0 -75 -59 -134 -134 -134zM134 464c-56 0 -101 -45 -101 -101v-235c0 -56 45 -101 101 -101s101 45 101 101v235c0 56 -45 101 -101 101zM44 664l192 -60l-10 -32l-192 60z" />
    <glyph glyph-name="Ydieresis" unicode="&#x178;" horiz-adv-x="347" 
d="M148 385l113 290h36l-131 -336l-1 -3v-337h-33v337l-1 3l-131 336h36zM86 797c-15 0 -25 10 -25 25s10 25 25 25s25 -10 25 -25s-10 -25 -25 -25zM210 797c-15 0 -25 10 -25 25s10 25 25 25s25 -10 25 -25s-10 -25 -25 -25z" />
    <glyph glyph-name="circumflex" unicode="&#x2c6;" horiz-adv-x="275" 
d="M103 663l102 -59l-5 -32l-98 57l-97 -57l-5 32l102 60v0v0l1 1v-2z" />
    <glyph glyph-name="acircumflex" unicode="&#xe2;" 
d="M142 497c74 0 126 -59 126 -134v-117v-118v-129h-33v41c-25 -28 -61 -46 -101 -46c-75 0 -134 59 -134 134v28c0 41 25 71 76 90c24 11 127 48 159 61v56c0 56 -37 101 -93 101c-55 0 -101 -45 -101 -101h-33c0 75 59 134 134 134zM235 128v118v25
c-40 -16 -126 -48 -147 -56c-25 -9 -55 -27 -55 -59v-28c0 -56 45 -101 101 -101s101 45 101 101zM142 663l102 -59l-5 -32l-98 57l-97 -57l-5 32l102 60l1 1v-2z" />
    <glyph glyph-name="ocircumflex" unicode="&#xf4;" 
d="M134 -6c-75 0 -134 59 -134 134v235c0 75 59 134 134 134s134 -59 134 -134v-235c0 -75 -59 -134 -134 -134zM134 464c-56 0 -101 -45 -101 -101v-235c0 -56 45 -101 101 -101s101 45 101 101v235c0 56 -45 101 -101 101zM134 663l102 -59l-5 -32l-98 57l-97 -57l-5 32
l102 60l1 1v-2z" />
    <glyph glyph-name="ecircumflex" unicode="&#xea;" 
d="M192 273c-24 -8 -124 -49 -159 -60v-85c0 -56 45 -101 101 -101s101 45 101 101h33c0 -75 -59 -134 -134 -134s-134 59 -134 134v235c0 75 59 134 134 134s134 -60 134 -133v-1c0 -41 -25 -71 -76 -90zM134 464c-56 0 -101 -45 -101 -101v-115c40 16 127 48 148 56
c24 9 54 27 54 60c0 55 -45 100 -101 100zM134 663l102 -59l-5 -32l-98 57l-97 -57l-5 32l102 60l1 1v-2z" />
    <glyph glyph-name="Acircumflex" unicode="&#xc2;" horiz-adv-x="376" 
d="M336 -1h-34l-47 212h-194l-47 -212h-34l150 676h56zM158 648l-90 -404h180zM160 846l102 -59l-5 -32l-98 57l-97 -57l-5 32l102 60v0v0l1 1v-2z" />
    <glyph glyph-name="Ecircumflex" unicode="&#xca;" horiz-adv-x="313" 
d="M263 675v-34h-230v-255h189v-33h-189v-321h230v-33h-230h-33v0v676v0h33h230zM139 846l102 -59l-5 -32l-98 57l-97 -57l-5 32l102 60v0v0l1 1v-2z" />
    <glyph glyph-name="Ocircumflex" unicode="&#xd4;" horiz-adv-x="359" 
d="M145 -6c-80 0 -145 65 -145 145v395c0 80 65 145 145 145c79 0 144 -65 144 -145v-395c0 -80 -65 -145 -144 -145zM145 645c-61 0 -112 -51 -112 -111v-395c0 -61 51 -112 112 -112c60 0 111 51 111 112v395c0 60 -51 111 -111 111zM145 846l102 -59l-5 -32l-98 57
l-97 -57l-5 32l102 60l1 1v-2z" />
    <glyph glyph-name="ucircumflex" unicode="&#xfb;" 
d="M235 492h33v-246v-118v-129h-33v41c-25 -28 -61 -46 -101 -46c-75 0 -134 59 -134 134v118v246h33v-246v-118c0 -56 45 -101 101 -101s101 45 101 101v118v246zM136 663l102 -59l-5 -32l-98 57l-97 -57l-5 32l102 60l1 1v-2z" />
    <glyph glyph-name="ogonek" unicode="&#x2db;" horiz-adv-x="134" 
d="M63 -74v-30c-40 0 -54 20 -59 31c-11 29 2 62 39 99l21 -21c-21 -21 -40 -50 -33 -66c5 -12 21 -13 32 -13z" />
    <glyph glyph-name="yacute" unicode="&#xfd;" 
d="M157 56l107 436h34l-175 -717h-34l52 216l-141 501h34zM65 572l-10 32l192 60l10 -32z" />
    <glyph glyph-name="bullet" unicode="&#x2022;" horiz-adv-x="189" 
d="M60 219c-33 0 -60 27 -60 60s27 59 60 59c32 0 59 -26 59 -59s-27 -60 -59 -60z" />
    <glyph glyph-name="underscore" unicode="_" 
d="M268 -27h-268v33h268v-33z" />
    <glyph glyph-name="guillemotleft" unicode="&#xab;" horiz-adv-x="423" 
d="M353 125l-24 -23l-191 199l191 199l24 -23l-169 -176zM215 125l-24 -23l-191 199l191 199l24 -23l-169 -176z" />
    <glyph glyph-name="udieresis" unicode="&#xfc;" 
d="M235 492h33v-246v-118v-129h-33v41c-25 -28 -61 -46 -101 -46c-75 0 -134 59 -134 134v118v246h33v-246v-118c0 -56 45 -101 101 -101s101 45 101 101v118v246zM75 614c-15 0 -25 10 -25 25s10 25 25 25s25 -10 25 -25s-10 -25 -25 -25zM199 614c-15 0 -25 10 -25 25
s10 25 25 25s25 -10 25 -25s-10 -25 -25 -25z" />
    <glyph glyph-name="cedilla" unicode="&#xb8;" horiz-adv-x="92" 
d="M72 -22c14 -9 21 -21 21 -38c0 -29 -23 -50 -54 -50c-17 0 -29 3 -36 9l-3 1l7 22l5 -2c5 -3 15 -7 26 -7c15 0 28 8 28 25c0 21 -19 25 -34 25c-9 0 -15 0 -18 -1l-6 -1l6 48h24l-4 -23h6c12 0 23 -3 32 -8z" />
    <glyph glyph-name="ccedilla" unicode="&#xe7;" 
d="M134 27c56 0 101 45 101 101h33c0 -75 -59 -134 -134 -134s-134 59 -134 134v235c0 75 59 134 134 134s134 -59 134 -134h-33c0 56 -45 101 -101 101s-101 -45 -101 -101v-235c0 -56 45 -101 101 -101zM163 -22c14 -9 21 -21 21 -38c0 -29 -23 -50 -54 -50
c-17 0 -29 3 -36 9l-3 1l7 22l5 -2c5 -3 15 -7 26 -7c15 0 28 8 28 25c0 21 -19 25 -34 25c-9 0 -15 0 -18 -1l-6 -1l6 48h24l-4 -23h6c12 0 23 -3 32 -8z" />
    <glyph glyph-name="Oslash" unicode="&#xd8;" horiz-adv-x="359" 
d="M145 -6c-80 0 -145 65 -145 145v395c0 80 65 145 145 145c79 0 144 -65 144 -145v-395c0 -80 -65 -145 -144 -145zM145 645c-61 0 -112 -51 -112 -111v-395c0 -61 51 -112 112 -112c60 0 111 51 111 112v395c0 60 -51 111 -111 111zM263 675l-199 -676h-33l199 676h33z
" />
    <glyph glyph-name="Ccedilla" unicode="&#xc7;" horiz-adv-x="359" 
d="M145 27c60 0 111 51 111 112h33c0 -80 -65 -145 -144 -145c-80 0 -145 65 -145 145v395c0 80 65 145 145 145c79 0 144 -65 144 -145h-33c0 60 -51 111 -111 111c-61 0 -112 -51 -112 -111v-395c0 -61 51 -112 112 -112zM181 -22c14 -9 21 -21 21 -38
c0 -29 -23 -50 -54 -50c-17 0 -29 3 -36 9l-3 1l7 22l5 -2c5 -3 15 -7 26 -7c15 0 28 8 28 25c0 21 -19 25 -34 25c-9 0 -15 0 -18 -1l-6 -1l6 48h24l-4 -23h6c12 0 23 -3 32 -8z" />
    <glyph glyph-name="Igrave" unicode="&#xcc;" horiz-adv-x="103" 
d="M33 675v-676h-33v676h33zM-69 847l192 -60l-10 -32l-192 60z" />
    <glyph glyph-name="Iacute" unicode="&#xcd;" horiz-adv-x="103" 
d="M33 675v-676h-33v676h33zM-70 755l-10 32l192 60l10 -32z" />
    <glyph glyph-name="Icircumflex" unicode="&#xce;" horiz-adv-x="103" 
d="M33 675v-676h-33v676h33zM20 846l102 -59l-5 -32l-98 57l-97 -57l-5 32l102 60v0v0l1 1v-2z" />
    <glyph glyph-name="Idieresis" unicode="&#xcf;" horiz-adv-x="103" 
d="M33 675v-676h-33v676h33zM-42 797c-15 0 -25 10 -25 25s10 25 25 25s25 -10 25 -25s-10 -25 -25 -25zM82 797c-15 0 -25 10 -25 25s10 25 25 25s25 -10 25 -25s-10 -25 -25 -25z" />
    <glyph glyph-name="dotaccent" unicode="&#x2d9;" horiz-adv-x="137" 
d="M42 614c-15 0 -25 10 -25 25s10 25 25 25c13 0 25 -10 25 -25s-12 -25 -25 -25z" />
    <glyph glyph-name="igrave" unicode="&#xec;" horiz-adv-x="162" 
d="M4 500h33h34v-34v-460h-34v460h-33v34zM-40 664l192 -60l-10 -32l-192 60z" />
    <glyph glyph-name="iacute" unicode="&#xed;" horiz-adv-x="162" 
d="M10 466v34h33h34v-34v-460h-34v460h-33zM-40 572l-10 32l192 60l10 -32z" />
    <glyph glyph-name="icircumflex" unicode="&#xee;" horiz-adv-x="165" 
d="M9 466v34h33h34v-34v-460h-34v460h-33zM53 663l102 -59l-5 -32l-98 57l-97 -57l-5 32l102 60v0v0l1 1v-2z" />
    <glyph glyph-name="idieresis" unicode="&#xef;" horiz-adv-x="144" 
d="M0 500h33h34v-34v-460h-34v460h-33v34zM-15 614c-15 0 -25 10 -25 25s10 25 25 25s25 -10 25 -25s-10 -25 -25 -25zM109 614c-15 0 -25 10 -25 25s10 25 25 25s25 -10 25 -25s-10 -25 -25 -25z" />
    <glyph glyph-name="Ucircumflex" unicode="&#xdb;" horiz-adv-x="359" 
d="M256 675h33v-288v-17v-230c0 -80 -65 -145 -144 -145c-80 0 -145 65 -145 145v230v17v288h33v-288v-17v-230c0 -61 51 -112 112 -112c60 0 111 51 111 112v230v17v288zM144 846l102 -59l-5 -32l-98 57l-97 -57l-5 32l102 60l1 1v-2z" />
    <glyph glyph-name="Yacute" unicode="&#xdd;" horiz-adv-x="347" 
d="M148 385l113 290h36l-131 -336l-1 -3v-337h-33v337l-1 3l-131 336h36zM58 755l-10 32l192 60l10 -32z" />
    <glyph glyph-name="guillemotright" unicode="&#xbb;" horiz-adv-x="423" 
d="M215 300l-191 -198l-24 23l169 175l-169 177l24 23zM353 300l-191 -198l-24 23l169 175l-169 177l24 23z" />
    <glyph glyph-name="equal" unicode="=" horiz-adv-x="408" 
d="M338 407v-33h-338v33h338zM338 252v-33h-338v33h338z" />
    <glyph glyph-name="numbersign" unicode="#" horiz-adv-x="408" 
d="M338 407v-33h-338v33h338zM338 252v-33h-338v33h338zM263 144h-33v338h33v-338zM108 144h-33v338h33v-338z" />
    <glyph glyph-name="tilde" unicode="&#x2dc;" horiz-adv-x="277" 
d="M148 586h-2c-19 0 -36 8 -53 16c-33 15 -49 20 -68 -9l-25 16c14 23 32 35 54 35c19 0 35 -8 51 -15c35 -16 53 -22 76 13l26 -16c-17 -26 -36 -39 -59 -40z" />
    <glyph glyph-name="atilde" unicode="&#xe3;" 
d="M142 497c74 0 126 -59 126 -134v-117v-118v-129h-33v41c-25 -28 -61 -46 -101 -46c-75 0 -134 59 -134 134v28c0 41 25 71 76 90c24 11 127 48 159 61v56c0 56 -37 101 -93 101c-55 0 -101 -45 -101 -101h-33c0 75 59 134 134 134zM235 128v118v25
c-40 -16 -126 -48 -147 -56c-25 -9 -55 -27 -55 -59v-28c0 -56 45 -101 101 -101s101 45 101 101zM186 581h-2c-19 0 -36 8 -53 16c-33 15 -49 20 -68 -9l-25 16c14 23 32 35 54 35c19 0 35 -8 51 -15c35 -16 53 -22 76 13l26 -16c-17 -26 -36 -39 -59 -40z" />
    <glyph glyph-name="ntilde" unicode="&#xf1;" 
d="M134 497c75 0 134 -59 134 -134v-117v-247h-33v247v117c0 56 -45 101 -101 101s-101 -45 -101 -101v-117v-247h-33v247v117v129h33v-41c25 29 61 46 101 46zM174 583h-2c-19 0 -36 8 -53 16c-33 15 -49 20 -68 -9l-25 16c14 23 32 35 54 35c19 0 35 -8 51 -15
c35 -16 53 -22 76 13l26 -16c-17 -26 -36 -39 -59 -40z" />
    <glyph glyph-name="otilde" unicode="&#xf5;" 
d="M134 -6c-75 0 -134 59 -134 134v235c0 75 59 134 134 134s134 -59 134 -134v-235c0 -75 -59 -134 -134 -134zM134 464c-56 0 -101 -45 -101 -101v-235c0 -56 45 -101 101 -101s101 45 101 101v235c0 56 -45 101 -101 101zM176 586h-2c-19 0 -36 8 -53 16
c-33 15 -49 20 -68 -9l-25 16c14 23 32 35 54 35c19 0 35 -8 51 -15c35 -16 53 -22 76 13l26 -16c-17 -26 -36 -39 -59 -40z" />
    <glyph glyph-name="asciitilde" unicode="~" horiz-adv-x="386" 
d="M229 245h-3c-28 0 -54 12 -81 24c-54 24 -88 34 -120 -17l-25 16c22 34 48 51 79 51c27 0 53 -11 78 -23c52 -24 94 -40 134 24l25 -16c-24 -39 -53 -58 -87 -59z" />
    <glyph glyph-name="asciicircum" unicode="^" horiz-adv-x="328" 
d="M140 682l138 -191l-23 -24l-115 157l-117 -157l-23 24z" />
    <glyph glyph-name="bracketright" unicode="]" horiz-adv-x="183" 
d="M80 762h-80v33h80h33v-33v-817v-34h-33h-80v34h80v817z" />
    <glyph glyph-name="bracketleft" unicode="[" horiz-adv-x="183" 
d="M113 795v-33h-80v-817h80v-34h-80h-33v34v817v33h33h80z" />
    <glyph glyph-name="bar" unicode="|" horiz-adv-x="103" 
d="M33 795v-884h-33v884h33z" />
    <glyph glyph-name="braceleft" unicode="{" horiz-adv-x="301" 
d="M0 320v33v1c61 0 86 50 86 111v186c0 79 65 144 145 144v-33c-60 0 -111 -51 -111 -111v-186c0 -56 -20 -104 -59 -128c39 -24 59 -72 59 -128v-153c0 -60 51 -111 111 -111v-34c-80 0 -145 65 -145 145v153c0 61 -25 111 -86 111z" />
    <glyph glyph-name="braceright" unicode="}" horiz-adv-x="301" 
d="M231 353v-33c-61 0 -86 -50 -86 -111h-1v-153c0 -80 -65 -145 -144 -145v34c60 0 111 51 111 111v153c0 56 20 104 59 128c-39 24 -59 72 -59 128v186c0 60 -51 111 -111 111v33c79 0 144 -65 144 -144v-186h1c0 -61 25 -111 86 -111v-1z" />
    <glyph glyph-name="less" unicode="&#x3c;" horiz-adv-x="285" 
d="M215 125l-24 -23l-191 198l191 200l24 -23l-169 -177z" />
    <glyph glyph-name="greater" unicode="&#x3e;" horiz-adv-x="285" 
d="M215 300l-191 -198l-24 23l169 175l-169 177l24 23z" />
    <glyph glyph-name="parenleft" unicode="(" horiz-adv-x="214" 
d="M144 -55v-34c-79 0 -144 65 -144 145v595c0 79 65 144 144 144v-33c-60 0 -111 -51 -111 -111v-595c0 -60 51 -111 111 -111z" />
    <glyph glyph-name="parenright" unicode=")" horiz-adv-x="214" 
d="M0 -89v34c60 0 111 51 111 111v595c0 60 -51 111 -111 111v33c79 0 144 -65 144 -144v-595c0 -80 -65 -145 -144 -145z" />
    <glyph glyph-name="germandbls" unicode="&#xdf;" horiz-adv-x="400" 
d="M165 0c-7 0 -10 0 -11 1h-43v33h45c1 0 61 -6 101 31c27 24 40 61 40 110c0 92 -52 124 -101 157c-40 27 -78 51 -78 102c0 39 25 53 46 68c23 15 39 26 39 59c0 69 -68 85 -85 85c-13 0 -85 -16 -85 -85v-560h-33v560c0 51 25 78 48 94c24 17 51 24 70 24
c37 0 118 -30 118 -118c0 -52 -30 -71 -54 -87c-21 -13 -31 -21 -31 -40c0 -31 24 -47 63 -74c51 -35 116 -76 116 -185c0 -59 -17 -104 -51 -135c-40 -34 -89 -40 -114 -40z" />
    <glyph glyph-name="a" unicode="a" 
d="M142 497c74 0 126 -59 126 -134v-117v-118v-129h-33v41c-25 -28 -61 -46 -101 -46c-75 0 -134 59 -134 134v28c0 41 25 71 76 90c24 11 127 48 159 61v56c0 56 -37 101 -93 101c-55 0 -101 -45 -101 -101h-33c0 75 59 134 134 134zM235 128v118v25
c-40 -16 -126 -48 -147 -56c-25 -9 -55 -27 -55 -59v-28c0 -56 45 -101 101 -101s101 45 101 101z" />
    <glyph glyph-name="b" unicode="b" 
d="M134 497c75 0 134 -59 134 -134v-235c0 -75 -59 -134 -134 -134c-40 0 -76 18 -101 46v-41h-33v129v235v353h33v-265c25 29 61 46 101 46zM235 128v235c0 56 -45 101 -101 101s-101 -45 -101 -101v-235c0 -56 45 -101 101 -101s101 45 101 101z" />
    <glyph glyph-name="c" unicode="c" 
d="M134 27c56 0 101 45 101 101h33c0 -75 -59 -134 -134 -134s-134 59 -134 134v235c0 75 59 134 134 134s134 -59 134 -134h-33c0 56 -45 101 -101 101s-101 -45 -101 -101v-235c0 -56 45 -101 101 -101z" />
    <glyph glyph-name="degree" unicode="&#xb0;" horiz-adv-x="202" 
d="M101 485c-56 0 -101 45 -101 101s45 101 101 101c55 0 101 -45 101 -101s-46 -101 -101 -101zM101 654c-39 0 -68 -31 -68 -68s29 -68 68 -68c37 0 67 31 67 68s-30 68 -67 68z" />
    <glyph glyph-name="ordmasculine" unicode="&#xba;" horiz-adv-x="94" 
d="M46 686c27 0 47 -20 47 -47v-113c0 -27 -20 -47 -47 -47c-25 0 -46 20 -46 47v113c0 27 21 47 46 47zM46 499c15 0 27 12 27 27v113c0 15 -12 27 -27 27s-27 -12 -27 -27v-113c0 -15 12 -27 27 -27z" />
    <glyph glyph-name="onesuperior" unicode="&#xb9;" horiz-adv-x="63" 
d="M49 685v-185h14v-19h-55v19h21v162l-22 -9l-7 19l29 11v2h20z" />
    <glyph glyph-name="twosuperior" unicode="&#xb2;" horiz-adv-x="94" 
d="M19 526v-26h74v-19h-93v45c0 33 22 51 41 66c17 15 32 26 32 47c0 15 -12 27 -27 27s-27 -12 -27 -27v-5h-19v5c0 27 21 47 46 47c24 0 44 -18 47 -42v-5c0 -31 -21 -47 -40 -62s-34 -27 -34 -51z" />
    <glyph glyph-name="threesuperior" unicode="&#xb3;" horiz-adv-x="94" 
d="M93 639v-20c0 -15 -6 -27 -18 -37c12 -9 18 -21 18 -36v-20c0 -27 -20 -47 -47 -47c-25 0 -46 20 -46 47v5h19v-5c0 -15 12 -27 27 -27s27 12 27 27v20c0 15 -12 26 -27 26h-15v20h16c15 1 26 12 26 27v20c0 15 -12 27 -27 27s-27 -12 -27 -27v-5h-19v5c0 27 21 47 46 47
c27 0 47 -20 47 -47z" />
    <glyph glyph-name="ordfeminine" unicode="&#xaa;" horiz-adv-x="113" 
d="M60 683c31 0 53 -24 53 -56v-147h-20v11c-12 -9 -24 -13 -37 -13c-31 0 -56 25 -56 56v11c0 19 11 32 32 39c9 4 44 16 61 23v20c0 21 -14 36 -33 36c-20 0 -37 -16 -37 -36v-3h-20v3c0 31 25 56 57 56zM56 498c20 0 37 16 37 36v52l-54 -20c-9 -4 -19 -10 -19 -21v-11
c0 -20 16 -36 36 -36z" />
    <glyph glyph-name="ae" unicode="&#xe6;" horiz-adv-x="503" 
d="M268 220v-85v-3c3 -54 47 -98 101 -98c56 0 101 46 101 101h33c0 -75 -59 -134 -134 -134c-40 0 -76 18 -101 46v-41h-33v41c-25 -28 -61 -46 -101 -46c-75 0 -134 59 -134 134v28c0 41 25 72 76 91c24 8 125 47 159 60v56v4c-1 55 -37 97 -93 97
c-55 0 -101 -45 -101 -101h-33c0 75 59 135 134 135c51 0 90 -28 111 -68c23 40 65 68 116 68c75 0 134 -59 134 -134v-1c0 -41 -25 -71 -76 -90c-24 -8 -125 -47 -159 -60zM369 471c-56 0 -98 -42 -101 -98v-3v-115c40 16 127 48 148 56c24 11 54 28 54 60
c0 55 -45 100 -101 100zM134 34c56 0 98 43 101 98v3v143c-40 -16 -126 -47 -147 -55c-25 -11 -55 -28 -55 -60v-28c0 -55 45 -101 101 -101z" />
    <glyph glyph-name="oe" unicode="&#x153;" horiz-adv-x="505" 
d="M428 280c-24 -8 -126 -47 -160 -60v-85c0 -55 46 -101 101 -101c56 0 101 46 101 101h34c0 -75 -60 -134 -135 -134c-51 0 -94 27 -117 70c-23 -43 -67 -70 -118 -70c-75 0 -134 59 -134 134v235c0 75 59 135 134 135c51 0 95 -29 118 -70c23 41 66 70 117 70
c74 0 135 -59 135 -134v-1c-1 -41 -27 -71 -76 -90zM268 370v-115c40 16 127 48 148 56c25 11 54 28 54 60c0 55 -45 100 -101 100c-55 0 -101 -45 -101 -101zM235 135v235c0 56 -45 101 -101 101s-101 -45 -101 -101v-235c0 -55 45 -101 101 -101s101 46 101 101z" />
    <glyph glyph-name="Alpha" unicode="&#x391;" horiz-adv-x="376" 
d="M336 -1h-34l-47 212h-194l-47 -212h-34l150 676h56zM158 648l-90 -404h180z" />
    <glyph glyph-name="Beta" unicode="&#x392;" horiz-adv-x="377" 
d="M211 415c56 -20 96 -72 96 -135v-138c0 -80 -65 -143 -144 -143h-130h-16h-17v676h17h16h97c79 0 144 -63 144 -143c0 -49 -24 -92 -63 -117zM130 642h-97v-219h101c59 3 107 49 107 109c0 61 -51 110 -111 110zM274 142v138c0 61 -48 107 -109 110h-31h-4h-97v-358h130
c60 0 111 49 111 110z" />
    <glyph glyph-name="Gamma" unicode="&#x393;" horiz-adv-x="313" 
d="M263 675v-34h-230v-642h-33v676v0h33h230z" />
    <glyph glyph-name="Epsilon" unicode="&#x395;" horiz-adv-x="313" 
d="M263 675v-34h-230v-255h189v-33h-189v-321h230v-33h-230h-33v0v676v0h33h230z" />
    <glyph glyph-name="Lambda" unicode="&#x39b;" horiz-adv-x="387" 
d="M303 -1l-135 621l-134 -621h-34l146 676h44l147 -676h-34z" />
    <glyph glyph-name="uni0394" unicode="&#x394;" horiz-adv-x="387" 
d="M303 0l-135 621l-134 -621h-34l146 676h44l147 -676h-34zM317 0v33h-298v-33h298z" />
    <glyph glyph-name="Zeta" unicode="&#x396;" horiz-adv-x="321" 
d="M271 675v-34l-238 -609h238v-33h-271v33v0l238 609h-238v34h271z" />
    <glyph glyph-name="Eta" unicode="&#x397;" horiz-adv-x="353" 
d="M250 386v289h33v-289v-33v-354h-33v354h-217v-354h-33v676h33v-289h217z" />
    <glyph glyph-name="Omicron" unicode="&#x39f;" horiz-adv-x="359" 
d="M145 -6c-80 0 -145 65 -145 145v395c0 80 65 145 145 145c79 0 144 -65 144 -145v-395c0 -80 -65 -145 -144 -145zM145 645c-61 0 -112 -51 -112 -111v-395c0 -61 51 -112 112 -112c60 0 111 51 111 112v395c0 60 -51 111 -111 111z" />
    <glyph glyph-name="Theta" unicode="&#x398;" horiz-adv-x="359" 
d="M145 -6c-80 0 -145 65 -145 145v395c0 80 65 145 145 145c79 0 144 -65 144 -145v-395c0 -80 -65 -145 -144 -145zM145 645c-61 0 -112 -51 -112 -111v-395c0 -61 51 -112 112 -112c60 0 111 51 111 112v395c0 60 -51 111 -111 111zM218 335v-33h-148v33h148z" />
    <glyph glyph-name="Iota" unicode="&#x399;" horiz-adv-x="103" 
d="M33 675v-676h-33v676h33z" />
    <glyph glyph-name="Kappa" unicode="&#x39a;" horiz-adv-x="352" 
d="M322 -1h-37l-175 335h-77v-335h-33v676h33v-307h77l160 307h37l-168 -324z" />
    <glyph glyph-name="Mu" unicode="&#x39c;" horiz-adv-x="471" 
d="M201 219l166 456h34v-676h-33v582l-167 -459l-168 459v-582h-33v676h34z" />
    <glyph glyph-name="Nu" unicode="&#x39d;" horiz-adv-x="348" 
d="M245 91v584h33v-676h-33l-212 584v-584h-33v676h33z" />
    <glyph glyph-name="Xi" unicode="&#x39e;" horiz-adv-x="359" 
d="M268 675v-33h-268v33h268zM268 33v-33h-268v33h268zM268 377v-33h-268v33h268z" />
    <glyph glyph-name="Pi" unicode="&#x3a0;" horiz-adv-x="353" 
d="M0 675h283v-676h-33v643h-217v-643h-33v676z" />
    <glyph glyph-name="Rho" unicode="&#x3a1;" horiz-adv-x="344" 
d="M33 675h99c79 0 142 -66 142 -143v-138c0 -76 -60 -138 -135 -143h-5h-4h-97v-252h-33v676h17h16zM241 394v138c0 59 -51 110 -111 110h-97v-358h99c61 0 109 51 109 110z" />
    <glyph glyph-name="Tau" unicode="&#x3a4;" horiz-adv-x="303" 
d="M128 675h135v-34h-135v-642h-33v642h-135v34h135h33z" />
    <glyph glyph-name="Upsilon" unicode="&#x3a5;" horiz-adv-x="327" 
d="M128 385l113 290h36l-131 -336l-1 -3v-337h-33v337l-1 3l-131 336h36z" />
    <glyph glyph-name="Chi" unicode="&#x3a7;" horiz-adv-x="351" 
d="M36 -1h-36l132 340l-130 336h35l113 -290l113 290h36l-131 -336l133 -340h-36l-115 294z" />
    <glyph glyph-name="lambda" unicode="&#x3bb;" horiz-adv-x="318" 
d="M269 -1l-107 436l-123 -436h-34l141 501l-52 216h34l175 -717h-34z" />
    <glyph glyph-name="uni03BC" unicode="&#x3bc;" 
d="M236 496h33v-247v-117v-129h-33v41c-25 -29 -61 -46 -101 -46s-76 17 -101 45v-266h-33v355v117v246v1h33v-1v-246v-117c0 -56 45 -101 101 -101s101 45 101 101v117v247z" />
    <glyph glyph-name="eta" unicode="&#x3b7;" 
d="M134 497c75 0 134 -59 134 -134v-117v-247h-33v247v117c0 56 -45 101 -101 101s-101 -45 -101 -101v-117v-247h-33v247v117v129h33v-41c25 29 61 46 101 46z" />
    <glyph glyph-name="nu" unicode="&#x3bd;" horiz-adv-x="327" 
d="M133 39l119 453h35l-130 -493h-13h-21h-13l-130 493h34z" />
    <glyph glyph-name="omicron" unicode="&#x3bf;" 
d="M134 -6c-75 0 -134 59 -134 134v235c0 75 59 134 134 134s134 -59 134 -134v-235c0 -75 -59 -134 -134 -134zM134 464c-56 0 -101 -45 -101 -101v-235c0 -56 45 -101 101 -101s101 45 101 101v235c0 56 -45 101 -101 101z" />
    <glyph glyph-name="rho" unicode="&#x3c1;" 
d="M133 497c75 0 134 -59 134 -134v-235c0 -75 -59 -134 -134 -134c-40 0 -76 17 -101 45v-261h-33v350v198v37c0 75 59 134 134 134zM234 128v235c0 56 -45 101 -101 101s-101 -45 -101 -101v-37v-198c0 -56 45 -101 101 -101s101 45 101 101z" />
    <glyph glyph-name="sigma1" unicode="&#x3c2;" 
d="M142 261c59 -29 126 -65 126 -133c0 -75 -59 -134 -134 -134s-134 59 -134 134h33c0 -56 45 -101 101 -101s101 45 101 101c0 49 -52 74 -108 103c-61 29 -127 64 -127 132c0 75 59 134 134 134s134 -59 134 -134h-33c0 56 -45 101 -101 101s-101 -45 -101 -101
c0 -48 53 -75 109 -102z" />
    <glyph glyph-name="sigma" unicode="&#x3c3;" 
d="M282 505v-33h-59c28 -24 45 -60 45 -101v-235c0 -75 -59 -134 -134 -134s-134 59 -134 134v235c0 75 59 134 134 134h148zM235 136v235c0 56 -45 101 -101 101s-101 -45 -101 -101v-235c0 -56 45 -101 101 -101s101 45 101 101z" />
    <glyph glyph-name="tau" unicode="&#x3c4;" horiz-adv-x="191" 
d="M33 459v-213v-118c0 -56 40 -101 88 -101v-33c-67 0 -121 59 -121 134v118v213v33h33h108v-33h-108z" />
    <glyph glyph-name="chi" unicode="&#x3c7;" horiz-adv-x="306" 
d="M17 -1h-37l124 251l-120 242h37l102 -204l101 204h37l-120 -242l125 -251h-38l-105 214z" />
    <glyph glyph-name="upsilon" unicode="&#x3c5;" horiz-adv-x="359" 
d="M236 491h33v-104v-17v-230c0 -80 -63 -145 -134 -145c-72 0 -135 65 -135 145v230v17v104h33v-104v-17v-230c0 -61 48 -112 102 -112s101 51 101 112v230v17v104z" />
    <glyph glyph-name="iota" unicode="&#x3b9;" horiz-adv-x="137" 
d="M67 0h-33h-34v34v460h34v-460h33v-34z" />
    <glyph glyph-name="kappa" unicode="&#x3ba;" horiz-adv-x="325" 
d="M112 282l173 -283h-39l-164 268h-49v-268h-33v493h33v-192h48l4 2l128 190h40z" />
    <glyph glyph-name="gamma" unicode="&#x3b3;" horiz-adv-x="327" 
d="M275 492h35l-137 -505v-209h-33v209l-137 505h34l119 -453z" />
    <glyph glyph-name="pi" unicode="&#x3c0;" horiz-adv-x="353" 
d="M0 492h268v-493h-33v460h-202v-460h-33v493z" />
    <glyph glyph-name="epsilon" unicode="&#x3b5;" 
d="M133 34c56 0 101 45 101 101h33c0 -75 -59 -134 -134 -134s-134 59 -134 134v235c0 75 59 134 134 134s134 -59 134 -134h-33c0 56 -45 101 -101 101s-101 -45 -101 -101v-91h135v-33h-135v-111c0 -56 45 -101 101 -101z" />
    <glyph glyph-name="beta" unicode="&#x3b2;" horiz-adv-x="400" 
d="M165 0c-7 0 -10 0 -11 1h-43v33h45c1 0 61 -6 101 31c27 24 40 61 40 110c0 92 -52 124 -101 157c-40 27 -78 51 -78 102c0 39 25 53 46 68c23 15 39 26 39 59c0 69 -68 85 -85 85c-13 0 -85 -16 -85 -85v-560h-33v560c0 51 25 78 48 94c24 17 51 24 70 24
c37 0 118 -30 118 -118c0 -52 -30 -71 -54 -87c-21 -13 -31 -21 -31 -40c0 -31 24 -47 63 -74c51 -35 116 -76 116 -185c0 -59 -17 -104 -51 -135c-40 -34 -89 -40 -114 -40z" />
    <glyph glyph-name="alpha" unicode="&#x3b1;" 
d="M269 35h33v-34h-33h-34v34v5c-24 -28 -60 -45 -101 -45c-75 0 -134 59 -134 134v235c0 75 59 134 134 134c41 0 77 -17 101 -45v42h34v-460zM134 28c56 0 101 45 101 101v235c0 56 -45 101 -101 101s-101 -45 -101 -101v-235c0 -56 45 -101 101 -101z" />
    <glyph glyph-name="theta" unicode="&#x3b8;" horiz-adv-x="359" 
d="M136 683c79 0 132 -65 132 -145v-395c0 -80 -53 -145 -132 -145c-76 0 -124 57 -132 130h-1v132h33v-117c0 -61 39 -112 100 -112c60 0 99 51 99 112v234c-27 -32 -55 -52 -99 -52c-80 0 -133 65 -133 144v69c0 80 53 145 133 145zM235 469v69c0 60 -39 111 -99 111
c-61 0 -100 -51 -100 -111v-69c0 -60 39 -111 100 -111c60 0 99 51 99 111z" />
    <glyph glyph-name="zeta" unicode="&#x3b6;" horiz-adv-x="169" 
d="M41 582v-555v-28v-89c0 -75 -54 -135 -121 -135v34c48 0 88 45 88 101v89v28v555c0 75 54 134 121 134v-33c-48 0 -88 -46 -88 -101z" />
    <glyph glyph-name="xi" unicode="&#x3be;" horiz-adv-x="169" 
d="M151 371h-108v-148h107v-29h-107v-165v-28v-89c0 -75 -54 -135 -121 -135v34c48 0 88 45 88 101v89v28v342v5v28v180c0 75 54 134 121 134v-33c-48 0 -88 -46 -88 -101v-180h108v-33z" />
    <glyph glyph-name="psi" unicode="&#x3c8;" horiz-adv-x="359" 
d="M235 491h33v-104v-17v-230c0 -73 -54 -135 -118 -143v-219h-33v219c-64 8 -118 71 -118 143v230v17v104h33v-104v-17v-230c0 -53 37 -102 85 -110v462h33v-462c48 8 85 57 85 110v230v17v104z" />
    <glyph glyph-name="omega" unicode="&#x3c9;" horiz-adv-x="437" 
d="M305 495h33v-371c-4 -80 -20 -125 -92 -125c-39 0 -62 16 -77 47c-15 -31 -38 -47 -77 -47c-68 0 -91 45 -91 125v371h33v-371c0 -61 7 -91 58 -91c53 0 61 51 61 111v162h33v-162c0 -60 8 -111 60 -111c54 0 59 30 59 91v371z" />
    <glyph glyph-name="mu" unicode="&#xb5;" 
d="M236 496h33v-247v-117v-129h-33v41c-25 -29 -61 -46 -101 -46s-76 17 -101 45v-266h-33v355v117v246v1h33v-1v-246v-117c0 -56 45 -101 101 -101s101 45 101 101v117v247z" />
    <glyph glyph-name="phi" unicode="&#x3c6;" 
d="M135 497c75 0 134 -59 134 -134v-235c0 -69 -50 -125 -117 -133v-217h-33v217c-67 8 -118 64 -118 133v235c0 75 59 134 134 134zM34 363v-235c0 -51 37 -92 85 -100v435c-48 -8 -85 -49 -85 -100zM236 128v235c0 51 -36 92 -84 100v-435c48 8 84 49 84 100z" />
    <glyph glyph-name="Phi" unicode="&#x3a6;" horiz-adv-x="359" 
d="M146 680c79 0 144 -65 144 -145v-315c0 -74 -57 -136 -129 -144v-76h-33v77c-72 8 -127 70 -127 143v315c0 80 65 145 145 145zM34 535v-315c0 -55 41 -101 94 -110v535c-53 -9 -94 -55 -94 -110zM257 220v315c0 56 -43 102 -96 110v-535c53 8 96 54 96 110z" />
    <glyph glyph-name="Psi" unicode="&#x3a8;" horiz-adv-x="359" 
d="M255 676h33v-457c0 -76 -57 -136 -129 -144v-76h-33v76c-72 8 -127 70 -127 144v457h33v-457c0 -56 41 -102 94 -111v567h33v-567c53 8 96 55 96 111v457z" />
    <glyph glyph-name="delta" unicode="&#x3b4;" 
d="M250 435l1 -1c11 -20 18 -42 18 -69v-235c0 -75 -59 -134 -134 -134s-134 59 -134 134v235c0 75 59 134 134 134c9 0 18 1 27 -2l-167 146v33h268v-33h-217l186 -185c7 -7 13 -14 18 -23zM236 130v235c0 19 -5 37 -14 52l-14 18c-19 19 -44 31 -73 31
c-56 0 -101 -45 -101 -101v-235c0 -56 45 -101 101 -101s101 45 101 101z" />
    <glyph glyph-name="upsilondieresistonos" unicode="&#x3b0;" horiz-adv-x="359" 
d="M236 491h33v-104v-17v-230c0 -80 -63 -145 -134 -145c-72 0 -135 65 -135 145v230v17v104h33v-104v-17v-230c0 -61 48 -112 102 -112s101 51 101 112v230v17v104zM101 575c0 -20 -16 -36 -36 -36s-36 16 -36 36s16 36 36 36s36 -16 36 -36zM231 575
c0 -20 -16 -36 -36 -36s-36 16 -36 36s16 36 36 36s36 -16 36 -36zM253 801l-123 -135l-24 22l123 135z" />
    <glyph glyph-name="iotatonos" unicode="&#x3af;" horiz-adv-x="137" 
d="M67 0h-33h-34v34v460h34v-460h33v-34zM113 723l-123 -135l-24 22l123 135z" />
    <glyph glyph-name="etatonos" unicode="&#x3ae;" 
d="M134 497c75 0 134 -59 134 -134v-117v-247h-33v247v117c0 56 -45 101 -101 101s-101 -45 -101 -101v-117v-247h-33v247v117v129h33v-41c25 29 61 46 101 46zM213 723l-123 -135l-24 22l123 135z" />
    <glyph glyph-name="epsilontonos" unicode="&#x3ad;" 
d="M133 34c56 0 101 45 101 101h33c0 -75 -59 -134 -134 -134s-134 59 -134 134v235c0 75 59 134 134 134s134 -59 134 -134h-33c0 56 -45 101 -101 101s-101 -45 -101 -101v-91h135v-33h-135v-111c0 -56 45 -101 101 -101zM213 723l-123 -135l-24 22l123 135z" />
    <glyph glyph-name="alphatonos" unicode="&#x3ac;" 
d="M269 35h33v-34h-33h-34v34v5c-24 -28 -60 -45 -101 -45c-75 0 -134 59 -134 134v235c0 75 59 134 134 134c41 0 77 -17 101 -45v42h34v-460zM134 28c56 0 101 45 101 101v235c0 56 -45 101 -101 101s-101 -45 -101 -101v-235c0 -56 45 -101 101 -101zM213 723l-123 -135
l-24 22l123 135z" />
    <glyph glyph-name="omegatonos" unicode="&#x3ce;" horiz-adv-x="437" 
d="M305 495h33v-371c-4 -80 -20 -125 -92 -125c-39 0 -62 16 -77 47c-15 -31 -38 -47 -77 -47c-68 0 -91 45 -91 125v371h33v-371c0 -61 7 -91 58 -91c53 0 61 51 61 111v162h33v-162c0 -60 8 -111 60 -111c54 0 59 30 59 91v371zM273 723l-123 -135l-24 22l123 135z" />
    <glyph glyph-name="upsilontonos" unicode="&#x3cd;" horiz-adv-x="359" 
d="M236 491h33v-104v-17v-230c0 -80 -63 -145 -134 -145c-72 0 -135 65 -135 145v230v17v104h33v-104v-17v-230c0 -61 48 -112 102 -112s101 51 101 112v230v17v104zM213 723l-123 -135l-24 22l123 135z" />
    <glyph glyph-name="omicrontonos" unicode="&#x3cc;" 
d="M134 -6c-75 0 -134 59 -134 134v235c0 75 59 134 134 134s134 -59 134 -134v-235c0 -75 -59 -134 -134 -134zM134 464c-56 0 -101 -45 -101 -101v-235c0 -56 45 -101 101 -101s101 45 101 101v235c0 56 -45 101 -101 101zM213 723l-123 -135l-24 22l123 135z" />
    <glyph glyph-name="iotadieresis" unicode="&#x3ca;" horiz-adv-x="137" 
d="M67 0h-33h-34v34v460h34v-460h33v-34zM-10 575c0 -20 -16 -36 -36 -36s-36 16 -36 36s16 36 36 36s36 -16 36 -36zM120 575c0 -20 -16 -36 -36 -36s-36 16 -36 36s16 36 36 36s36 -16 36 -36z" />
    <glyph glyph-name="upsilondieresis" unicode="&#x3cb;" horiz-adv-x="359" 
d="M236 491h33v-104v-17v-230c0 -80 -63 -145 -134 -145c-72 0 -135 65 -135 145v230v17v104h33v-104v-17v-230c0 -61 48 -112 102 -112s101 51 101 112v230v17v104zM101 575c0 -20 -16 -36 -36 -36s-36 16 -36 36s16 36 36 36s36 -16 36 -36zM231 575
c0 -20 -16 -36 -36 -36s-36 16 -36 36s16 36 36 36s36 -16 36 -36z" />
    <glyph glyph-name="iotadieresistonos" unicode="&#x390;" horiz-adv-x="137" 
d="M67 0h-33h-34v34v460h34v-460h33v-34zM-10 575c0 -20 -16 -36 -36 -36s-36 16 -36 36s16 36 36 36s36 -16 36 -36zM120 575c0 -20 -16 -36 -36 -36s-36 16 -36 36s16 36 36 36s36 -16 36 -36zM143 793l-123 -135l-24 22l123 135z" />
    <glyph glyph-name="Iotadieresis" unicode="&#x3aa;" horiz-adv-x="103" 
d="M33 675v-676h-33v676h33zM-42 797c-15 0 -25 10 -25 25s10 25 25 25s25 -10 25 -25s-10 -25 -25 -25zM82 797c-15 0 -25 10 -25 25s10 25 25 25s25 -10 25 -25s-10 -25 -25 -25z" />
    <glyph glyph-name="Upsilondieresis" unicode="&#x3ab;" horiz-adv-x="327" 
d="M128 385l113 290h36l-131 -336l-1 -3v-337h-33v337l-1 3l-131 336h36zM68 797c-15 0 -25 10 -25 25s10 25 25 25s25 -10 25 -25s-10 -25 -25 -25zM192 797c-15 0 -25 10 -25 25s10 25 25 25s25 -10 25 -25s-10 -25 -25 -25z" />
    <glyph glyph-name="Omicrontonos" unicode="&#x38c;" horiz-adv-x="359" 
d="M145 -6c-80 0 -145 65 -145 145v395c0 80 65 145 145 145c79 0 144 -65 144 -145v-395c0 -80 -65 -145 -144 -145zM145 645c-61 0 -112 -51 -112 -111v-395c0 -61 51 -112 112 -112c60 0 111 51 111 112v395c0 60 -51 111 -111 111zM6 663l-83 -95l-24 22l83 95z" />
    <glyph glyph-name="Iotatonos" unicode="&#x38a;" horiz-adv-x="103" 
d="M33 675v-676h-33v676h33zM-44 663l-83 -95l-24 22l83 95z" />
    <glyph glyph-name="Etatonos" unicode="&#x389;" horiz-adv-x="353" 
d="M250 386v289h33v-289v-33v-354h-33v354h-217v-354h-33v676h33v-289h217zM-44 663l-83 -95l-24 22l83 95z" />
    <glyph glyph-name="Epsilontonos" unicode="&#x388;" horiz-adv-x="313" 
d="M263 675v-34h-230v-255h189v-33h-189v-321h230v-33h-230h-33v0v676v0h33h230zM-44 663l-83 -95l-24 22l83 95z" />
    <glyph glyph-name="Alphatonos" unicode="&#x386;" horiz-adv-x="376" 
d="M336 -1h-34l-47 212h-194l-47 -212h-34l150 676h56zM158 648l-90 -404h180zM76 663l-83 -95l-24 22l83 95z" />
    <glyph glyph-name="Upsilontonos" unicode="&#x38e;" horiz-adv-x="327" 
d="M128 385l113 290h36l-131 -336l-1 -3v-337h-33v337l-1 3l-131 336h36zM-64 663l-83 -95l-24 22l83 95z" />
    <glyph glyph-name="uni03A9" unicode="&#x3a9;" horiz-adv-x="359" 
d="M289 538v-377c0 -47 -20 -86 -55 -113v-18h55v-33h-55h-33v31v37h1c32 20 54 56 54 96v377c0 60 -51 111 -111 111c-61 0 -112 -51 -112 -111v-377c0 -40 22 -76 54 -96v-68h-33h-54v33h54v18c-33 27 -54 66 -54 113v377c0 80 65 145 145 145c79 0 144 -65 144 -145z" />
    <glyph glyph-name="Omegatonos" unicode="&#x38f;" horiz-adv-x="359" 
d="M289 161c0 -47 -20 -86 -55 -113v-18h55v-33h-55h-33v31v37h1c32 20 54 56 54 96v377c0 60 -51 111 -111 111c-61 0 -112 -51 -112 -111v-377c0 -40 22 -76 54 -96v-68h-33h-54v33h54v18c-33 27 -54 66 -54 113v377c0 80 65 145 145 145c79 0 144 -65 144 -145v-377z
M-14 663l-83 -95l-24 22l83 95z" />
    <glyph glyph-name="Sigma" unicode="&#x3a3;" horiz-adv-x="321" 
d="M0 676h271v-34h-238l118 -303v0l-119 -305h238v-33h-271v33l119 305v0l-118 303v34z" />
    <glyph glyph-name="uni00AD" unicode="&#xad;" 
d="M268 303h-268v33h268v-33z" />
    <glyph glyph-name="brokenbar" unicode="&#xa6;" horiz-adv-x="103" 
d="M33 795v-354h-33v354h33zM33 300v-359h-33v359h33z" />
    <glyph glyph-name="dieresistonos" unicode="&#x385;" horiz-adv-x="137" 
d="M-10 575c0 -20 -16 -36 -36 -36s-36 16 -36 36s16 36 36 36s36 -16 36 -36zM120 575c0 -20 -16 -36 -36 -36s-36 16 -36 36s16 36 36 36s36 -16 36 -36zM143 793l-123 -135l-24 22l123 135z" />
    <glyph glyph-name="tonos" unicode="&#x384;" horiz-adv-x="137" 
d="M143 793l-123 -135l-24 22l123 135z" />
    <glyph glyph-name="plusminus" unicode="&#xb1;" horiz-adv-x="417" 
d="M190 415h157v-33h-157v-157h-33v157h-157v33h157v157h33v-157zM314 145v-33h-272v33h272z" />
    <glyph glyph-name="quotesinglbase" unicode="&#x201a;" horiz-adv-x="143" 
d="M72 30v-3c0 -15 -1 -60 -42 -104l-19 18c19 19 27 37 31 53c-3 0 -3 -1 -6 -1c-20 0 -36 17 -36 37c0 19 16 36 36 36s36 -17 36 -36z" />
    <glyph glyph-name="florin" unicode="&#x192;" horiz-adv-x="169" 
d="M149 492v-33h-108v-432v-28v-89c0 -75 -54 -135 -121 -135v34c48 0 88 45 88 101v89v28v432v5v28v90c0 75 54 134 121 134v-33c-48 0 -88 -46 -88 -101v-90h108z" />
    <glyph glyph-name="ellipsis" unicode="&#x2026;" horiz-adv-x="332" 
d="M72 29v-2c0 -15 -1 -60 -42 -104l-19 18c19 19 27 37 31 53c-3 0 -3 -1 -6 -1c-20 0 -36 17 -36 36c0 20 16 37 36 37s36 -17 36 -37zM183 29v-2c0 -13 -1 -62 -43 -104l-18 18c17 19 26 37 31 53c-3 0 -3 -1 -6 -1c-20 0 -36 17 -36 36c0 20 16 37 36 37s36 -17 36 -37z
M290 29v-2c0 -13 -1 -62 -43 -104l-18 18c17 19 26 37 31 53c-3 0 -3 -1 -6 -1c-20 0 -36 17 -36 36c0 20 16 37 36 37s36 -17 36 -37z" />
    <glyph glyph-name="endash" unicode="&#x2013;" horiz-adv-x="318" 
d="M218 335v-33h-218v33h218z" />
    <glyph glyph-name="emdash" unicode="&#x2014;" horiz-adv-x="464" 
d="M388 335v-33h-388v33h388z" />
    </font>
</defs>
</svg>
