<?xml version="1.0" standalone="no"?>
<!DOCTYPE svg PUBLIC "-//W3C//DTD SVG 1.1//EN" "http://www.w3.org/Graphics/SVG/1.1/DTD/svg11.dtd">
<svg xmlns="http://www.w3.org/2000/svg">
<defs >
<font id="GothicA1" horiz-adv-x="964" ><font-face
    font-family="Gothic A1"
    units-per-em="1024"
    panose-1="0 0 0 0 0 0 0 0 0 0"
    ascent="817"
    descent="-207"
    alphabetic="0" />
<glyph unicode=" " glyph-name="space" horiz-adv-x="250" />
<glyph unicode="!" glyph-name="exclam" horiz-adv-x="316" d="M95 -10V105H221V-10H95ZM194 208H123L114 750H203L194 208Z" />
<glyph unicode="&quot;" glyph-name="quotedbl" horiz-adv-x="497" d="M273 547L355 840H466L336 547H273ZM68 547L150 840H261L131 547H68Z" />
<glyph unicode="#" glyph-name="numbersign" horiz-adv-x="722" d="M49 206V266H179L206 462H81V521H214L241 724H311L284 521H482L509 724H579L552 521H674V462H544L519 266H642V206H511L484 2H411L439 206H243L216 2H143L171 206H49ZM251 266H447L474 462H276L251 266Z" />
<glyph unicode="$" glyph-name="dollar" horiz-adv-x="598" d="M63 137L123 167Q153 121 202 94T302 66Q366 66 408 97T451 193Q451 212 446 228T435 257T413 281T388 301T354 321T318 338T275 355T231 374Q157 406 120 449T82 563Q82 629 130 682T264 745V829H337V744Q392
741 441 706T510 628L450 599Q391 683 300 683Q236 683 199 649T161 562Q161 531 172 508T214 465T267 435T343 403Q384 387 411 372T469 333T515 276T531 200Q531 112 476 61T337 1V-77H264V3Q206 7 150 43T63 137Z" />
<glyph unicode="%" glyph-name="percent" horiz-adv-x="991" d="M537 163Q537 243 591 293T728 343Q811 343 865 293T919 163Q919 82 865 32T728 -18Q646 -18 592 32T537 163ZM611 163Q611 109 645 77T728 44Q776 44 810 77T845 163Q845 217 812 249T728 281Q679
281 645 249T611 163ZM72 587Q72 667 126 717T263 767Q346 767 400 717T454 587Q454 507 400 457T263 407Q181 407 127 457T72 587ZM146 587Q146 533 180 501T263 468Q311 468 345 501T380 587Q380 641 347 673T263 706Q215 706 181 674T146 587ZM186 0L723 749H804L266
0H186Z" />
<glyph unicode="&amp;" glyph-name="ampersand" horiz-adv-x="653" d="M141 189Q141 124 183 86T293 48Q384 48 458 137L273 388Q214 347 178 300T141 189ZM61 188Q61 336 232 444Q229 449 222 458Q197 493 187 510T167 552T158 605Q158 669 206 714T342 759Q475
759 537 633L476 606Q458 641 423 667T347 694Q296 694 267 668T238 602Q238 561 297 473T498 200Q529 262 544 346L616 333Q599 225 548 137L653 0H561L502 77Q414 -18 290 -18Q181 -18 121 41T61 188Z" />
<glyph unicode="&apos;" glyph-name="quotesingle" horiz-adv-x="307" d="M78 547L160 840H271L141 547H78Z" />
<glyph unicode="(" glyph-name="parenleft" horiz-adv-x="454" d="M153 359Q153 648 327 868L383 837Q352 789 341 771T303 700T265 605T242 498T231 359Q231 271 243 198T283 63T329 -32T383 -119L327 -150Q250 -50 202 70T153 359Z" />
<glyph unicode=")" glyph-name="parenright" horiz-adv-x="454" d="M71 -119Q146 -9 184 99T223 359Q223 445 211 517T173 650T127 747T71 837L127 868Q301 647 301 359Q301 193 253 72T127 -150L71 -119Z" />
<glyph unicode="*" glyph-name="asterisk" horiz-adv-x="569" d="M24 425L52 489L254 411L246 611H322L314 411L516 489L544 425L334 351L490 178L432 135L284 318L136 135L78 178L234 351L24 425Z" />
<glyph unicode="+" glyph-name="plus" horiz-adv-x="569" d="M28 337V405H246V620H322V405H540V337H322V114H246V337H28Z" />
<glyph unicode="," glyph-name="comma" horiz-adv-x="352" d="M50 -174L132 119H243L113 -174H50Z" />
<glyph unicode="-" glyph-name="hyphen" horiz-adv-x="569" d="M48 337V405H520V337H48Z" />
<glyph unicode="." glyph-name="period" horiz-adv-x="352" d="M113 0V119H239V0H113Z" />
<glyph unicode="/" glyph-name="slash" horiz-adv-x="344" d="M-13 -57L275 796H357L69 -57H-13Z" />
<glyph unicode="0" glyph-name="zero" horiz-adv-x="569" d="M132 374Q132 224 170 136T286 48Q328 48 358 74T404 148T428 250T436 374Q436 524 399 613T284 702Q208 702 170 614T132 374ZM50 374Q50 578 117 672T284 767Q394 767 456 666T518 374Q518 260 495
174T418 35T286 -18Q185 -18 118 79T50 374Z" />
<glyph unicode="1" glyph-name="one" horiz-adv-x="569" d="M103 573V634H133Q219 634 250 660T281 735V758H349V-10H267V573H103Z" />
<glyph unicode="2" glyph-name="two" horiz-adv-x="569" d="M52 580Q74 667 131 717T282 767Q378 767 439 712T500 560Q500 448 384 337Q250 209 215 168Q170 115 152 66H500V0H56Q56 38 72 79T108 151T171 228T238 298T320 375Q418 468 418 561Q418 628 381 665T280
702Q218 702 178 664T122 561L52 580Z" />
<glyph unicode="3" glyph-name="three" horiz-adv-x="569" d="M38 129L104 155Q160 48 272 48Q342 48 389 89T436 208Q436 281 384 321T258 362Q221 362 198 360V426Q219 424 254 424Q320 424 363 462T406 567Q406 626 368 664T268 702Q172 702 124 588L58 610Q81
679 135 723T272 767Q371 767 429 712T488 574Q488 509 453 463T368 398Q428 382 473 334T518 208Q518 100 451 41T272 -18Q185 -18 125 24T38 129Z" />
<glyph unicode="4" glyph-name="four" horiz-adv-x="569" d="M24 233L369 759H441V235H549V169H441V-10H361V169H24V233ZM102 235H361V521Q361 584 365 641H361L294 533L102 235Z" />
<glyph unicode="5" glyph-name="five" horiz-adv-x="569" d="M48 121L114 146Q136 101 176 75T266 48Q341 48 382 97T424 224Q424 303 379 352T262 402Q180 402 118 335L70 354L108 749H462V683H182L154 426Q213 467 290 467Q385 467 445 402T506 226Q506 124
445 53T266 -18Q114 -18 48 121Z" />
<glyph unicode="6" glyph-name="six" horiz-adv-x="569" d="M138 233Q138 152 180 100T292 48Q358 48 401 99T444 233Q444 317 401 368T290 420Q225 420 182 366T138 233ZM52 334Q52 399 60 459T89 576T139 674T215 741T318 767Q450 767 516 633L452 610Q400 702
318 702Q275 702 242 680T190 619T159 542T142 460Q136 420 132 370Q152 422 197 454T302 486Q400 486 462 414T524 234Q524 126 463 54T296 -18Q185 -18 120 61Q52 143 52 334Z" />
<glyph unicode="7" glyph-name="seven" horiz-adv-x="569" d="M42 681V749H504V694Q307 371 222 -10H140Q181 188 248 350T412 681H42Z" />
<glyph unicode="8" glyph-name="eight" horiz-adv-x="569" d="M148 566Q148 505 187 468T284 431Q342 431 381 469T420 566Q420 625 382 663T284 702Q223 702 186 663T148 566ZM42 200Q42 280 84 330T186 400Q66 450 66 570Q66 653 127 710T284 767Q377 767 439
711T502 570Q502 504 467 461T382 400Q444 381 486 330T528 199Q528 104 460 43T284 -18Q181 -18 112 41T42 200ZM124 204Q124 136 169 92T284 48Q353 48 399 92T446 204Q446 272 399 319T284 366Q217 366 171 320T124 204Z" />
<glyph unicode="9" glyph-name="nine" horiz-adv-x="569" d="M122 517Q122 434 167 383T274 332Q338 332 382 384T426 516Q426 594 384 648T274 702Q210 702 166 651T122 517ZM48 120L114 143Q135 101 171 75T254 48Q303 48 338 74T393 147T422 249T432 371Q413
329 369 298T264 267Q173 267 108 334T42 516Q42 627 108 697T274 767Q359 767 417 713T496 572Q510 510 510 412Q510 315 496 239T452 104T372 14T252 -18Q179 -18 126 23T48 120Z" />
<glyph unicode=":" glyph-name="colon" horiz-adv-x="352" d="M113 84V203H239V84H113ZM113 480V599H239V480H113Z" />
<glyph unicode=";" glyph-name="semicolon" horiz-adv-x="352" d="M50 -90L132 203H243L113 -90H50ZM113 480V599H239V480H113Z" />
<glyph unicode="&lt;" glyph-name="less" horiz-adv-x="569" d="M54 327V398L476 712L518 654L130 362L518 70L476 12L54 327Z" />
<glyph unicode="=" glyph-name="equal" horiz-adv-x="569" d="M48 238V306H520V238H48ZM48 436V504H520V436H48Z" />
<glyph unicode="&gt;" glyph-name="greater" horiz-adv-x="569" d="M92 12L52 70L438 362L52 654L92 712L516 398V327L92 12Z" />
<glyph unicode="?" glyph-name="question" horiz-adv-x="564" d="M64 604Q90 678 148 722T282 767Q377 767 433 712T490 565Q490 519 472 482T427 419T374 368T329 308T310 228V201H230V233Q230 282 248 321T293 388T345 439T389 496T408 567Q408 627 375 663T283
700Q183 700 134 580L64 604ZM207 -10V105H333V-10H207Z" />
<glyph unicode="@" glyph-name="at" horiz-adv-x="963" d="M59 352Q59 539 182 657T503 776Q681 776 792 673T904 405Q904 330 887 273T840 183T779 135T712 119Q667 119 634 150T597 229H596Q580 188 538 154T439 120Q367 120 319 174T271 318Q271 438 333 507T483
576Q529 576 558 556T601 511L605 567H666L652 280Q650 231 668 205T717 179Q769 179 802 237T835 400Q835 542 745 630T502 718Q339 718 234 617T129 352Q129 183 229 85T490 -13Q608 -13 713 18L726 -36Q619 -71 490 -71Q294 -71 177 47T59 352ZM344 319Q344
259 372 221T447 183Q470 183 492 193T538 227T575 296T589 406Q589 451 564 484T486 517Q432 517 388 464T344 319Z" />
<glyph unicode="A" glyph-name="A" horiz-adv-x="650" d="M184 280H466L378 532Q370 555 353 605T328 676H322Q280 553 273 532L184 280ZM-4 0L276 749H374L654 0H566L490 216H160L84 0H-4Z" />
<glyph unicode="B" glyph-name="B" horiz-adv-x="680" d="M104 0V749H380Q489 749 545 697T602 557Q602 497 572 456T494 393Q551 376 590 327T630 209Q630 123 574 62T416 0H104ZM184 68H396Q461 68 504 105T548 208Q548 270 506 311T392 352H184V68ZM184 419H366Q433
419 476 452T520 551Q520 609 485 645T370 681H184V419Z" />
<glyph unicode="C" glyph-name="C" horiz-adv-x="662" d="M52 374Q52 557 141 662T372 767Q460 767 521 719T614 603L546 579Q479 699 370 699Q262 699 198 611T134 374Q134 224 199 138T370 51Q437 51 487 88T562 181L634 158Q600 85 535 34T372 -18Q231 -18
142 86T52 374Z" />
<glyph unicode="D" glyph-name="D" horiz-adv-x="701" d="M104 0V749H306Q468 749 561 654T654 374Q654 199 564 100T304 0H104ZM184 68H292Q422 68 497 141T572 374Q572 535 497 608T294 681H184V68Z" />
<glyph unicode="E" glyph-name="E" horiz-adv-x="620" d="M104 0V749H572V681H184V421H534V354H184V68H580V0H104Z" />
<glyph unicode="F" glyph-name="F" horiz-adv-x="572" d="M104 0V749H558V681H184V411H520V344H184V0H104Z" />
<glyph unicode="G" glyph-name="G" horiz-adv-x="726" d="M52 374Q52 548 139 657T378 767Q429 767 473 752T546 710T595 660T628 608L560 584Q489 699 378 699Q263 699 199 610T134 374Q134 222 200 137T374 51Q472 51 525 115T578 266V336H366V404H656V0H598L592
110Q533 -18 372 -18Q229 -18 141 87T52 374Z" />
<glyph unicode="H" glyph-name="H" horiz-adv-x="736" d="M104 0V749H184V419H552V749H632V0H552V352H184V0H104Z" />
<glyph unicode="I" glyph-name="I" horiz-adv-x="287" d="M104 0V749H184V0H104Z" />
<glyph unicode="J" glyph-name="J" horiz-adv-x="506" d="M12 120L84 147Q98 102 129 77T204 51Q322 51 322 218V749H402V205Q402 95 352 39T206 -18Q57 -18 12 120Z" />
<glyph unicode="K" glyph-name="K" horiz-adv-x="649" d="M104 0V749H184V353H186L526 749H632L348 425L648 0H548L296 367L184 239V0H104Z" />
<glyph unicode="L" glyph-name="L" horiz-adv-x="548" d="M104 0V749H184V68H540V0H104Z" />
<glyph unicode="M" glyph-name="M" horiz-adv-x="893" d="M104 0V749H208L372 346Q388 304 415 232T444 156H448Q454 171 521 346L684 749H790V0H710V423Q710 504 720 650H716L678 550L482 56H412L216 550L176 650H172Q184 489 184 423V0H104Z" />
<glyph unicode="N" glyph-name="N" horiz-adv-x="740" d="M104 0V749H196L472 271L562 113H568Q556 206 556 325V749H636V0H544L267 481L178 635H174Q184 535 184 424V0H104Z" />
<glyph unicode="O" glyph-name="O" horiz-adv-x="726" d="M52 374Q52 550 137 658T364 767Q507 767 590 659T674 373Q674 193 590 88T364 -18Q222 -18 137 88T52 374ZM134 374Q134 226 196 139T364 51Q468 51 530 137T592 373Q592 521 532 610T364 699Q258 699
196 611T134 374Z" />
<glyph unicode="P" glyph-name="P" horiz-adv-x="662" d="M104 0V749H386Q495 749 558 689T622 530Q622 428 557 369T386 310H184V0H104ZM184 377H374Q453 377 496 415T540 530Q540 604 497 642T372 681H184V377Z" />
<glyph unicode="Q" glyph-name="Q" horiz-adv-x="726" d="M52 373Q52 552 137 659T364 767Q506 767 590 659T674 373Q674 197 591 90T364 -18Q221 -18 137 89T52 373ZM134 373Q134 225 196 138T364 51Q469 51 530 137T592 373Q592 527 530 613T364 699Q259 699
197 612T134 373ZM348 228L400 275L674 -5L622 -51L348 228Z" />
<glyph unicode="R" glyph-name="R" horiz-adv-x="676" d="M184 392H386Q461 392 501 432T542 538Q542 602 500 641T378 681H184V392ZM104 0V749H396Q506 749 565 690T624 543Q624 464 584 415T496 353Q538 331 557 299T588 210Q601 154 606 134T626 75T662 0H572Q555
32 542 68T522 128T504 204Q491 260 465 292T380 324H184V0H104Z" />
<glyph unicode="S" glyph-name="S" horiz-adv-x="621" d="M40 141L114 167Q181 51 322 51Q400 51 449 89T498 193Q498 226 484 251T440 296T383 326T312 352Q276 364 261 369T214 387T166 410T127 437T94 473T75 516T66 571Q66 660 134 713T316 767Q403 767 467
727T560 627L492 603Q433 699 314 699Q236 699 192 664T148 571Q148 545 160 523T186 487T233 458T284 436T345 415Q355 412 360 410Q409 394 442 379T510 339T562 279T580 196Q580 95 510 39T320 -18Q218 -18 147 25T40 141Z" />
<glyph unicode="T" glyph-name="T" horiz-adv-x="558" d="M12 681V749H548V681H320V0H240V681H12Z" />
<glyph unicode="U" glyph-name="U" horiz-adv-x="733" d="M102 271V749H182V273Q182 161 233 106T366 51Q449 51 500 107T552 273V749H632V271Q632 135 563 59T366 -18Q241 -18 172 57T102 271Z" />
<glyph unicode="V" glyph-name="V" horiz-adv-x="597" d="M-2 749H86L249 234Q257 208 272 159T296 79H300Q309 110 324 158T347 234L512 749H600L348 0H250L-2 749Z" />
<glyph unicode="W" glyph-name="W" horiz-adv-x="867" d="M11 749H99L205 243Q224 136 231 90H237Q262 210 269 243L390 749H476L599 243Q613 180 631 90H635Q636 100 662 243L769 749H857L681 0H587L466 500Q439 631 436 647H432Q427 620 415 567T400 500L281
0H187L11 749Z" />
<glyph unicode="X" glyph-name="X" horiz-adv-x="589" d="M-2 0L244 385L10 749H110L220 568Q234 545 260 500T292 446H296Q309 469 334 510T370 568L480 749H580L344 385L592 0H494L376 188Q362 211 333 259T296 321H292Q251 250 213 188L96 0H-2Z" />
<glyph unicode="Y" glyph-name="Y" horiz-adv-x="603" d="M-4 749H92L221 520Q266 440 300 379H302Q317 406 348 460T382 520L510 749H606L342 308V0H262V308L-4 749Z" />
<glyph unicode="Z" glyph-name="Z" horiz-adv-x="620" d="M46 59L468 681H78V749H566V689L142 68H576V0H46V59Z" />
<glyph unicode="[" glyph-name="bracketleft" horiz-adv-x="454" d="M150 -130V848H360V784H228V-67H360V-130H150Z" />
<glyph unicode="\" glyph-name="backslash" horiz-adv-x="326" d="M-13 796H67L341 -57H261L-13 796Z" />
<glyph unicode="]" glyph-name="bracketright" horiz-adv-x="454" d="M94 -67H226V784H94V848H304V-130H94V-67Z" />
<glyph unicode="^" glyph-name="asciicircum" horiz-adv-x="507" d="M16 486L216 823H291L491 486H410L289 699L254 761L253 760L217 698L97 486H16Z" />
<glyph unicode="_" glyph-name="underscore" horiz-adv-x="459" d="M6 -17H455V-80H6V-17Z" />
<glyph unicode="`" glyph-name="grave" horiz-adv-x="307" d="M166 547L36 840H147L229 547H166Z" />
<glyph unicode="a" glyph-name="a" horiz-adv-x="563" d="M120 138Q120 100 152 74T240 47Q311 47 361 93T412 210V285Q368 274 272 259Q194 245 157 216T120 138ZM42 132Q42 282 274 318Q378 335 412 346V377Q412 427 376 460T274 493Q226 493 182 471T106 410L56
452Q96 498 152 527T272 556Q488 556 488 345V0H414V88Q398 45 348 14T230 -18Q141 -18 92 24T42 132Z" />
<glyph unicode="b" glyph-name="b" horiz-adv-x="596" d="M86 0V777H162V442Q176 484 221 520T326 556Q426 556 489 480T552 270Q552 196 532 139T478 48T406 -1T326 -18Q269 -18 225 15T162 96V0H86ZM160 270Q160 168 205 108T316 47Q385 47 429 106T474 270Q474
371 430 431T316 491Q251 491 206 431T160 270Z" />
<glyph unicode="c" glyph-name="c" horiz-adv-x="514" d="M44 269Q44 397 109 476T284 556Q356 556 407 515T476 416L410 397Q395 437 362 464T284 491Q210 491 166 428T122 269Q122 167 168 107T284 47Q331 47 369 77T424 148L490 127Q469 67 414 25T284 -18Q177
-18 111 60T44 269Z" />
<glyph unicode="d" glyph-name="d" horiz-adv-x="596" d="M44 270Q44 403 108 479T270 556Q329 556 372 522T434 444V777H510V0H436V97Q415 47 372 15T270 -18Q229 -18 191 -2T119 47T65 137T44 270ZM122 270Q122 169 166 108T280 47Q345 47 390 107T436 270Q436
371 391 431T280 491Q209 491 166 431T122 270Z" />
<glyph unicode="e" glyph-name="e" horiz-adv-x="566" d="M44 273Q44 399 112 477T288 556Q398 556 461 480T524 284Q524 270 522 244H122Q122 163 167 105T292 47Q344 47 384 71T446 137L512 117Q487 58 431 20T292 -18Q180 -18 112 62T44 273ZM124 303H446Q446
382 403 436T288 491Q215 491 171 435T124 303Z" />
<glyph unicode="f" glyph-name="f" horiz-adv-x="342" d="M24 473V538H116V621Q116 700 156 738T266 777H336V713H276Q194 713 194 613V538H322V473H194V0H116V473H24Z" />
<glyph unicode="g" glyph-name="g" horiz-adv-x="583" d="M122 279Q122 184 164 126T274 67Q343 67 383 123T424 280Q424 378 383 434T276 491Q206 491 164 432T122 279ZM44 278Q44 403 106 479T266 556Q328 556 367 524T424 450V538H500V63Q500 -90 446 -164T272
-239Q143 -239 72 -141L126 -106Q188 -176 274 -176Q345 -176 384 -121T424 28V105Q403 60 364 31T268 2Q166 2 105 79T44 278Z" />
<glyph unicode="h" glyph-name="h" horiz-adv-x="579" d="M86 0V777H162V451H164Q184 494 228 525T330 556Q504 556 504 348V0H428V335Q428 491 316 491Q254 491 208 440T162 319V0H86Z" />
<glyph unicode="i" glyph-name="i" horiz-adv-x="275" d="M88 659V760H186V659H88ZM100 0V538H176V0H100Z" />
<glyph unicode="j" glyph-name="j" horiz-adv-x="280" d="M92 659V760H192V659H92ZM-10 -163H14Q104 -163 104 -39V538H180V-43Q180 -134 140 -181T26 -228H-10V-163Z" />
<glyph unicode="k" glyph-name="k" horiz-adv-x="518" d="M88 0V777H166V268L400 538H502L310 323L524 0H430L260 269L166 164V0H88Z" />
<glyph unicode="l" glyph-name="l" horiz-adv-x="260" d="M92 0V777H168V0H92Z" />
<glyph unicode="m" glyph-name="m" horiz-adv-x="850" d="M80 0V538H156V457Q170 494 209 525T308 556Q367 556 398 523T446 436Q451 449 462 466T493 505T546 541T620 556Q776 556 776 348V0H698V342Q698 416 678 453T602 491Q544 491 505 443T466 320V0H390V343Q390
491 292 491Q231 491 195 445T158 325V0H80Z" />
<glyph unicode="n" glyph-name="n" horiz-adv-x="574" d="M80 0V538H156V446H157Q169 486 216 521T328 556Q403 556 451 509T500 348V0H422V335Q422 491 310 491Q248 491 203 441T158 321V0H80Z" />
<glyph unicode="o" glyph-name="o" horiz-adv-x="572" d="M122 269Q122 167 169 107T286 47Q355 47 402 107T450 269Q450 373 402 432T286 491Q217 491 170 432T122 269ZM44 269Q44 392 107 474T286 556Q400 556 464 474T528 269Q528 217 515 168T474 77T398 8T286
-18Q224 -18 176 7T100 75T58 167T44 269Z" />
<glyph unicode="p" glyph-name="p" horiz-adv-x="596" d="M162 270Q162 170 203 109T316 47Q384 47 429 107T474 270Q474 367 432 429T316 491Q248 491 205 429T162 270ZM86 -235V538H160V441Q183 493 226 524T326 556Q424 556 488 478T552 270Q552 131 485 57T326
-18Q266 -18 224 13T162 93V-235H86Z" />
<glyph unicode="q" glyph-name="q" horiz-adv-x="594" d="M122 270Q122 168 166 108T280 47Q350 47 392 108T434 270Q434 368 391 429T280 491Q205 491 164 429T122 270ZM44 270Q44 401 107 478T270 556Q325 556 368 525T436 441V538H510V-235H434V93Q414 45 371
14T270 -18Q178 -18 111 56T44 270Z" />
<glyph unicode="r" glyph-name="r" horiz-adv-x="375" d="M80 0V538H154V460Q170 496 207 526T302 556Q345 556 378 542V472Q342 486 302 486Q234 486 196 435T158 300V0H80Z" />
<glyph unicode="s" glyph-name="s" horiz-adv-x="501" d="M36 106L94 140Q153 47 254 47Q315 47 351 69T388 133Q388 151 379 165T360 189T322 210T278 227T220 246Q185 257 160 268T108 297T67 343T52 405Q52 472 106 514T254 556Q320 556 375 521T454 439L402
405Q381 440 342 465T254 491Q193 491 162 468T130 404Q130 381 142 363T178 331T223 310T278 291Q307 282 329 274T379 252T424 223T454 184T466 133Q466 69 410 26T254 -18Q182 -18 126 14T36 106Z" />
<glyph unicode="t" glyph-name="t" horiz-adv-x="365" d="M20 473V538H114V710H192V538H334V473H192V158Q192 108 211 87T272 66H334V0H262Q114 0 114 151V473H20Z" />
<glyph unicode="u" glyph-name="u" horiz-adv-x="571" d="M74 189V538H152V205Q152 47 268 47Q339 47 376 102T414 232V538H490V0H416V87Q408 54 367 18T250 -18Q173 -18 124 34T74 189Z" />
<glyph unicode="v" glyph-name="v" horiz-adv-x="506" d="M8 538H94L210 201Q218 176 232 131T252 67H254Q261 90 276 134T298 201L412 538H498L300 0H206L8 538Z" />
<glyph unicode="w" glyph-name="w" horiz-adv-x="729" d="M8 538H94L173 204Q198 89 202 71H206Q211 95 222 140T237 204L319 538H411L494 200Q498 183 508 141T524 71H528Q531 83 557 204L636 538H722L574 0H477L396 324Q369 446 367 456H363Q339 343 334 324L253
0H156L8 538Z" />
<glyph unicode="x" glyph-name="x" horiz-adv-x="491" d="M4 0L198 279L14 538H106L200 399Q208 386 222 365T242 335H246Q252 346 266 368T287 399L380 538H472L290 279L484 0H392L287 160Q261 197 246 221H242Q237 212 202 160L96 0H4Z" />
<glyph unicode="y" glyph-name="y" horiz-adv-x="503" d="M8 538H98L209 223Q234 153 254 87H258Q273 136 302 223L408 538H496L264 -90Q234 -170 195 -202T98 -235H68V-171H86Q124 -171 150 -149T198 -70L218 -7L8 538Z" />
<glyph unicode="z" glyph-name="z" horiz-adv-x="486" d="M32 0V52L346 473H60V538H446V489L130 65H454V0H32Z" />
<glyph unicode="{" glyph-name="braceleft" horiz-adv-x="454" d="M67 325V385H95Q169 385 169 522V717Q169 779 203 813T289 848H368V784H302Q278 784 262 764T246 707V509Q246 445 227 412T171 355Q246 316 246 214V17Q246 -25 262 -46T304 -67H368V-130H289Q238
-130 204 -98T169 -1V201Q169 260 148 292T95 325H67Z" />
<glyph unicode="|" glyph-name="bar" horiz-adv-x="273" d="M98 -169V883H176V-169H98Z" />
<glyph unicode="}" glyph-name="braceright" horiz-adv-x="454" d="M86 -67H150Q176 -67 192 -46T208 17V214Q208 316 283 355Q247 378 228 411T208 509V707Q208 744 193 764T152 784H86V848H165Q217 848 251 814T285 717V522Q285 385 359 385H387V325H359Q326
325 306 292T285 201V-1Q285 -66 251 -98T165 -130H86V-67Z" />
<glyph unicode="~" glyph-name="asciitilde" horiz-adv-x="773" d="M70 314Q137 458 264 458Q303 458 339 438T399 393T452 348T510 327Q525 327 539 330T563 339T583 353T599 369T612 388T623 406T632 425T639 440L703 408Q632 263 512 263Q471 263 434 283T374
328T322 373T264 394Q188 394 134 281L70 314Z" />
<glyph unicode="&#xa0;" glyph-name=".notdef" horiz-adv-x="250" />
<glyph unicode="&#xa1;" glyph-name="exclamdown" horiz-adv-x="316" d="M114 -215L123 324H194L203 -215H114ZM95 427V542H221V427H95Z" />
<glyph unicode="&#xa2;" glyph-name="cent" horiz-adv-x="513" d="M44 269Q44 382 98 462T249 553V632H320V553Q381 542 420 504T475 417L411 397Q394 436 362 463T287 491Q210 491 166 429T122 269Q122 169 167 108T286 47Q331 47 368 77T423 148L489 127Q470
76 427 37T320 -15V-98H249V-15Q158 -6 101 71T44 269Z" />
<glyph unicode="&#xa3;" glyph-name="sterling" horiz-adv-x="595" d="M39 338V406H150V580Q150 669 206 718T358 767Q423 767 471 735T541 658L487 624Q467 655 433 677T359 699Q300 699 265 667T229 573V406H459V338H229V215Q229 110 180 71Q235 81 269 81Q299
81 349 66T433 50Q505 50 561 82L585 18Q513 -18 431 -18Q399 -18 338 -2T245 15Q211 15 165 8T90 -6L62 -13L40 45Q95 59 122 104T150 211V338H39Z" />
<glyph unicode="&#xa4;" glyph-name="currency" horiz-adv-x="645" d="M27 147L139 251Q97 303 97 375Q97 450 138 500L27 603L80 653L188 550Q250 595 323 595Q398 595 459 550L565 652L618 602L509 500Q550 451 550 375Q550 303 508 251L618 147L566 97L458
200Q400 155 323 155Q247 155 188 200L80 98L27 147ZM168 375Q168 312 211 267T323 222Q391 222 435 267T479 375Q479 439 435 483T323 527Q256 527 212 483T168 375Z" />
<glyph unicode="&#xa5;" glyph-name="yen" horiz-adv-x="602" d="M-4 749H92L216 560Q271 474 300 424H302Q353 506 385 560L510 749H606L381 412H538V354H341V237H538V179H341V0H261V179H63V237H261V354H63V412H221L-4 749Z" />
<glyph unicode="&#xa6;" glyph-name="brokenbar" horiz-adv-x="273" d="M98 471V883H176V471H98ZM98 -169V242H176V-169H98Z" />
<glyph unicode="&#xa7;" glyph-name="section" horiz-adv-x="570" d="M59 47L112 86Q135 53 175 32T264 11Q386 11 386 86Q386 114 369 130T309 166L200 215Q135 244 104 278T73 361Q73 396 91 427T127 475T172 512Q103 565 103 622Q103 687 154 727T306 767Q372
767 425 738T509 663L457 624Q392 699 304 699Q242 699 213 678T183 622Q183 609 187 598T201 577T221 559T248 542T277 527T312 511T346 495Q387 475 409 463T458 430T496 384T508 327Q508 249 424 179Q466 141 466 86Q466 22 417 -17T265 -57Q195 -57 141 -26T59
47ZM154 365Q154 328 174 311T250 267L362 217Q428 270 428 327Q428 359 404 380T322 430L232 476Q194 448 174 424T154 365Z" />
<glyph unicode="&#xa8;" glyph-name="dieresis" horiz-adv-x="486" d="M101 647V749H203V647H101ZM284 647V749H385V647H284Z" />
<glyph unicode="&#xa9;" glyph-name="copyright" horiz-adv-x="892" d="M257 379Q257 487 312 553T460 620Q567 620 620 505L561 485Q520 558 459 558Q398 558 363 509T327 379Q327 296 362 248T459 199Q497 199 526 222T570 279L632 260Q614 211 569 175T459
138Q369 138 313 203T257 379ZM48 380Q48 557 161 669T446 781Q619 781 732 669T845 380Q845 207 733 94T446 -20Q275 -20 162 92T48 380ZM106 380Q106 230 200 132T446 34Q596 34 691 130T787 380Q787 531 692 629T446 727Q297 727 202 630T106 380Z" />
<glyph unicode="&#xaa;" glyph-name="ordfeminine" horiz-adv-x="395" d="M41 336V390H354V336H41ZM93 557Q93 533 113 516T170 499Q216 499 249 529T283 606V652Q267 648 237 644T185 635T140 621T105 596T93 557ZM32 553Q32 590 49 616T97 655T157 676T225 690T283
702V720Q283 752 260 773T193 795Q155 795 124 776T80 737L40 770Q56 793 98 819T192 845Q343 845 343 698V459H285V507Q269 481 237 464T164 447Q102 447 67 476T32 553Z" />
<glyph unicode="&#xab;" glyph-name="guillemotleft" horiz-adv-x="471" d="M39 254L201 483L258 445L124 254L257 64L201 25L39 254ZM218 254L380 476L435 435L303 254L435 72L380 32L218 254Z" />
<glyph unicode="&#xac;" glyph-name="logicalnot" horiz-adv-x="556" d="M49 322V390H508V126H434V322H49Z" />
<glyph unicode="&#xad;" glyph-name=".notdef" horiz-adv-x="569" d="M58 337V405H510V337H58Z" />
<glyph unicode="&#xae;" glyph-name="registered" horiz-adv-x="892" d="M305 149V606H482Q548 606 583 569T619 477Q619 396 549 365Q584 342 597 279Q610 217 645 149H570Q546 192 529 272Q525 294 521 306T503 329T470 341H373V149H305ZM373 397H471Q508 397
529 417T551 472Q551 503 531 523T471 544H373V397ZM48 381Q48 558 161 669T446 781Q619 781 732 669T845 381Q845 208 733 94T446 -20Q275 -20 162 92T48 381ZM106 381Q106 230 200 132T446 34Q596 34 691 132T787 381Q787 533 691 630T446 727Q297 727 202 631T106
381Z" />
<glyph unicode="&#xaf;" glyph-name="overscore" horiz-adv-x="515" d="M0 757V824H516V757H0Z" />
<glyph unicode="&#xb0;" glyph-name="degree" horiz-adv-x="427" d="M86 632Q86 683 122 719T214 756Q267 756 304 721T341 632Q341 578 304 544T214 509Q160 509 123 544T86 632ZM138 632Q138 599 159 578T214 557Q245 557 266 578T288 632Q288 663 268 685T214
707Q180 707 159 685T138 632Z" />
<glyph unicode="&#xb1;" glyph-name="plusminus" horiz-adv-x="569" d="M46 411V479H246V658H322V479H523V411H322V235H246V411H46ZM46 98V166H523V98H46Z" />
<glyph unicode="&#xb2;" glyph-name="twosuperior" horiz-adv-x="329" d="M29 728Q33 743 35 749T47 777T71 809T108 832T164 843Q220 843 256 811T292 722Q292 659 217 584Q208 575 186 554T152 521T126 490T103 454H292V404H32Q32 455 61 497T180 624Q233 673
233 722Q233 756 215 774T163 793Q140 793 124 784T98 758T86 734T80 714L29 728Z" />
<glyph unicode="&#xb3;" glyph-name="threesuperior" horiz-adv-x="329" d="M21 488L69 507Q101 445 159 445Q195 445 219 466T244 528Q244 565 217 585T151 606Q136 606 112 604V656Q142 654 149 654Q183 654 205 673T227 727Q227 757 208 776T157 795Q107 795
81 730L33 746Q67 844 159 844Q217 844 251 812T286 731Q286 665 231 634Q303 604 303 528Q303 466 263 431T159 395Q60 395 21 488Z" />
<glyph unicode="&#xb4;" glyph-name="acute" horiz-adv-x="340" d="M73 665L186 840H287L141 665H73Z" />
<glyph unicode="&#xb5;" glyph-name="mu" horiz-adv-x="583" d="M86 -235V538H163V205Q163 47 278 47Q350 47 387 102T425 232V538H502V0H428V87H427Q413 42 370 12T264 -18Q197 -18 163 36V-235H86Z" />
<glyph unicode="&#xb6;" glyph-name="paragraph" horiz-adv-x="642" d="M59 554Q59 656 112 718T265 781H552V-73H487V710H382V-73H317V331Q285 321 252 321Q170 321 115 382T59 554Z" />
<glyph unicode="&#xb7;" glyph-name="middot" horiz-adv-x="344" d="M109 300V419H235V300H109Z" />
<glyph unicode="&#xb8;" glyph-name="cedilla" horiz-adv-x="302" d="M45 -169Q87 -179 110 -179Q179 -179 179 -136Q179 -92 82 -83L129 14H198L169 -46Q251 -67 251 -137Q251 -181 219 -208T116 -236Q75 -236 45 -226V-169Z" />
<glyph unicode="&#xb9;" glyph-name="onesuperior" horiz-adv-x="329" d="M55 727V774H79Q123 774 138 786T154 824V843H206V404H147V727H55Z" />
<glyph unicode="&#xba;" glyph-name="ordmasculine" horiz-adv-x="395" d="M90 646Q90 578 121 539T197 499Q242 499 273 538T305 646Q305 715 274 754T197 793Q152 793 121 754T90 646ZM29 646Q29 731 73 788T197 845Q276 845 321 788T366 646Q366 567 324 507T197
447Q140 447 101 478T45 552T29 646ZM41 336V390H354V336H41Z" />
<glyph unicode="&#xbb;" glyph-name="guillemotright" horiz-adv-x="470" d="M36 435L92 476L253 254L92 32L37 72L169 254L36 435ZM214 65L347 254L213 445L271 483L432 254L271 25L214 65Z" />
<glyph unicode="&#xbc;" glyph-name="onequarter" horiz-adv-x="984" d="M85 672V731H114Q163 731 180 744T197 784V809H260V305H188V672H85ZM553 123L775 461H836V131H904V69H836V-43H766V69H553V123ZM631 131H766V297V342L740 299L631 131ZM159 -51L643 796H719L237
-51H159Z" />
<glyph unicode="&#xbd;" glyph-name="onehalf" horiz-adv-x="984" d="M85 672V731H114Q163 731 180 744T197 784V809H260V305H188V672H85ZM578 323Q582 339 585 348T600 381T627 419T670 445T735 458Q800 458 841 420T882 317Q882 243 806 170Q738 106 710 76T668
16H882V-45H582Q582 13 614 61T752 208Q810 262 810 318Q810 356 790 376T733 397Q662 397 641 306L578 323ZM156 -51L640 796H716L234 -51H156Z" />
<glyph unicode="&#xbe;" glyph-name="threequarters" horiz-adv-x="984" d="M66 417L125 440Q162 370 226 370Q266 370 293 393T320 461Q320 502 291 525T218 548Q194 548 170 546V609Q188 607 215 607Q252 607 276 628T301 687Q301 720 280 741T224 762Q200 762
182 749T156 723T139 688L79 708Q118 823 226 823Q293 823 332 786T372 691Q372 619 312 582Q391 546 391 461Q391 389 346 349T226 309Q112 309 66 417ZM563 123L785 461H846V131H914V69H846V-43H776V69H563V123ZM641 131H776V298V341L751 300L641 131ZM235 -51L719
796H795L313 -51H235Z" />
<glyph unicode="&#xbf;" glyph-name="questiondown" horiz-adv-x="564" d="M74 -30Q74 17 92 54T137 116T190 166T235 227T254 308V331H334V303Q334 252 316 212T271 146T219 96T175 40T156 -32Q156 -93 189 -129T281 -165Q381 -165 430 -46L500 -70Q474 -144
417 -188T282 -233Q188 -233 131 -178T74 -30ZM231 428V542H357V428H231Z" />
<glyph unicode="&#xc0;" glyph-name="Agrave" horiz-adv-x="650" d="M184 280H466L378 532Q370 555 353 605T328 676H322Q280 553 273 532L184 280ZM-4 0L276 749H374L654 0H566L490 216H160L84 0H-4ZM420 1002H521L634 827H565L420 1002Z" />
<glyph unicode="&#xc1;" glyph-name="Aacute" horiz-adv-x="650" d="M184 280H466L378 532Q370 555 353 605T328 676H322Q280 553 273 532L184 280ZM-4 0L276 749H374L654 0H566L490 216H160L84 0H-4ZM509 827L622 1002H723L577 827H509Z" />
<glyph unicode="&#xc2;" glyph-name="Acircumflex" horiz-adv-x="650" d="M184 280H466L378 532Q370 555 353 605T328 676H322Q280 553 273 532L184 280ZM-4 0L276 749H374L654 0H566L490 216H160L84 0H-4ZM126 827L290 993H359L525 827H442L325 949L209 827H126Z" />
<glyph unicode="&#xc3;" glyph-name="Atilde" horiz-adv-x="650" d="M184 280H466L378 532Q370 555 353 605T328 676H322Q280 553 273 532L184 280ZM-4 0L276 749H374L654 0H566L490 216H160L84 0H-4ZM103 885Q149 975 234 975Q271 975 319 942T388 909Q438 909
472 973L519 941Q469 850 390 850Q352 850 306 883T235 917Q182 917 150 852L103 885Z" />
<glyph unicode="&#xc4;" glyph-name="Adieresis" horiz-adv-x="650" d="M184 280H466L378 532Q370 555 353 605T328 676H322Q280 553 273 532L184 280ZM-4 0L276 749H374L654 0H566L490 216H160L84 0H-4ZM423 865V962H525V865H423ZM634 865V962H735V865H634Z" />
<glyph unicode="&#xc5;" glyph-name="Aring" horiz-adv-x="650" d="M184 280H466L378 532Q370 555 353 605T328 676H322Q280 553 273 532L184 280ZM-4 0L276 749H374L654 0H566L490 216H160L84 0H-4ZM189 917Q189 971 227 1009T326 1047Q386 1047 424 1009T463
917Q463 862 424 824T326 785Q269 785 229 823T189 917ZM245 917Q245 883 268 860T326 837Q361 837 383 859T406 917Q406 950 384 973T326 996Q290 996 268 973T245 917Z" />
<glyph unicode="&#xc6;" glyph-name="AE" horiz-adv-x="955" d="M245 280H483V674H474L245 280ZM-4 0L433 749H906V681H562V421H869V354H558V68H915V0H483V216H207L85 0H-4Z" />
<glyph unicode="&#xc7;" glyph-name="Ccedilla" horiz-adv-x="662" d="M52 374Q52 557 141 662T372 767Q460 767 521 719T614 603L546 579Q479 699 370 699Q262 699 198 611T134 374Q134 224 199 138T370 51Q437 51 487 88T562 181L634 158Q600 85 535 34T372
-18Q231 -18 142 86T52 374ZM514 -162Q570 -177 608 -177Q637 -177 663 -164T689 -128Q689 -103 657 -91T573 -81L596 9H666L650 -49Q699 -53 725 -74T752 -132Q752 -172 716 -200T610 -228Q563 -228 514 -213V-162Z" />
<glyph unicode="&#xc8;" glyph-name="Egrave" horiz-adv-x="620" d="M104 0V749H572V681H184V421H534V354H184V68H580V0H104ZM190 1002H291L404 827H335L190 1002Z" />
<glyph unicode="&#xc9;" glyph-name="Eacute" horiz-adv-x="620" d="M104 0V749H572V681H184V421H534V354H184V68H580V0H104ZM516 827L629 1002H730L584 827H516Z" />
<glyph unicode="&#xca;" glyph-name="Ecircumflex" horiz-adv-x="620" d="M135 827L299 993H368L534 827H451L334 949L218 827H135ZM104 0V749H572V681H184V421H534V354H184V68H580V0H104Z" />
<glyph unicode="&#xcb;" glyph-name="Edieresis" horiz-adv-x="620" d="M104 0V749H572V681H184V421H534V354H184V68H580V0H104ZM178 865V962H280V865H178ZM389 865V962H490V865H389Z" />
<glyph unicode="&#xcc;" glyph-name="Igrave" horiz-adv-x="287" d="M104 0V749H184V0H104ZM-17 1002H84L197 827H128L-17 1002Z" />
<glyph unicode="&#xcd;" glyph-name="Iacute" horiz-adv-x="287" d="M104 0V749H184V0H104ZM74 827L187 1002H288L142 827H74Z" />
<glyph unicode="&#xce;" glyph-name="Icircumflex" horiz-adv-x="287" d="M104 0V749H184V0H104ZM-56 827L108 993H177L343 827H260L143 949L27 827H-56Z" />
<glyph unicode="&#xcf;" glyph-name="Idieresis" horiz-adv-x="287" d="M104 0V749H184V0H104ZM-12 865V962H90V865H-12ZM199 865V962H300V865H199Z" />
<glyph unicode="&#xd0;" glyph-name="Eth" horiz-adv-x="701" d="M104 0V749H306Q468 749 561 654T654 374Q654 199 564 100T304 0H104ZM184 68H292Q422 68 497 141T572 374Q572 535 497 608T294 681H184V68ZM269 352V416H636V352H269Z" />
<glyph unicode="&#xd1;" glyph-name="Ntilde" horiz-adv-x="740" d="M159 885Q205 975 290 975Q327 975 375 942T444 909Q494 909 528 973L575 941Q525 850 446 850Q408 850 362 883T291 917Q238 917 206 852L159 885ZM104 0V749H196L472 271L562 113H568Q556
206 556 325V749H636V0H544L267 481L178 635H174Q184 535 184 424V0H104Z" />
<glyph unicode="&#xd2;" glyph-name="Ograve" horiz-adv-x="726" d="M52 374Q52 550 137 658T364 767Q507 767 590 659T674 373Q674 193 590 88T364 -18Q222 -18 137 88T52 374ZM134 374Q134 226 196 139T364 51Q468 51 530 137T592 373Q592 521 532 610T364 699Q258
699 196 611T134 374ZM204 1007H305L418 832H349L204 1007Z" />
<glyph unicode="&#xd3;" glyph-name="Oacute" horiz-adv-x="726" d="M52 374Q52 550 137 658T364 767Q507 767 590 659T674 373Q674 193 590 88T364 -18Q222 -18 137 88T52 374ZM134 374Q134 226 196 139T364 51Q468 51 530 137T592 373Q592 521 532 610T364 699Q258
699 196 611T134 374ZM296 832L409 1007H510L364 832H296Z" />
<glyph unicode="&#xd4;" glyph-name="Ocircumflex" horiz-adv-x="726" d="M52 374Q52 550 137 658T364 767Q507 767 590 659T674 373Q674 193 590 88T364 -18Q222 -18 137 88T52 374ZM134 374Q134 226 196 139T364 51Q468 51 530 137T592 373Q592 521 532 610T364
699Q258 699 196 611T134 374ZM164 832L328 998H397L563 832H480L363 954L247 832H164Z" />
<glyph unicode="&#xd5;" glyph-name="Otilde" horiz-adv-x="726" d="M152 885Q198 975 283 975Q320 975 368 942T437 909Q487 909 521 973L568 941Q518 850 439 850Q401 850 355 883T284 917Q231 917 199 852L152 885ZM52 374Q52 550 137 658T364 767Q507 767
590 659T674 373Q674 193 590 88T364 -18Q222 -18 137 88T52 374ZM134 374Q134 226 196 139T364 51Q468 51 530 137T592 373Q592 521 532 610T364 699Q258 699 196 611T134 374Z" />
<glyph unicode="&#xd6;" glyph-name="Odieresis" horiz-adv-x="726" d="M52 374Q52 550 137 658T364 767Q507 767 590 659T674 373Q674 193 590 88T364 -18Q222 -18 137 88T52 374ZM134 374Q134 226 196 139T364 51Q468 51 530 137T592 373Q592 521 532 610T364
699Q258 699 196 611T134 374ZM206 865V962H308V865H206ZM417 865V962H518V865H417Z" />
<glyph unicode="&#xd7;" glyph-name="multiply" horiz-adv-x="569" d="M46 191L238 371L46 552L94 599L284 415L476 599L523 553L332 371L523 190L475 144L284 327L94 144L46 191Z" />
<glyph unicode="&#xd8;" glyph-name="Oslash" horiz-adv-x="727" d="M52 374Q52 550 137 658T364 767Q451 767 519 725L562 809H637L571 682Q675 573 675 373Q675 193 590 88T364 -18Q289 -18 225 15L181 -71H106L170 53Q52 158 52 374ZM533 609L259 79Q306 51
364 51Q469 51 531 137T593 373Q593 521 533 609ZM485 660Q434 699 364 699Q258 699 196 611T134 374Q134 211 207 124L485 660Z" />
<glyph unicode="&#xd9;" glyph-name="Ugrave" horiz-adv-x="733" d="M102 271V749H182V273Q182 161 233 106T366 51Q449 51 500 107T552 273V749H632V271Q632 135 563 59T366 -18Q241 -18 172 57T102 271ZM216 1007H317L430 832H361L216 1007Z" />
<glyph unicode="&#xda;" glyph-name="Uacute" horiz-adv-x="733" d="M102 271V749H182V273Q182 161 233 106T366 51Q449 51 500 107T552 273V749H632V271Q632 135 563 59T366 -18Q241 -18 172 57T102 271ZM295 832L408 1007H509L363 832H295Z" />
<glyph unicode="&#xdb;" glyph-name="Ucircumflex" horiz-adv-x="733" d="M102 271V749H182V273Q182 161 233 106T366 51Q449 51 500 107T552 273V749H632V271Q632 135 563 59T366 -18Q241 -18 172 57T102 271ZM170 832L334 998H403L569 832H486L369 954L253 832H170Z" />
<glyph unicode="&#xdc;" glyph-name="Udieresis" horiz-adv-x="733" d="M102 271V749H182V273Q182 161 233 106T366 51Q449 51 500 107T552 273V749H632V271Q632 135 563 59T366 -18Q241 -18 172 57T102 271ZM213 865V962H315V865H213ZM424 865V962H525V865H424Z" />
<glyph unicode="&#xdd;" glyph-name="Yacute" horiz-adv-x="603" d="M-4 749H92L221 520Q266 440 300 379H302Q317 406 348 460T382 520L510 749H606L342 308V0H262V308L-4 749ZM482 832L595 1007H696L550 832H482Z" />
<glyph unicode="&#xde;" glyph-name="Thorn" horiz-adv-x="612" d="M104 0V749H184V624H306Q440 624 505 560T570 389Q570 269 495 210T297 151H184V0H104ZM184 219H289Q487 219 487 389Q487 557 299 557H184V219Z" />
<glyph unicode="&#xdf;" glyph-name="germandbls" horiz-adv-x="666" d="M104 0V563Q104 660 168 713T328 767Q429 767 491 712T554 566Q554 503 528 461T464 398V396Q527 378 571 328T616 193Q616 99 557 41T395 -18Q320 -18 252 4L257 74Q317 51 392 51Q451
51 492 90T534 193Q534 272 487 313T367 354H302V421H359Q409 421 440 460T472 562Q472 621 434 660T329 699Q262 699 223 662T184 558V0H104Z" />
<glyph unicode="&#xe0;" glyph-name="agrave" horiz-adv-x="563" d="M120 138Q120 100 152 74T240 47Q311 47 361 93T412 210V285Q368 274 272 259Q194 245 157 216T120 138ZM42 132Q42 282 274 318Q378 335 412 346V377Q412 427 376 460T274 493Q226 493 182
471T106 410L56 452Q96 498 152 527T272 556Q488 556 488 345V0H414V88Q398 45 348 14T230 -18Q141 -18 92 24T42 132ZM135 808H236L349 633H280L135 808Z" />
<glyph unicode="&#xe1;" glyph-name="aacute" horiz-adv-x="563" d="M120 138Q120 100 152 74T240 47Q311 47 361 93T412 210V285Q368 274 272 259Q194 245 157 216T120 138ZM42 132Q42 282 274 318Q378 335 412 346V377Q412 427 376 460T274 493Q226 493 182
471T106 410L56 452Q96 498 152 527T272 556Q488 556 488 345V0H414V88Q398 45 348 14T230 -18Q141 -18 92 24T42 132ZM191 638L304 813H405L259 638H191Z" />
<glyph unicode="&#xe2;" glyph-name="acircumflex" horiz-adv-x="563" d="M120 138Q120 100 152 74T240 47Q311 47 361 93T412 210V285Q368 274 272 259Q194 245 157 216T120 138ZM42 132Q42 282 274 318Q378 335 412 346V377Q412 427 376 460T274 493Q226 493
182 471T106 410L56 452Q96 498 152 527T272 556Q488 556 488 345V0H414V88Q398 45 348 14T230 -18Q141 -18 92 24T42 132ZM71 638L235 804H304L470 638H387L270 760L154 638H71Z" />
<glyph unicode="&#xe3;" glyph-name="atilde" horiz-adv-x="563" d="M120 138Q120 100 152 74T240 47Q311 47 361 93T412 210V285Q368 274 272 259Q194 245 157 216T120 138ZM42 132Q42 282 274 318Q378 335 412 346V377Q412 427 376 460T274 493Q226 493 182
471T106 410L56 452Q96 498 152 527T272 556Q488 556 488 345V0H414V88Q398 45 348 14T230 -18Q141 -18 92 24T42 132ZM322 686Q368 776 453 776Q490 776 538 743T607 710Q657 710 691 774L738 742Q688 651 609 651Q571 651 525 684T454 718Q401 718 369 653L322
686Z" />
<glyph unicode="&#xe4;" glyph-name="adieresis" horiz-adv-x="563" d="M120 138Q120 100 152 74T240 47Q311 47 361 93T412 210V285Q368 274 272 259Q194 245 157 216T120 138ZM42 132Q42 282 274 318Q378 335 412 346V377Q412 427 376 460T274 493Q226 493 182
471T106 410L56 452Q96 498 152 527T272 556Q488 556 488 345V0H414V88Q398 45 348 14T230 -18Q141 -18 92 24T42 132ZM114 672V769H216V672H114ZM325 672V769H426V672H325Z" />
<glyph unicode="&#xe5;" glyph-name="aring" horiz-adv-x="563" d="M120 138Q120 100 152 74T240 47Q311 47 361 93T412 210V285Q368 274 272 259Q194 245 157 216T120 138ZM42 132Q42 282 274 318Q378 335 412 346V377Q412 427 376 460T274 493Q226 493 182 471T106
410L56 452Q96 498 152 527T272 556Q488 556 488 345V0H414V88Q398 45 348 14T230 -18Q141 -18 92 24T42 132ZM389 1003Q389 1057 427 1095T526 1133Q586 1133 624 1095T663 1003Q663 948 624 910T526 871Q469 871 429 909T389 1003ZM445 1003Q445 969 468 946T526
923Q561 923 583 945T606 1003Q606 1036 584 1059T526 1082Q490 1082 468 1059T445 1003Z" />
<glyph unicode="&#xe6;" glyph-name="ae" horiz-adv-x="924" d="M42 133Q42 283 273 318Q393 339 412 346Q412 350 412 362T411 377Q411 424 377 458T279 493Q175 493 105 410L55 452Q95 499 153 527T279 556Q418 556 463 441Q490 494 539 525T651 556Q756 556
819 479T882 284V244H490V223Q497 152 538 100T652 47Q705 47 744 73T804 137L870 117Q842 56 787 19T651 -18Q580 -18 528 19T447 121Q378 -18 230 -18Q143 -18 93 23T42 133ZM120 138Q120 99 151 73T238 47Q310 47 360 93T411 211V285Q375 276 276 260Q120 235
120 138ZM490 303H804Q804 382 761 436T651 491Q585 491 544 442T492 320L490 303Z" />
<glyph unicode="&#xe7;" glyph-name="ccedilla" horiz-adv-x="514" d="M44 269Q44 397 109 476T284 556Q356 556 407 515T476 416L410 397Q395 437 362 464T284 491Q210 491 166 428T122 269Q122 167 168 107T284 47Q331 47 369 77T424 148L490 127Q469 67 414
25T284 -18Q177 -18 111 60T44 269ZM413 93Q469 78 507 78Q536 78 562 91T588 127Q588 152 556 164T472 174L495 264H565L549 206Q598 202 624 181T651 123Q651 83 615 55T509 27Q462 27 413 42V93Z" />
<glyph unicode="&#xe8;" glyph-name="egrave" horiz-adv-x="566" d="M44 273Q44 399 112 477T288 556Q398 556 461 480T524 284Q524 270 522 244H122Q122 163 167 105T292 47Q344 47 384 71T446 137L512 117Q487 58 431 20T292 -18Q180 -18 112 62T44 273ZM124
303H446Q446 382 403 436T288 491Q215 491 171 435T124 303ZM143 813H244L357 638H288L143 813Z" />
<glyph unicode="&#xe9;" glyph-name="eacute" horiz-adv-x="566" d="M44 273Q44 399 112 477T288 556Q398 556 461 480T524 284Q524 270 522 244H122Q122 163 167 105T292 47Q344 47 384 71T446 137L512 117Q487 58 431 20T292 -18Q180 -18 112 62T44 273ZM124
303H446Q446 382 403 436T288 491Q215 491 171 435T124 303ZM197 638L310 813H411L265 638H197Z" />
<glyph unicode="&#xea;" glyph-name="ecircumflex" horiz-adv-x="566" d="M44 273Q44 399 112 477T288 556Q398 556 461 480T524 284Q524 270 522 244H122Q122 163 167 105T292 47Q344 47 384 71T446 137L512 117Q487 58 431 20T292 -18Q180 -18 112 62T44 273ZM124
303H446Q446 382 403 436T288 491Q215 491 171 435T124 303ZM89 638L253 804H322L488 638H405L288 760L172 638H89Z" />
<glyph unicode="&#xeb;" glyph-name="edieresis" horiz-adv-x="566" d="M129 672V769H231V672H129ZM340 672V769H441V672H340ZM44 273Q44 399 112 477T288 556Q398 556 461 480T524 284Q524 270 522 244H122Q122 163 167 105T292 47Q344 47 384 71T446 137L512
117Q487 58 431 20T292 -18Q180 -18 112 62T44 273ZM124 303H446Q446 382 403 436T288 491Q215 491 171 435T124 303Z" />
<glyph unicode="&#xec;" glyph-name="igrave" horiz-adv-x="253" d="M88 0V538H165V0H88ZM-28 813H73L186 638H117L-28 813Z" />
<glyph unicode="&#xed;" glyph-name="iacute" horiz-adv-x="253" d="M88 0V538H165V0H88ZM58 638L171 813H272L126 638H58Z" />
<glyph unicode="&#xee;" glyph-name="icircumflex" horiz-adv-x="253" d="M-73 638L91 804H160L326 638H243L126 760L10 638H-73ZM88 0V538H165V0H88Z" />
<glyph unicode="&#xef;" glyph-name="idieresis" horiz-adv-x="253" d="M-30 672V769H72V672H-30ZM181 672V769H282V672H181ZM88 0V538H165V0H88Z" />
<glyph unicode="&#xf0;" glyph-name="eth" horiz-adv-x="571" d="M158 593L441 798L485 748L203 544L158 593ZM44 242Q44 363 110 433T282 504Q338 504 379 478T439 417Q384 680 152 717L178 778Q253 766 313 734T423 643T500 490T527 269Q527 143 463 63T283
-18Q173 -18 109 56T44 242ZM122 245Q122 158 166 103T285 47Q357 47 400 101T443 246Q443 333 400 385T286 438Q215 438 169 387T122 245Z" />
<glyph unicode="&#xf1;" glyph-name="ntilde" horiz-adv-x="574" d="M75 686Q121 776 206 776Q243 776 291 743T360 710Q410 710 444 774L491 742Q441 651 362 651Q324 651 278 684T207 718Q154 718 122 653L75 686ZM80 0V538H156V446H157Q169 486 216 521T328
556Q403 556 451 509T500 348V0H422V335Q422 491 310 491Q248 491 203 441T158 321V0H80Z" />
<glyph unicode="&#xf2;" glyph-name="ograve" horiz-adv-x="572" d="M122 269Q122 167 169 107T286 47Q355 47 402 107T450 269Q450 373 402 432T286 491Q217 491 170 432T122 269ZM44 269Q44 392 107 474T286 556Q400 556 464 474T528 269Q528 217 515 168T474
77T398 8T286 -18Q224 -18 176 7T100 75T58 167T44 269ZM143 813H244L357 638H288L143 813Z" />
<glyph unicode="&#xf3;" glyph-name="oacute" horiz-adv-x="572" d="M122 269Q122 167 169 107T286 47Q355 47 402 107T450 269Q450 373 402 432T286 491Q217 491 170 432T122 269ZM44 269Q44 392 107 474T286 556Q400 556 464 474T528 269Q528 217 515 168T474
77T398 8T286 -18Q224 -18 176 7T100 75T58 167T44 269ZM212 638L325 813H426L280 638H212Z" />
<glyph unicode="&#xf4;" glyph-name="ocircumflex" horiz-adv-x="572" d="M87 638L251 804H320L486 638H403L286 760L170 638H87ZM122 269Q122 167 169 107T286 47Q355 47 402 107T450 269Q450 373 402 432T286 491Q217 491 170 432T122 269ZM44 269Q44 392 107
474T286 556Q400 556 464 474T528 269Q528 217 515 168T474 77T398 8T286 -18Q224 -18 176 7T100 75T58 167T44 269Z" />
<glyph unicode="&#xf5;" glyph-name="otilde" horiz-adv-x="572" d="M326 686Q372 776 457 776Q494 776 542 743T611 710Q661 710 695 774L742 742Q692 651 613 651Q575 651 529 684T458 718Q405 718 373 653L326 686ZM122 269Q122 167 169 107T286 47Q355 47
402 107T450 269Q450 373 402 432T286 491Q217 491 170 432T122 269ZM44 269Q44 392 107 474T286 556Q400 556 464 474T528 269Q528 217 515 168T474 77T398 8T286 -18Q224 -18 176 7T100 75T58 167T44 269Z" />
<glyph unicode="&#xf6;" glyph-name="odieresis" horiz-adv-x="572" d="M130 672V769H232V672H130ZM341 672V769H442V672H341ZM122 269Q122 167 169 107T286 47Q355 47 402 107T450 269Q450 373 402 432T286 491Q217 491 170 432T122 269ZM44 269Q44 392 107 474T286
556Q400 556 464 474T528 269Q528 217 515 168T474 77T398 8T286 -18Q224 -18 176 7T100 75T58 167T44 269Z" />
<glyph unicode="&#xf7;" glyph-name="divide" horiz-adv-x="569" d="M228 505V613H340V505H228ZM28 337V405H540V337H28ZM228 128V237H340V128H228Z" />
<glyph unicode="&#xf8;" glyph-name="oslash" horiz-adv-x="571" d="M44 269Q44 392 107 474T286 556Q350 556 397 529L434 601H499L444 494Q527 415 527 269Q527 217 514 168T473 77T397 8T286 -18Q230 -18 183 4L149 -62H84L134 36Q90 75 67 137T44 269ZM408
424L215 66Q248 47 286 47Q355 47 402 107T449 269Q449 364 408 424ZM365 466Q329 491 286 491Q217 491 170 432T122 269Q122 167 170 105L365 466Z" />
<glyph unicode="&#xf9;" glyph-name="ugrave" horiz-adv-x="571" d="M74 189V538H152V205Q152 47 268 47Q339 47 376 102T414 232V538H490V0H416V87Q408 54 367 18T250 -18Q173 -18 124 34T74 189ZM139 813H240L353 638H284L139 813Z" />
<glyph unicode="&#xfa;" glyph-name="uacute" horiz-adv-x="571" d="M74 189V538H152V205Q152 47 268 47Q339 47 376 102T414 232V538H490V0H416V87Q408 54 367 18T250 -18Q173 -18 124 34T74 189ZM214 638L327 813H428L282 638H214Z" />
<glyph unicode="&#xfb;" glyph-name="ucircumflex" horiz-adv-x="571" d="M74 189V538H152V205Q152 47 268 47Q339 47 376 102T414 232V538H490V0H416V87Q408 54 367 18T250 -18Q173 -18 124 34T74 189ZM95 638L259 804H328L494 638H411L294 760L178 638H95Z" />
<glyph unicode="&#xfc;" glyph-name="udieresis" horiz-adv-x="571" d="M135 672V769H237V672H135ZM346 672V769H447V672H346ZM74 189V538H152V205Q152 47 268 47Q339 47 376 102T414 232V538H490V0H416V87Q408 54 367 18T250 -18Q173 -18 124 34T74 189Z" />
<glyph unicode="&#xfd;" glyph-name="yacute" horiz-adv-x="503" d="M8 538H98L209 223Q234 153 254 87H258Q273 136 302 223L408 538H496L264 -90Q234 -170 195 -202T98 -235H68V-171H86Q124 -171 150 -149T198 -70L218 -7L8 538ZM165 638L278 813H379L233 638H165Z" />
<glyph unicode="&#xfe;" glyph-name="thorn" horiz-adv-x="599" d="M164 269Q164 169 208 108T316 47Q390 47 433 106T477 269Q477 372 434 431T317 491Q256 491 210 430T164 269ZM89 -235V777H166V440Q182 491 230 523T326 556Q431 556 493 479T555 269Q555 127
487 55T325 -18Q269 -18 226 16T166 95V-235H89Z" />
<glyph unicode="&#xff;" glyph-name="ydieresis" horiz-adv-x="503" d="M88 672V769H190V672H88ZM299 672V769H400V672H299ZM8 538H98L209 223Q234 153 254 87H258Q273 136 302 223L408 538H496L264 -90Q234 -170 195 -202T98 -235H68V-171H86Q124 -171 150 -149T198
-70L218 -7L8 538Z" />
<glyph unicode="&#x2013;" glyph-name="endash" horiz-adv-x="523" d="M42 328V396H481V328H42Z" />
<glyph unicode="&#x2014;" glyph-name="emdash" horiz-adv-x="989" d="M0 328V396H989V328H0Z" />
<glyph unicode="&#x2018;" glyph-name="quoteleft" horiz-adv-x="352" d="M114 557V643Q114 802 212 884L257 846Q219 810 204 771T189 672H248V557H114Z" />
<glyph unicode="&#x2019;" glyph-name="quoteright" horiz-adv-x="352" d="M104 725V840H238V754Q238 595 140 513L95 551Q133 587 148 626T163 725H104Z" />
<glyph unicode="&#x201a;" glyph-name="quotesinglbase" horiz-adv-x="352" d="M104 4V119H238V33Q238 -126 140 -208L95 -170Q133 -134 148 -95T163 4H104Z" />
<glyph unicode="&#x201c;" glyph-name="quotedblleft" horiz-adv-x="520" d="M311 557V643Q311 802 409 884L454 846Q416 810 401 771T386 672H445V557H311ZM81 557V643Q81 810 179 892L224 854Q156 791 156 672H215V557H81Z" />
<glyph unicode="&#x201d;" glyph-name="quotedblright" horiz-adv-x="520" d="M66 551Q104 587 119 626T134 725H75V840H209V754Q209 595 111 513L66 551ZM297 543Q337 580 351 621T365 725H306V840H440V754Q440 587 342 505L297 543Z" />
<glyph unicode="&#x201e;" glyph-name="quotedblbase" horiz-adv-x="520" d="M66 -170Q104 -134 119 -95T134 4H75V119H209V33Q209 -126 111 -208L66 -170ZM296 -178Q336 -141 350 -100T364 4H305V119H439V33Q439 -134 341 -216L296 -178Z" />
<glyph unicode="&#x2022;" glyph-name="bullet" horiz-adv-x="512" d="M146 251V469H366V251H146Z" />
<glyph unicode="&#x2039;" glyph-name="guilsinglleft" horiz-adv-x="367" d="M75 252L247 487L304 449L160 253L303 58L247 19L75 252Z" />
<glyph unicode="&#x203a;" glyph-name="guilsinglright" horiz-adv-x="367" d="M64 59L207 254L63 450L120 488L292 254L120 20L64 59Z" />
</font>
</defs>
</svg>
