<?xml version="1.0" standalone="no"?>
<!DOCTYPE svg PUBLIC "-//W3C//DTD SVG 1.1//EN" "http://www.w3.org/Graphics/SVG/1.1/DTD/svg11.dtd">
<svg xmlns="http://www.w3.org/2000/svg">
<defs >
<font id="GothicA1" horiz-adv-x="991" ><font-face
    font-family="Gothic A1"
    units-per-em="1024"
    panose-1="0 0 0 0 0 0 0 0 0 0"
    ascent="817"
    descent="-207"
    alphabetic="0" />
<glyph unicode=" " glyph-name="space" horiz-adv-x="250" />
<glyph unicode="!" glyph-name="exclam" horiz-adv-x="334" d="M83 -5V147H252V-5H83ZM229 224H106L96 796H237L229 224Z" />
<glyph unicode="&quot;" glyph-name="quotedbl" horiz-adv-x="596" d="M312 556L409 879H554L415 556H312ZM72 556L168 879H314L174 556H72Z" />
<glyph unicode="#" glyph-name="numbersign" horiz-adv-x="789" d="M54 198V296H185L209 475H87V572H221L248 769H364L338 572H502L528 769H645L619 572H737V475H606L583 296H704V198H570L545 2H427L453 198H289L263 2H146L172 198H54ZM302 296H466L490 475H325L302 296Z" />
<glyph unicode="$" glyph-name="dollar" horiz-adv-x="627" d="M48 165L144 211Q174 163 220 136T321 109Q372 109 407 137T442 217Q442 244 432 263T398 299T350 325T283 355T207 389Q73 454 73 583Q73 649 119 708T257 784V871H377V782Q435 776 487 734T561
643L463 596Q406 681 317 681Q266 681 235 653T203 582Q203 565 207 551T222 526T243 506T276 487T313 470T359 450T411 429Q574 360 574 228Q574 138 520 80T377 5V-77H257V7Q196 13 136 58T48 165Z" />
<glyph unicode="%" glyph-name="percent" horiz-adv-x="1077" d="M580 182Q580 268 640 325T796 383Q891 383 951 326T1011 182Q1011 93 950 38T796 -18Q701 -18 641 38T580 182ZM700 182Q700 133 728 106T796 78Q836 78 863 106T891 182Q891 230 864 258T796
286Q755 286 728 258T700 182ZM67 609Q67 695 126 752T282 809Q377 809 437 753T497 609Q497 521 437 465T282 408Q187 408 127 465T67 609ZM187 609Q187 560 215 533T282 505Q322 505 349 533T377 609Q377 657 350 685T282 713Q241 713 214 685T187 609ZM195 -5L752
796H884L325 -5H195Z" />
<glyph unicode="&amp;" glyph-name="ampersand" horiz-adv-x="728" d="M180 211Q180 155 216 123T311 90Q385 90 448 156L280 376Q180 300 180 211ZM50 209Q50 357 218 466Q170 530 158 560Q148 587 148 615Q148 694 205 742T358 791Q441 791 498 749T583 644L488
603Q441 684 369 684Q327 684 303 664T279 611Q279 594 291 569T333 501T391 422T471 317Q498 282 512 264Q535 320 547 391L663 371Q645 255 591 162L719 0H566L518 62Q431 -19 309 -19Q186 -19 118 47T50 209Z" />
<glyph unicode="&apos;" glyph-name="quotesingle" horiz-adv-x="371" d="M89 556L185 879H331L192 556H89Z" />
<glyph unicode="(" glyph-name="parenleft" horiz-adv-x="476" d="M135 381Q135 673 318 916L411 863Q345 756 322 702Q262 561 262 381Q262 227 299 120T411 -102L318 -156Q230 -37 183 91T135 381Z" />
<glyph unicode=")" glyph-name="parenright" horiz-adv-x="476" d="M66 -102Q144 16 179 127T215 380Q215 465 204 536T168 668T123 768T66 863L159 916Q242 804 292 677T342 380Q342 216 294 89T159 -156L66 -102Z" />
<glyph unicode="*" glyph-name="asterisk" horiz-adv-x="600" d="M19 432L63 536L248 464L241 657H358L352 464L536 536L580 432L376 370L532 203L435 131L300 314L164 131L68 203L224 370L19 432Z" />
<glyph unicode="+" glyph-name="plus" horiz-adv-x="600" d="M29 334V446H236V656H362V446H571V334H362V116H236V334H29Z" />
<glyph unicode="," glyph-name="comma" horiz-adv-x="379" d="M45 -169L141 155H287L148 -169H45Z" />
<glyph unicode="-" glyph-name="hyphen" horiz-adv-x="600" d="M52 334V446H548V334H52Z" />
<glyph unicode="." glyph-name="period" horiz-adv-x="379" d="M106 0V154H274V0H106Z" />
<glyph unicode="/" glyph-name="slash" horiz-adv-x="405" d="M-16 -58L289 842H422L117 -58H-16Z" />
<glyph unicode="0" glyph-name="zero" horiz-adv-x="600" d="M176 395Q176 90 301 90Q336 90 360 115T398 185T418 281T424 395Q424 458 418 510T398 607T359 676T300 701Q176 701 176 395ZM40 395Q40 512 63 597T127 726T209 789T300 809Q425 809 492 700T560
395Q560 205 494 93T301 -19Q255 -19 213 0T130 62T65 191T40 395Z" />
<glyph unicode="1" glyph-name="one" horiz-adv-x="600" d="M86 558V658H122Q285 658 285 778V798H399V-9H264V558H86Z" />
<glyph unicode="2" glyph-name="two" horiz-adv-x="600" d="M45 596Q68 695 131 752T296 809Q403 809 471 748T539 581Q539 513 508 458T418 346Q407 335 361 290T299 228T256 176T213 108H537V0H53Q53 47 68 94T104 177T163 256T227 326T299 395Q310 405 315
410Q403 494 403 584Q403 639 373 670T294 701Q189 701 157 563L45 596Z" />
<glyph unicode="3" glyph-name="three" horiz-adv-x="600" d="M30 160L136 199Q183 90 288 90Q345 90 384 125T423 226Q423 285 380 322T271 359Q235 359 199 355V463Q225 461 267 461Q320 461 357 494T395 585Q395 636 363 668T282 701Q196 701 156 587L48 621Q69
704 132 756T290 809Q400 809 465 750T530 598Q530 537 499 489T421 417Q476 398 517 350T559 226Q559 111 486 47T289 -18Q190 -18 122 34T30 160Z" />
<glyph unicode="4" glyph-name="four" horiz-adv-x="600" d="M22 271L370 798H483V273H581V165H483V-7H353V165H22V271ZM146 273H353V495Q353 549 357 600H352Q330 562 298 509L146 273Z" />
<glyph unicode="5" glyph-name="five" horiz-adv-x="600" d="M40 147L149 186Q167 144 202 117T279 90Q342 90 378 132T415 246Q415 315 376 359T277 403Q203 403 148 331L65 363L107 791H507V682H228L204 475Q253 510 323 510Q424 510 487 440T550 249Q550 198
535 152T489 67T405 5T284 -18Q193 -18 132 27T40 147Z" />
<glyph unicode="6" glyph-name="six" horiz-adv-x="600" d="M181 252Q181 178 216 134T306 90Q360 90 394 133T428 252Q428 329 394 372T305 415Q251 415 216 370T181 252ZM44 359Q44 450 60 528T110 671T199 772T330 809Q489 809 558 646L455 610Q406 701 331
701Q229 701 192 534Q183 494 178 443Q197 477 235 500T324 523Q429 523 495 447T562 253Q562 135 495 59T310 -18Q186 -18 121 66Q44 161 44 359Z" />
<glyph unicode="7" glyph-name="seven" horiz-adv-x="600" d="M46 679V791H548V702Q361 404 269 -7H133Q200 340 395 679H46Z" />
<glyph unicode="8" glyph-name="eight" horiz-adv-x="600" d="M195 585Q195 533 224 501T300 469Q346 469 375 501T404 585Q404 634 376 667T300 701Q253 701 224 668T195 585ZM35 217Q35 296 76 345T173 417Q59 476 59 591Q59 686 128 747T300 809Q403 809 471
748T540 591Q540 475 426 417Q485 393 525 343T566 217Q566 112 492 47T300 -18Q189 -18 112 44T35 217ZM171 224Q171 166 207 128T300 90Q357 90 393 128T429 224Q429 280 393 321T300 362Q244 362 208 322T171 224Z" />
<glyph unicode="9" glyph-name="nine" horiz-adv-x="600" d="M170 541Q170 469 204 425T292 381Q346 381 379 425T413 541Q413 610 381 655T292 701Q238 701 204 656T170 541ZM37 146L143 181Q189 90 267 90Q308 90 338 113T386 175T411 256T420 348Q371 274 273
274Q174 274 106 346T37 540Q37 659 108 734T291 809Q385 809 448 749T534 591Q549 526 549 432Q549 217 479 100T266 -18Q183 -18 122 32T37 146Z" />
<glyph unicode=":" glyph-name="colon" horiz-adv-x="379" d="M106 68V224H274V68H106ZM106 492V648H274V492H106Z" />
<glyph unicode=";" glyph-name="semicolon" horiz-adv-x="379" d="M45 -100L141 224H287L148 -100H45ZM111 492V648H280V492H111Z" />
<glyph unicode="&lt;" glyph-name="less" horiz-adv-x="600" d="M43 325V442L480 769L549 673L168 384L549 94L480 -2L43 325Z" />
<glyph unicode="=" glyph-name="equal" horiz-adv-x="600" d="M52 224V336H548V224H52ZM52 445V557H548V445H52Z" />
<glyph unicode="&gt;" glyph-name="greater" horiz-adv-x="600" d="M119 -2L51 94L431 384L51 673L119 769L557 442V325L119 -2Z" />
<glyph unicode="?" glyph-name="question" horiz-adv-x="615" d="M64 621Q87 703 152 758T312 813Q417 813 482 752T548 589Q548 541 530 503T485 440T432 390T387 331T368 256V221H236V265Q236 307 249 342T282 401T324 447T367 490T400 537T413 595Q413 643
387 672T314 701Q226 701 181 582L64 621ZM217 -5V147H386V-5H217Z" />
<glyph unicode="@" glyph-name="at" horiz-adv-x="1005" d="M52 372Q52 572 184 700T523 829Q712 829 832 715T953 429Q953 347 932 285T875 189T802 139T724 122Q681 122 648 148T606 214H605Q591 179 551 151T460 123Q382 123 329 182T276 338Q276 467 342 541T500
615Q568 615 608 563L611 607H708L691 291Q690 255 701 237T732 219Q776 219 809 273T842 422Q842 561 755 648T523 735Q366 735 266 633T165 372Q165 204 262 107T513 10Q630 10 736 41L755 -46Q652 -83 513 -83Q303 -83 178 43T52 372ZM395 340Q395 294 417 260T476
226Q519 226 553 273T588 429Q588 469 569 494T510 520Q467 520 431 470T395 340Z" />
<glyph unicode="A" glyph-name="A" horiz-adv-x="708" d="M236 302H472L405 507Q398 529 390 556T372 615T357 664H351Q348 654 303 507L236 302ZM-4 0L282 791H427L712 0H572L507 196H201L136 0H-4Z" />
<glyph unicode="B" glyph-name="B" horiz-adv-x="713" d="M89 0V791H389Q515 791 578 735T641 582Q641 524 614 483T543 418Q593 400 631 351T669 230Q669 131 606 66T428 0H89ZM221 112H405Q458 112 495 143T533 230Q533 283 499 317T402 351H221V112ZM221 462H376Q433
462 469 489T505 572Q505 621 475 649T380 678H221V462Z" />
<glyph unicode="C" glyph-name="C" horiz-adv-x="713" d="M42 396Q42 586 140 697T393 809Q493 809 564 754T671 618L558 581Q494 696 391 696Q293 696 236 615T178 396Q178 257 236 176T391 95Q454 95 502 133T573 226L691 189Q676 153 653 120T594 54T506 2T393
-18Q241 -18 142 92T42 396Z" />
<glyph unicode="D" glyph-name="D" horiz-adv-x="737" d="M89 0V791H324Q503 791 600 689T697 396Q697 331 685 275T646 167T576 80T470 22T323 0H89ZM221 111H308Q560 111 560 396Q560 548 494 613T310 679H221V111Z" />
<glyph unicode="E" glyph-name="E" horiz-adv-x="649" d="M89 0V791H608V678H221V464H570V353H221V112H618V0H89Z" />
<glyph unicode="F" glyph-name="F" horiz-adv-x="607" d="M89 0V791H593V678H221V452H554V341H221V0H89Z" />
<glyph unicode="G" glyph-name="G" horiz-adv-x="763" d="M42 396Q42 577 139 693T399 809Q460 809 511 789T597 738T651 678T685 620L572 583Q551 615 534 636T480 676T400 696Q296 696 237 614T178 396Q178 257 238 176T394 95Q477 95 524 143T577 265Q580 310
580 330H386V442H708V0H617L605 81Q540 -18 390 -18Q240 -18 141 94T42 396Z" />
<glyph unicode="H" glyph-name="H" horiz-adv-x="759" d="M89 0V791H220V462H540V791H671V0H540V351H220V0H89Z" />
<glyph unicode="I" glyph-name="I" horiz-adv-x="308" d="M89 0V791H221V0H89Z" />
<glyph unicode="J" glyph-name="J" horiz-adv-x="552" d="M9 147L118 191Q130 150 158 123T228 95Q278 95 305 133T332 243V791H464V225Q464 109 404 46T231 -18Q140 -18 85 30T9 147Z" />
<glyph unicode="K" glyph-name="K" horiz-adv-x="700" d="M89 0V791H221V433H223L530 791H697L391 445L705 0H546L308 352L221 253V0H89Z" />
<glyph unicode="L" glyph-name="L" horiz-adv-x="589" d="M89 0V791H221V112H579V0H89Z" />
<glyph unicode="M" glyph-name="M" horiz-adv-x="919" d="M89 0V791H250L389 423Q404 382 427 312T457 220H461Q511 365 532 423L668 791H831V0H701V359Q701 449 715 603H711L654 435L509 45H411L268 435L209 604H204Q220 460 220 359V0H89Z" />
<glyph unicode="N" glyph-name="N" horiz-adv-x="764" d="M89 0V791H227L466 356L554 196H559Q544 301 544 424V791H676V0H538L299 427L211 592H206Q221 475 221 364V0H89Z" />
<glyph unicode="O" glyph-name="O" horiz-adv-x="763" d="M42 395Q42 581 135 695T382 809Q536 809 628 696T721 395Q721 208 628 95T382 -18Q228 -18 135 95T42 395ZM178 395Q178 256 232 176T382 95Q476 95 530 175T585 395Q585 533 532 614T382 696Q287 696
233 615T178 395Z" />
<glyph unicode="P" glyph-name="P" horiz-adv-x="696" d="M89 0V791H398Q522 791 591 725T661 549Q661 437 590 372T400 307H221V0H89ZM221 419H382Q450 419 488 452T526 549Q526 612 489 645T381 678H221V419Z" />
<glyph unicode="Q" glyph-name="Q" horiz-adv-x="763" d="M42 395Q42 583 135 696T382 809Q535 809 628 695T721 395Q721 210 629 96T382 -18Q228 -18 135 96T42 395ZM178 395Q178 256 232 176T382 95Q477 95 531 175T585 395Q585 536 531 616T382 696Q287 696
233 615T178 395ZM352 249L427 317L721 12L646 -55L352 249Z" />
<glyph unicode="R" glyph-name="R" horiz-adv-x="718" d="M221 428H387Q454 428 490 461T526 556Q526 611 489 644T384 678H221V428ZM89 0V791H409Q531 791 596 727T662 567Q662 486 626 435T543 366Q581 340 597 311T624 223Q648 105 710 0H563Q514 83 486 213Q475
264 454 290T386 316H221V0H89Z" />
<glyph unicode="S" glyph-name="S" horiz-adv-x="654" d="M27 169L143 208Q171 158 224 127T341 95Q407 95 447 127T487 210Q487 264 445 294T320 352Q203 391 162 414Q55 475 55 591Q55 689 132 749T333 809Q435 809 507 762T613 640L502 603Q438 696 332 696Q267
696 229 667T191 591Q191 577 194 565T206 541T222 522T245 505T270 491T302 478T333 467T369 456T404 444Q450 429 485 412T553 369T605 303T623 215Q623 104 544 43T338 -18Q229 -18 147 32T27 169Z" />
<glyph unicode="T" glyph-name="T" horiz-adv-x="608" d="M11 678V791H599V678H371V0H239V678H11Z" />
<glyph unicode="U" glyph-name="U" horiz-adv-x="754" d="M85 296V791H218V296Q218 194 260 145T377 95Q454 95 496 146T538 296V791H670V296Q670 145 596 64T377 -18Q237 -18 161 61T85 296Z" />
<glyph unicode="V" glyph-name="V" horiz-adv-x="659" d="M1 791H144L277 334Q323 156 328 138L332 137Q356 229 383 334L516 791H659L404 0H256L1 791Z" />
<glyph unicode="W" glyph-name="W" horiz-adv-x="941" d="M13 791H152L233 355Q252 243 267 143H272Q302 309 311 355L404 791H537L631 355Q638 322 652 242T670 143H675Q680 174 692 249T710 355L790 791H929L751 0H600L510 430Q475 617 473 631H469Q469 628
432 430L342 0H192L13 791Z" />
<glyph unicode="X" glyph-name="X" horiz-adv-x="663" d="M2 0L255 406L15 791H171L267 619Q276 602 297 564T330 504H334Q337 510 399 619L496 791H651L410 406L664 0H511L403 185Q389 208 334 305H330Q272 201 263 185L156 0H2Z" />
<glyph unicode="Y" glyph-name="Y" horiz-adv-x="675" d="M-2 791H149L271 558Q317 468 336 428H340Q362 470 406 558L527 791H679L405 321V0H273V321L-2 791Z" />
<glyph unicode="Z" glyph-name="Z" horiz-adv-x="648" d="M34 96L444 678H67V791H607V693L196 112H618V0H34V96Z" />
<glyph unicode="[" glyph-name="bracketleft" horiz-adv-x="476" d="M133 -129V889H387V785H261V-24H387V-129H133Z" />
<glyph unicode="\" glyph-name="backslash" horiz-adv-x="389" d="M-16 842H116L407 -57H275L-16 842Z" />
<glyph unicode="]" glyph-name="bracketright" horiz-adv-x="476" d="M89 -24H217V785H89V889H344V-129H89V-24Z" />
<glyph unicode="^" glyph-name="asciicircum" horiz-adv-x="570" d="M11 495L226 871H344L559 495H428L321 700L286 770H285L249 698L142 495H11Z" />
<glyph unicode="_" glyph-name="underscore" horiz-adv-x="524" d="M6 -9H521V-113H6V-9Z" />
<glyph unicode="`" glyph-name="grave" horiz-adv-x="371" d="M180 556L41 879H186L283 556H180Z" />
<glyph unicode="a" glyph-name="a" horiz-adv-x="589" d="M163 162Q163 130 188 109T256 87Q316 87 358 127T401 232V285Q355 274 290 264Q163 244 163 162ZM35 151Q35 314 277 350Q365 363 401 374V405Q401 447 371 471T291 495Q196 495 127 417L50 483Q95 536
157 565T289 595Q418 595 473 533T528 358V0H405V72Q387 35 343 9T238 -18Q143 -18 89 29T35 151Z" />
<glyph unicode="b" glyph-name="b" horiz-adv-x="629" d="M75 0V817H200V512Q223 546 261 570T349 595Q455 595 524 514T593 289Q593 224 578 171T539 84T483 26T417 -8T350 -18Q299 -18 258 9T198 74V0H75ZM199 289Q199 197 235 144T331 90Q389 90 426 141T463
289Q463 380 428 433T331 487Q271 487 235 433T199 289Z" />
<glyph unicode="c" glyph-name="c" horiz-adv-x="555" d="M36 288Q36 427 110 511T303 595Q389 595 448 543T522 424L414 394Q402 432 373 459T304 487Q239 487 203 430T166 288Q166 194 205 142T304 90Q348 90 381 120T428 190L536 159Q517 89 453 36T303 -18Q185
-18 111 65T36 288Z" />
<glyph unicode="d" glyph-name="d" horiz-adv-x="629" d="M36 289Q36 431 105 513T282 595Q333 595 370 571T428 513V817H554V0H432V75Q414 37 373 10T281 -18Q236 -18 194 -1T116 51T58 147T36 289ZM166 289Q166 195 202 143T299 90Q357 90 393 143T430 289Q430
378 395 432T299 487Q236 487 201 433T166 289Z" />
<glyph unicode="e" glyph-name="e" horiz-adv-x="601" d="M36 291Q36 430 112 512T305 595Q419 595 493 512T567 296Q567 270 564 245H164Q164 179 203 132T312 84Q360 84 396 107T452 168L558 132Q530 68 467 25T310 -18Q189 -18 113 66T36 291ZM166 334H438Q438
400 403 446T305 493Q242 493 205 446T166 334Z" />
<glyph unicode="f" glyph-name="f" horiz-adv-x="373" d="M24 469V577H112V639Q112 728 156 772T282 817H373V710H300Q269 710 255 691T240 630V577H360V469H240V0H112V469H24Z" />
<glyph unicode="g" glyph-name="g" horiz-adv-x="612" d="M168 299Q168 211 202 162T294 113Q350 113 384 161T418 300Q418 389 384 438T295 487Q237 487 203 436T168 299ZM39 298Q39 433 106 514T278 595Q331 595 367 569T419 510V577H545V80Q545 -83 482 -161T286
-240Q141 -240 61 -128L145 -70Q203 -138 288 -138Q343 -138 379 -96T418 14Q420 54 420 80Q401 48 363 27T282 5Q173 5 106 85T39 298Z" />
<glyph unicode="h" glyph-name="h" horiz-adv-x="607" d="M75 0V817H200V518H203Q226 551 266 573T352 595Q435 595 490 542T545 371V0H419V355Q419 487 329 487Q274 487 237 440T200 330V0H75Z" />
<glyph unicode="i" glyph-name="i" horiz-adv-x="288" d="M76 663V802H212V663H76ZM82 0V577H207V0H82Z" />
<glyph unicode="j" glyph-name="j" horiz-adv-x="294" d="M81 663V802H219V663H81ZM-12 -119H8Q87 -119 87 -7V577H214V-12Q214 -119 167 -173T29 -227H-12V-119Z" />
<glyph unicode="k" glyph-name="k" horiz-adv-x="568" d="M76 0V817H202V347L407 577H566L353 342L579 0H431L271 253L202 177V0H76Z" />
<glyph unicode="l" glyph-name="l" horiz-adv-x="285" d="M80 0V817H206V0H80Z" />
<glyph unicode="m" glyph-name="m" horiz-adv-x="892" d="M69 0V577H192V510Q207 539 246 567T340 595Q435 595 480 492Q487 506 498 520T530 553T583 583T654 595Q831 595 831 371V0H703V367Q703 427 686 457T626 487Q575 487 544 445T512 340V0H387V370Q387
487 309 487Q255 487 226 447T196 342V0H69Z" />
<glyph unicode="n" glyph-name="n" horiz-adv-x="602" d="M69 0V577H192V504H193Q208 536 248 565T353 595Q439 595 490 542T541 371V0H414V354Q414 487 324 487Q269 487 233 443T196 334V0H69Z" />
<glyph unicode="o" glyph-name="o" horiz-adv-x="604" d="M166 288Q166 188 207 139T303 90Q357 90 398 139T439 288Q439 390 398 438T303 487Q249 487 208 439T166 288ZM36 288Q36 417 104 506T303 595Q433 595 501 506T569 288Q569 248 562 208T535 127T487
54T411 2T303 -18Q244 -18 197 1T120 51T71 123T44 205T36 288Z" />
<glyph unicode="p" glyph-name="p" horiz-adv-x="629" d="M200 289Q200 198 234 144T331 90Q390 90 427 142T464 289Q464 380 429 433T331 487Q270 487 235 432T200 289ZM75 -236V577H197V502Q250 595 349 595Q454 595 523 513T593 289Q593 210 571 149T513 52T435
0T349 -18Q293 -18 256 7T201 67V-236H75Z" />
<glyph unicode="q" glyph-name="q" horiz-adv-x="628" d="M166 289Q166 195 202 143T298 90Q358 90 394 143T430 289Q430 377 395 432T299 487Q236 487 201 432T166 289ZM36 289Q36 430 105 512T281 595Q331 595 370 569T432 502V577H554V-236H428V68Q409 32 371
7T281 -18Q237 -18 195 -1T117 52T58 148T36 289Z" />
<glyph unicode="r" glyph-name="r" horiz-adv-x="402" d="M69 0V577H191V515Q210 547 245 571T330 595Q376 595 405 582V467Q367 479 330 479Q265 479 231 429T196 294V0H69Z" />
<glyph unicode="s" glyph-name="s" horiz-adv-x="534" d="M26 120L117 173Q177 85 273 85Q320 85 347 103T375 153Q375 178 353 197T305 225T230 251Q221 254 217 255Q181 267 157 278T105 309T64 358T50 427Q50 503 114 549T273 595Q344 595 407 558T501 462L417
411Q358 492 274 492Q228 492 204 474T179 425Q179 400 200 381T245 352T310 329Q321 326 326 324Q504 267 504 152Q504 81 445 32T276 -18Q192 -18 127 19T26 120Z" />
<glyph unicode="t" glyph-name="t" horiz-adv-x="396" d="M18 469V577H107V748H233V577H365V469H233V185Q233 144 249 126T300 108H366V0H284Q107 0 107 176V469H18Z" />
<glyph unicode="u" glyph-name="u" horiz-adv-x="600" d="M62 209V577H189V225Q189 90 284 90Q341 90 373 138T405 254V577H531V0H409V67H408Q394 36 355 9T256 -18Q221 -18 190 -8T128 26T80 97T62 209Z" />
<glyph unicode="v" glyph-name="v" horiz-adv-x="560" d="M9 577H147L234 281Q242 251 257 190T279 107H281Q287 130 304 191T329 281L415 577H553L353 0H209L9 577Z" />
<glyph unicode="w" glyph-name="w" horiz-adv-x="796" d="M9 577H145L205 287Q211 253 235 123H239Q244 151 255 209T271 287L332 577H465L527 285Q531 262 542 207T559 123H563Q568 151 579 213T593 287L652 577H788L632 0H491L430 281Q417 345 401 440H397Q392
409 381 352T367 281L306 0H165L9 577Z" />
<glyph unicode="x" glyph-name="x" horiz-adv-x="572" d="M6 0L211 296L16 577H169L243 452Q271 402 283 382H287Q303 411 326 452L400 577H554L359 296L565 0H415L330 139Q322 152 308 175T287 211H283Q279 204 240 139L155 0H6Z" />
<glyph unicode="y" glyph-name="y" horiz-adv-x="560" d="M7 577H146L245 280Q270 198 283 147H287Q292 165 324 280L415 577H553L314 -76Q282 -164 232 -200T106 -236H67V-130H85Q130 -130 158 -111T204 -43L223 14L7 577Z" />
<glyph unicode="z" glyph-name="z" horiz-adv-x="526" d="M26 0V84L324 469H50V577H489V498L189 108H501V0H26Z" />
<glyph unicode="{" glyph-name="braceleft" horiz-adv-x="476" d="M62 330V428H96Q123 428 137 459T152 543V737Q152 810 193 849T302 889H392V785H325Q304 785 292 769T279 723V527Q279 430 203 379Q279 332 279 236V40Q279 -24 327 -24H392V-129H302Q237 -129
195 -91T152 22V220Q152 266 138 298T96 330H62Z" />
<glyph unicode="|" glyph-name="bar" horiz-adv-x="316" d="M95 -168V926H222V-168H95Z" />
<glyph unicode="}" glyph-name="braceright" horiz-adv-x="476" d="M85 -24H151Q198 -24 198 40V236Q198 329 274 380Q198 430 198 527V723Q198 752 186 768T152 785H85V889H175Q243 889 284 850T325 737V543Q325 428 381 428H415V330H381Q353 330 339 298T325
220V22Q325 -53 283 -91T175 -129H85V-24Z" />
<glyph unicode="~" glyph-name="asciitilde" horiz-adv-x="849" d="M68 323Q140 508 297 508Q341 508 380 487T443 440T496 393T551 371Q572 371 590 379T620 398T643 427T659 456T672 487L782 439Q712 253 555 253Q520 253 488 267T432 302T387 342T342 377T297
392Q224 392 178 275L68 323Z" />
<glyph unicode="&#xa0;" glyph-name=".notdef" horiz-adv-x="250" />
<glyph unicode="&#xa1;" glyph-name="exclamdown" horiz-adv-x="334" d="M96 -218L106 352H229L237 -218H96ZM83 429V581H252V429H83Z" />
<glyph unicode="&#xa2;" glyph-name="cent" horiz-adv-x="554" d="M36 289Q36 403 89 485T240 587V670H355V588Q421 573 464 526T522 424L415 394Q401 432 374 459T306 487Q239 487 203 431T166 289Q166 199 203 145T305 90Q350 90 382 119T428 190L535 160Q520
104 474 55T355 -12V-100H240V-10Q150 8 93 88T36 289Z" />
<glyph unicode="&#xa3;" glyph-name="sterling" horiz-adv-x="648" d="M42 334V446H155V604Q155 703 221 756T398 809Q471 809 527 770T609 682L510 632Q468 694 399 694Q349 694 317 669T285 591V446H502V334H285V236Q285 156 256 124Q295 131 315 131Q347 131
397 113T484 94Q544 94 605 126L640 18Q557 -18 483 -18Q447 -18 377 0T273 19Q235 19 184 12T101 -4L69 -12L37 81Q155 108 155 229V334H42Z" />
<glyph unicode="&#xa4;" glyph-name="currency" horiz-adv-x="707" d="M23 160L141 269Q104 321 104 392Q104 465 140 516L23 623L111 706L222 598Q286 638 354 638Q419 638 486 598L597 706L684 623L568 516Q604 467 604 392Q604 321 567 269L684 160L597 78L486
185Q422 145 354 145Q284 145 222 185L111 78L23 160ZM220 392Q220 337 257 298T354 258Q413 258 450 297T488 392Q488 448 450 486T354 525Q295 525 258 485T220 392Z" />
<glyph unicode="&#xa5;" glyph-name="yen" horiz-adv-x="674" d="M-2 791H149L262 606Q312 520 336 477H340Q351 497 363 518T391 566T415 606L527 791H679L456 453H609V359H404V254H609V161H404V0H272V161H67V254H272V359H67V453H220L-2 791Z" />
<glyph unicode="&#xa6;" glyph-name="brokenbar" horiz-adv-x="316" d="M95 489V926H222V489H95ZM95 -167V268H222V-167H95Z" />
<glyph unicode="&#xa7;" glyph-name="section" horiz-adv-x="592" d="M41 58L126 122Q150 92 189 73T274 53Q373 53 373 107Q373 125 360 138T317 164L204 217Q61 281 61 386Q61 470 149 534Q89 582 89 646Q89 719 147 764T323 809Q469 809 551 699L468 633Q407
699 320 699Q272 699 247 685T221 645Q221 635 224 627T236 611T252 598T275 585T301 572T331 559T363 545Q452 504 482 480Q548 429 548 351Q548 266 468 204Q505 161 505 107Q505 31 448 -13T274 -58Q198 -58 134 -24T41 58ZM194 390Q194 358 213 341T275 303L367
261Q416 306 416 351Q416 378 395 397T331 436L248 478Q194 438 194 390Z" />
<glyph unicode="&#xa8;" glyph-name="dieresis" horiz-adv-x="554" d="M103 651V791H240V651H103ZM315 651V791H452V651H315Z" />
<glyph unicode="&#xa9;" glyph-name="copyright" horiz-adv-x="918" d="M253 401Q253 520 313 585T472 651Q545 651 589 611T651 512L562 485Q530 560 473 560Q418 560 389 519T360 401Q360 320 390 281T473 242Q510 242 535 266T572 323L662 297Q646 235 597
193T472 151Q375 151 314 216T253 401ZM39 400Q39 594 158 711T459 829Q643 829 761 711T880 400Q880 211 762 92T459 -27Q278 -27 159 89T39 400ZM133 400Q133 243 223 149T459 55Q600 55 693 146T787 400Q787 559 696 653T459 747Q314 747 224 653T133 400Z"
/>
<glyph unicode="&#xaa;" glyph-name="ordfeminine" horiz-adv-x="415" d="M31 307V388H385V307H31ZM117 577Q117 555 134 540T181 525Q223 525 252 553T282 626V664Q268 661 242 656T202 649T169 640T141 626T124 606T117 577ZM26 570Q26 610 45 638T97 680T161
703T230 717T282 727V748Q282 778 261 794T205 811Q139 811 91 756L36 802Q62 834 107 857T204 880Q295 880 333 837T372 715V463H286V514Q248 451 169 451Q103 451 65 484T26 570Z" />
<glyph unicode="&#xab;" glyph-name="guillemotleft" horiz-adv-x="559" d="M40 285L218 550L310 489L176 285L308 84L218 21L40 285ZM254 285L432 537L520 469L389 285L520 99L432 33L254 285Z" />
<glyph unicode="&#xac;" glyph-name="logicalnot" horiz-adv-x="598" d="M50 318V430H550V128H429V318H50Z" />
<glyph unicode="&#xad;" glyph-name=".notdef" horiz-adv-x="607" d="M60 338V450H547V338H60Z" />
<glyph unicode="&#xae;" glyph-name="registered" horiz-adv-x="918" d="M293 155V640H493Q567 640 607 598T648 497Q648 415 585 380Q604 364 612 346T627 296Q639 243 686 155H567Q535 201 518 286Q509 329 499 337Q491 345 477 345H400V155H293ZM400 427H478Q507
427 523 443T539 487Q539 511 523 528T478 545H400V427ZM39 402Q39 596 158 712T459 829Q643 829 761 711T880 402Q880 212 762 93T459 -27Q279 -27 159 90T39 402ZM133 402Q133 243 221 152T459 60Q604 60 695 150T787 402Q787 563 695 652T459 742Q312 742 223
651T133 402Z" />
<glyph unicode="&#xaf;" glyph-name="overscore" horiz-adv-x="531" d="M3 745V856H529V745H3Z" />
<glyph unicode="&#xb0;" glyph-name="degree" horiz-adv-x="463" d="M88 656Q88 715 129 756T232 797Q292 797 334 758T376 656Q376 596 334 555T232 514Q172 514 130 555T88 656ZM170 656Q170 629 187 611T232 592Q258 592 276 610T294 656Q294 682 277 700T232
719Q204 719 187 701T170 656Z" />
<glyph unicode="&#xb1;" glyph-name="plusminus" horiz-adv-x="607" d="M41 429V538H240V713H366V538H565V429H366V257H240V429H41ZM43 85V195H564V85H43Z" />
<glyph unicode="&#xb2;" glyph-name="twosuperior" horiz-adv-x="354" d="M26 747Q31 768 36 781T58 822T104 865T177 881Q241 881 281 844T322 744Q322 678 255 609Q249 602 219 573T171 525T142 483H321V406H31Q31 472 63 520T182 652Q230 697 230 745Q230 773
216 788T176 804Q123 804 103 725L26 747Z" />
<glyph unicode="&#xb3;" glyph-name="threesuperior" horiz-adv-x="354" d="M17 509L89 536Q117 472 171 472Q201 472 221 490T241 542Q241 572 219 590T162 609Q130 609 114 607V684Q150 682 160 682Q188 682 206 698T225 745Q225 771 209 787T168 804Q141 804
127 787T102 738L27 761Q36 798 54 823T95 860T136 876T172 880Q238 880 277 844T317 753Q317 687 265 651Q334 616 334 542Q334 474 290 435T172 395Q118 395 76 424T17 509Z" />
<glyph unicode="&#xb4;" glyph-name="acute" horiz-adv-x="411" d="M89 696L203 885H356L196 696H89Z" />
<glyph unicode="&#xb5;" glyph-name="mu" horiz-adv-x="608" d="M75 -236V577H201V225Q201 90 296 90Q354 90 385 139T417 254V577H543V0H422V65H421Q408 33 368 8T273 -18Q228 -18 201 11V-236H75Z" />
<glyph unicode="&#xb6;" glyph-name="paragraph" horiz-adv-x="681" d="M54 590Q54 698 111 764T276 830H595V-77H491V714H412V-77H308V347Q284 340 261 340Q173 340 114 404T54 590Z" />
<glyph unicode="&#xb7;" glyph-name="middot" horiz-adv-x="375" d="M104 303V457H272V303H104Z" />
<glyph unicode="&#xb8;" glyph-name="cedilla" horiz-adv-x="333" d="M46 -143Q88 -152 113 -152Q168 -152 168 -123Q168 -86 72 -81L133 43H244L212 -23Q286 -48 286 -125Q286 -173 249 -207T123 -242Q73 -242 46 -233V-143Z" />
<glyph unicode="&#xb9;" glyph-name="onesuperior" horiz-adv-x="354" d="M47 724V796H74Q159 796 159 857V875H240V407H148V724H47Z" />
<glyph unicode="&#xba;" glyph-name="ordmasculine" horiz-adv-x="422" d="M116 666Q116 596 144 562T211 527Q249 527 278 561T307 666Q307 737 278 771T211 805Q172 805 144 771T116 666ZM24 666Q24 757 71 819T211 881Q302 881 350 819T398 666Q398 630 389
595T360 527T302 472T211 451Q160 451 122 471T63 524T34 593T24 666ZM31 313V393H392V313H31Z" />
<glyph unicode="&#xbb;" glyph-name="guillemotright" horiz-adv-x="558" d="M40 469L128 537L306 285L128 33L40 99L171 285L40 469ZM252 85L384 285L250 489L342 550L520 285L342 21L252 85Z" />
<glyph unicode="&#xbc;" glyph-name="onequarter" horiz-adv-x="1049" d="M67 673V762H103Q196 762 196 828V853H294V312H182V673H67ZM602 142L833 492H925V152H987V57H925V-54H815V57H602V142ZM715 152H815V258Q815 267 815 290T816 318L785 264L715 152ZM181
-55L687 842H806L302 -55H181Z" />
<glyph unicode="&#xbd;" glyph-name="onehalf" horiz-adv-x="1049" d="M67 673V762H103Q196 762 196 828V853H294V312H182V673H67ZM620 339Q655 497 796 497Q870 497 917 454T965 338Q965 301 950 267T917 213T866 160Q782 80 763 45H964V-50H627Q627 25 660 80T799
236Q853 287 853 339Q853 369 838 385T795 402Q778 402 765 395T744 379T730 354T722 332T716 310L620 339ZM166 -55L678 842H797L288 -55H166Z" />
<glyph unicode="&#xbe;" glyph-name="threequarters" horiz-adv-x="1049" d="M56 439L145 472Q176 399 237 399Q269 399 290 418T312 474Q312 507 288 527T226 547Q195 547 167 544V640Q189 638 223 638Q252 638 273 655T294 705Q294 732 277 750T233 768Q212
768 197 756T175 729T160 692L68 721Q86 795 134 829T238 863Q314 863 360 821T406 714Q406 643 349 599Q425 557 425 474Q425 395 374 350T238 304Q180 304 129 335T56 439ZM607 142L837 492H930V152H992V57H930V-54H820V57H607V142ZM720 152H820V254Q820 263
820 288T821 318L788 260L720 152ZM239 -55L755 842H874L360 -55H239Z" />
<glyph unicode="&#xbf;" glyph-name="questiondown" horiz-adv-x="615" d="M67 -12Q67 36 85 74T130 138T183 188T228 247T247 323V355H380V312Q380 262 362 222T318 156T266 105T221 50T203 -18Q203 -67 229 -95T301 -123Q389 -123 434 -5L551 -44Q528 -126 463
-181T302 -236Q198 -236 133 -175T67 -12ZM228 430V581H397V430H228Z" />
<glyph unicode="&#xc0;" glyph-name="Agrave" horiz-adv-x="708" d="M236 302H472L405 507Q398 529 390 556T372 615T357 664H351Q348 654 303 507L236 302ZM-4 0L282 791H427L712 0H572L507 196H201L136 0H-4ZM415 1048H568L682 859H575L415 1048Z" />
<glyph unicode="&#xc1;" glyph-name="Aacute" horiz-adv-x="708" d="M236 302H472L405 507Q398 529 390 556T372 615T357 664H351Q348 654 303 507L236 302ZM-4 0L282 791H427L712 0H572L507 196H201L136 0H-4ZM273 859L387 1048H540L380 859H273Z" />
<glyph unicode="&#xc2;" glyph-name="Acircumflex" horiz-adv-x="708" d="M236 302H472L405 507Q398 529 390 556T372 615T357 664H351Q348 654 303 507L236 302ZM-4 0L282 791H427L712 0H572L507 196H201L136 0H-4ZM126 859L299 1044H407L584 859H453L354 978L257
859H126Z" />
<glyph unicode="&#xc3;" glyph-name="Atilde" horiz-adv-x="708" d="M236 302H472L405 507Q398 529 390 556T372 615T357 664H351Q348 654 303 507L236 302ZM-4 0L282 791H427L712 0H572L507 196H201L136 0H-4ZM110 925Q174 1022 265 1022Q303 1022 354 992T425
961Q477 961 513 1023L582 967Q518 867 428 867Q389 867 339 897T268 928Q243 928 220 911T181 868L110 925Z" />
<glyph unicode="&#xc4;" glyph-name="Adieresis" horiz-adv-x="708" d="M236 302H472L405 507Q398 529 390 556T372 615T357 664H351Q348 654 303 507L236 302ZM-4 0L282 791H427L712 0H572L507 196H201L136 0H-4ZM425 892V1019H559V892H425ZM659 892V1019H792V892H659Z" />
<glyph unicode="&#xc5;" glyph-name="Aring" horiz-adv-x="708" d="M236 302H472L405 507Q398 529 390 556T372 615T357 664H351Q348 654 303 507L236 302ZM-4 0L282 791H427L712 0H572L507 196H201L136 0H-4ZM198 964Q198 1026 242 1070T354 1115Q422 1115 466
1070T510 964Q510 900 465 856T354 812Q290 812 244 855T198 964ZM285 964Q285 935 304 915T354 895Q382 895 401 914T421 964Q421 993 402 1013T354 1033Q325 1033 305 1013T285 964Z" />
<glyph unicode="&#xc6;" glyph-name="AE" horiz-adv-x="1029" d="M291 302H496V666H486L291 302ZM-5 0L419 791H988V679H627V464H950V353H619V112H998V0H496V196H238L135 0H-5Z" />
<glyph unicode="&#xc7;" glyph-name="Ccedilla" horiz-adv-x="713" d="M42 396Q42 586 140 697T393 809Q493 809 564 754T671 618L558 581Q494 696 391 696Q293 696 236 615T178 396Q178 257 236 176T391 95Q454 95 502 133T573 226L691 189Q676 153 653 120T594
54T506 2T393 -18Q241 -18 142 92T42 396ZM530 -146Q588 -158 625 -158Q650 -158 672 -149T695 -118Q695 -81 580 -81L605 16H718L703 -37Q746 -44 770 -67T795 -127Q795 -172 755 -205T629 -238Q582 -238 530 -225V-146Z" />
<glyph unicode="&#xc8;" glyph-name="Egrave" horiz-adv-x="649" d="M89 0V791H608V678H221V464H570V353H221V112H618V0H89ZM420 1048H573L687 859H580L420 1048Z" />
<glyph unicode="&#xc9;" glyph-name="Eacute" horiz-adv-x="649" d="M89 0V791H608V678H221V464H570V353H221V112H618V0H89ZM518 859L632 1048H785L625 859H518Z" />
<glyph unicode="&#xca;" glyph-name="Ecircumflex" horiz-adv-x="649" d="M373 859L546 1044H654L831 859H700L601 978L504 859H373ZM89 0V791H608V678H221V464H570V353H221V112H618V0H89Z" />
<glyph unicode="&#xcb;" glyph-name="Edieresis" horiz-adv-x="649" d="M89 0V791H608V678H221V464H570V353H221V112H618V0H89ZM416 892V1019H550V892H416ZM650 892V1019H783V892H650Z" />
<glyph unicode="&#xcc;" glyph-name="Igrave" horiz-adv-x="308" d="M89 0V791H221V0H89ZM-34 1048H119L233 859H126L-34 1048Z" />
<glyph unicode="&#xcd;" glyph-name="Iacute" horiz-adv-x="308" d="M89 0V791H221V0H89ZM68 859L182 1048H335L175 859H68Z" />
<glyph unicode="&#xce;" glyph-name="Icircumflex" horiz-adv-x="308" d="M89 0V791H221V0H89ZM-74 859L99 1044H207L384 859H253L154 978L57 859H-74Z" />
<glyph unicode="&#xcf;" glyph-name="Idieresis" horiz-adv-x="308" d="M89 0V791H221V0H89ZM-29 892V1019H105V892H-29ZM205 892V1019H338V892H205Z" />
<glyph unicode="&#xd0;" glyph-name="Eth" horiz-adv-x="737" d="M89 0V791H324Q503 791 600 689T697 396Q697 331 685 275T646 167T576 80T470 22T323 0H89ZM221 111H308Q560 111 560 396Q560 548 494 613T310 679H221V111ZM267 347V451H677V347H267Z" />
<glyph unicode="&#xd1;" glyph-name="Ntilde" horiz-adv-x="764" d="M143 925Q207 1022 298 1022Q336 1022 387 992T458 961Q510 961 546 1023L615 967Q551 867 461 867Q422 867 372 897T301 928Q276 928 253 911T214 868L143 925ZM89 0V791H227L466 356L554 196H559Q544
301 544 424V791H676V0H538L299 427L211 592H206Q221 475 221 364V0H89Z" />
<glyph unicode="&#xd2;" glyph-name="Ograve" horiz-adv-x="763" d="M42 395Q42 581 135 695T382 809Q536 809 628 696T721 395Q721 208 628 95T382 -18Q228 -18 135 95T42 395ZM178 395Q178 256 232 176T382 95Q476 95 530 175T585 395Q585 533 532 614T382 696Q287
696 233 615T178 395ZM188 1057H341L455 868H348L188 1057Z" />
<glyph unicode="&#xd3;" glyph-name="Oacute" horiz-adv-x="763" d="M42 395Q42 581 135 695T382 809Q536 809 628 696T721 395Q721 208 628 95T382 -18Q228 -18 135 95T42 395ZM178 395Q178 256 232 176T382 95Q476 95 530 175T585 395Q585 533 532 614T382 696Q287
696 233 615T178 395ZM305 868L419 1057H572L412 868H305Z" />
<glyph unicode="&#xd4;" glyph-name="Ocircumflex" horiz-adv-x="763" d="M42 395Q42 581 135 695T382 809Q536 809 628 696T721 395Q721 208 628 95T382 -18Q228 -18 135 95T42 395ZM178 395Q178 256 232 176T382 95Q476 95 530 175T585 395Q585 533 532 614T382
696Q287 696 233 615T178 395ZM153 868L326 1053H434L611 868H480L381 987L284 868H153Z" />
<glyph unicode="&#xd5;" glyph-name="Otilde" horiz-adv-x="763" d="M143 925Q207 1022 298 1022Q336 1022 387 992T458 961Q510 961 546 1023L615 967Q551 867 461 867Q422 867 372 897T301 928Q276 928 253 911T214 868L143 925ZM42 395Q42 581 135 695T382
809Q536 809 628 696T721 395Q721 208 628 95T382 -18Q228 -18 135 95T42 395ZM178 395Q178 256 232 176T382 95Q476 95 530 175T585 395Q585 533 532 614T382 696Q287 696 233 615T178 395Z" />
<glyph unicode="&#xd6;" glyph-name="Odieresis" horiz-adv-x="763" d="M42 395Q42 581 135 695T382 809Q536 809 628 696T721 395Q721 208 628 95T382 -18Q228 -18 135 95T42 395ZM178 395Q178 256 232 176T382 95Q476 95 530 175T585 395Q585 533 532 614T382
696Q287 696 233 615T178 395ZM198 892V1019H332V892H198ZM432 892V1019H565V892H432Z" />
<glyph unicode="&#xd7;" glyph-name="multiply" horiz-adv-x="600" d="M38 220L221 393L38 565L120 645L300 470L479 645L561 566L379 393L561 219L479 140L300 315L120 140L38 220Z" />
<glyph unicode="&#xd8;" glyph-name="Oslash" horiz-adv-x="763" d="M42 395Q42 581 135 695T382 809Q466 809 533 773L574 849H684L612 714Q722 599 722 395Q722 208 629 95T382 -18Q302 -18 241 12L201 -62H93L162 66Q42 181 42 395ZM543 591L298 115Q329 95
382 95Q476 95 530 175T585 395Q585 517 543 591ZM478 669Q436 696 382 696Q287 696 233 615T178 395Q178 271 228 187L478 669Z" />
<glyph unicode="&#xd9;" glyph-name="Ugrave" horiz-adv-x="754" d="M85 296V791H218V296Q218 194 260 145T377 95Q454 95 496 146T538 296V791H670V296Q670 145 596 64T377 -18Q237 -18 161 61T85 296ZM188 1057H341L455 868H348L188 1057Z" />
<glyph unicode="&#xda;" glyph-name="Uacute" horiz-adv-x="754" d="M85 296V791H218V296Q218 194 260 145T377 95Q454 95 496 146T538 296V791H670V296Q670 145 596 64T377 -18Q237 -18 161 61T85 296ZM297 868L411 1057H564L404 868H297Z" />
<glyph unicode="&#xdb;" glyph-name="Ucircumflex" horiz-adv-x="754" d="M85 296V791H218V296Q218 194 260 145T377 95Q454 95 496 146T538 296V791H670V296Q670 145 596 64T377 -18Q237 -18 161 61T85 296ZM151 868L324 1053H432L609 868H478L379 987L282 868H151Z" />
<glyph unicode="&#xdc;" glyph-name="Udieresis" horiz-adv-x="754" d="M85 296V791H218V296Q218 194 260 145T377 95Q454 95 496 146T538 296V791H670V296Q670 145 596 64T377 -18Q237 -18 161 61T85 296ZM196 892V1019H330V892H196ZM430 892V1019H563V892H430Z" />
<glyph unicode="&#xdd;" glyph-name="Yacute" horiz-adv-x="675" d="M-2 791H149L271 558Q317 468 336 428H340Q362 470 406 558L527 791H679L405 321V0H273V321L-2 791ZM513 868L627 1057H780L620 868H513Z" />
<glyph unicode="&#xde;" glyph-name="Thorn" horiz-adv-x="628" d="M89 0V791H220V663H299Q380 663 439 641T530 581T578 499T593 404Q593 274 515 208T301 141H220V0H89ZM220 254H289Q454 254 454 406Q454 551 290 551H220V254Z" />
<glyph unicode="&#xdf;" glyph-name="germandbls" horiz-adv-x="692" d="M89 0V576Q89 689 159 749T334 809Q449 809 519 751T590 593Q590 482 500 428V426Q568 404 608 352T649 217Q649 108 582 45T399 -18Q326 -18 265 1L267 117Q326 94 394 94Q443 94 478 129T513
218Q513 285 475 321T365 357H294V469H354Q397 469 425 500T454 586Q454 635 423 665T338 696Q283 696 252 661T221 566V0H89Z" />
<glyph unicode="&#xe0;" glyph-name="agrave" horiz-adv-x="589" d="M163 162Q163 130 188 109T256 87Q316 87 358 127T401 232V285Q355 274 290 264Q163 244 163 162ZM35 151Q35 314 277 350Q365 363 401 374V405Q401 447 371 471T291 495Q196 495 127 417L50
483Q95 536 157 565T289 595Q418 595 473 533T528 358V0H405V72Q387 35 343 9T238 -18Q143 -18 89 29T35 151ZM112 856H265L379 667H272L112 856Z" />
<glyph unicode="&#xe1;" glyph-name="aacute" horiz-adv-x="589" d="M163 162Q163 130 188 109T256 87Q316 87 358 127T401 232V285Q355 274 290 264Q163 244 163 162ZM35 151Q35 314 277 350Q365 363 401 374V405Q401 447 371 471T291 495Q196 495 127 417L50
483Q95 536 157 565T289 595Q418 595 473 533T528 358V0H405V72Q387 35 343 9T238 -18Q143 -18 89 29T35 151ZM190 670L304 859H457L297 670H190Z" />
<glyph unicode="&#xe2;" glyph-name="acircumflex" horiz-adv-x="589" d="M163 162Q163 130 188 109T256 87Q316 87 358 127T401 232V285Q355 274 290 264Q163 244 163 162ZM35 151Q35 314 277 350Q365 363 401 374V405Q401 447 371 471T291 495Q196 495 127 417L50
483Q95 536 157 565T289 595Q418 595 473 533T528 358V0H405V72Q387 35 343 9T238 -18Q143 -18 89 29T35 151ZM60 670L233 855H341L518 670H387L288 789L191 670H60Z" />
<glyph unicode="&#xe3;" glyph-name="atilde" horiz-adv-x="589" d="M163 162Q163 130 188 109T256 87Q316 87 358 127T401 232V285Q355 274 290 264Q163 244 163 162ZM35 151Q35 314 277 350Q365 363 401 374V405Q401 447 371 471T291 495Q196 495 127 417L50
483Q95 536 157 565T289 595Q418 595 473 533T528 358V0H405V72Q387 35 343 9T238 -18Q143 -18 89 29T35 151ZM312 724Q376 821 467 821Q505 821 556 791T627 760Q679 760 715 822L784 766Q720 666 630 666Q591 666 541 696T470 727Q445 727 422 710T383 667L312
724Z" />
<glyph unicode="&#xe4;" glyph-name="adieresis" horiz-adv-x="589" d="M163 162Q163 130 188 109T256 87Q316 87 358 127T401 232V285Q355 274 290 264Q163 244 163 162ZM35 151Q35 314 277 350Q365 363 401 374V405Q401 447 371 471T291 495Q196 495 127 417L50
483Q95 536 157 565T289 595Q418 595 473 533T528 358V0H405V72Q387 35 343 9T238 -18Q143 -18 89 29T35 151ZM101 700V827H235V700H101ZM335 700V827H468V700H335Z" />
<glyph unicode="&#xe5;" glyph-name="aring" horiz-adv-x="589" d="M163 162Q163 130 188 109T256 87Q316 87 358 127T401 232V285Q355 274 290 264Q163 244 163 162ZM35 151Q35 314 277 350Q365 363 401 374V405Q401 447 371 471T291 495Q196 495 127 417L50
483Q95 536 157 565T289 595Q418 595 473 533T528 358V0H405V72Q387 35 343 9T238 -18Q143 -18 89 29T35 151ZM392 1045Q392 1107 436 1151T548 1196Q616 1196 660 1151T704 1045Q704 981 659 937T548 893Q484 893 438 936T392 1045ZM479 1045Q479 1016 498 996T548
976Q576 976 595 995T615 1045Q615 1074 596 1094T548 1114Q519 1114 499 1094T479 1045Z" />
<glyph unicode="&#xe6;" glyph-name="ae" horiz-adv-x="956" d="M35 154Q35 233 98 283T287 352Q367 364 401 373V407Q401 445 370 470T293 495Q198 495 126 417L49 482Q142 594 293 594Q423 594 481 509Q549 594 665 594Q775 594 848 510T922 294Q922 266 921
245H525V230Q529 174 565 129T668 84Q761 84 808 168L912 132Q884 68 822 25T667 -18Q597 -18 542 13T452 100Q366 -18 238 -18Q144 -18 90 29T35 154ZM163 162Q163 132 188 110T254 87Q315 87 358 128T401 230V285Q331 270 299 265Q163 246 163 162ZM525 334H794Q795
401 758 447T666 493Q607 493 573 455T527 357L525 334Z" />
<glyph unicode="&#xe7;" glyph-name="ccedilla" horiz-adv-x="555" d="M36 288Q36 427 110 511T303 595Q389 595 448 543T522 424L414 394Q402 432 373 459T304 487Q239 487 203 430T166 288Q166 194 205 142T304 90Q348 90 381 120T428 190L536 159Q517 89 453
36T303 -18Q185 -18 111 65T36 288ZM427 -146Q485 -158 522 -158Q547 -158 569 -149T592 -118Q592 -81 477 -81L502 16H615L600 -37Q643 -44 667 -67T692 -127Q692 -172 652 -205T526 -238Q479 -238 427 -225V-146Z" />
<glyph unicode="&#xe8;" glyph-name="egrave" horiz-adv-x="601" d="M36 291Q36 430 112 512T305 595Q419 595 493 512T567 296Q567 270 564 245H164Q164 179 203 132T312 84Q360 84 396 107T452 168L558 132Q530 68 467 25T310 -18Q189 -18 113 66T36 291ZM166
334H438Q438 400 403 446T305 493Q242 493 205 446T166 334ZM124 859H277L391 670H284L124 859Z" />
<glyph unicode="&#xe9;" glyph-name="eacute" horiz-adv-x="601" d="M36 291Q36 430 112 512T305 595Q419 595 493 512T567 296Q567 270 564 245H164Q164 179 203 132T312 84Q360 84 396 107T452 168L558 132Q530 68 467 25T310 -18Q189 -18 113 66T36 291ZM166
334H438Q438 400 403 446T305 493Q242 493 205 446T166 334ZM195 670L309 859H462L302 670H195Z" />
<glyph unicode="&#xea;" glyph-name="ecircumflex" horiz-adv-x="601" d="M36 291Q36 430 112 512T305 595Q419 595 493 512T567 296Q567 270 564 245H164Q164 179 203 132T312 84Q360 84 396 107T452 168L558 132Q530 68 467 25T310 -18Q189 -18 113 66T36 291ZM166
334H438Q438 400 403 446T305 493Q242 493 205 446T166 334ZM75 670L248 855H356L533 670H402L303 789L206 670H75Z" />
<glyph unicode="&#xeb;" glyph-name="edieresis" horiz-adv-x="601" d="M120 700V827H254V700H120ZM354 700V827H487V700H354ZM36 291Q36 430 112 512T305 595Q419 595 493 512T567 296Q567 270 564 245H164Q164 179 203 132T312 84Q360 84 396 107T452 168L558
132Q530 68 467 25T310 -18Q189 -18 113 66T36 291ZM166 334H438Q438 400 403 446T305 493Q242 493 205 446T166 334Z" />
<glyph unicode="&#xec;" glyph-name="igrave" horiz-adv-x="278" d="M76 0V577H202V0H76ZM-47 859H106L220 670H113L-47 859Z" />
<glyph unicode="&#xed;" glyph-name="iacute" horiz-adv-x="278" d="M76 0V577H202V0H76ZM54 670L168 859H321L161 670H54Z" />
<glyph unicode="&#xee;" glyph-name="icircumflex" horiz-adv-x="278" d="M-87 670L86 855H194L371 670H240L141 789L44 670H-87ZM76 0V577H202V0H76Z" />
<glyph unicode="&#xef;" glyph-name="idieresis" horiz-adv-x="278" d="M-41 700V827H93V700H-41ZM193 700V827H326V700H193ZM76 0V577H202V0H76Z" />
<glyph unicode="&#xf0;" glyph-name="eth" horiz-adv-x="601" d="M154 631L457 856L529 774L228 551L154 631ZM36 249Q36 376 107 451T291 527Q334 527 369 512T420 477Q397 575 319 644T140 729L185 831Q240 822 290 803T392 744T481 647T542 500T566 298Q566
156 495 69T294 -18Q177 -18 107 57T36 249ZM166 255Q166 182 201 136T298 90Q356 90 391 134T426 255Q426 328 391 373T297 418Q239 418 203 374T166 255Z" />
<glyph unicode="&#xf1;" glyph-name="ntilde" horiz-adv-x="602" d="M62 724Q126 821 217 821Q255 821 306 791T377 760Q429 760 465 822L534 766Q470 666 380 666Q341 666 291 696T220 727Q195 727 172 710T133 667L62 724ZM69 0V577H192V504H193Q208 536 248
565T353 595Q439 595 490 542T541 371V0H414V354Q414 487 324 487Q269 487 233 443T196 334V0H69Z" />
<glyph unicode="&#xf2;" glyph-name="ograve" horiz-adv-x="604" d="M166 288Q166 188 207 139T303 90Q357 90 398 139T439 288Q439 390 398 438T303 487Q249 487 208 439T166 288ZM36 288Q36 417 104 506T303 595Q433 595 501 506T569 288Q569 248 562 208T535
127T487 54T411 2T303 -18Q244 -18 197 1T120 51T71 123T44 205T36 288ZM124 859H277L391 670H284L124 859Z" />
<glyph unicode="&#xf3;" glyph-name="oacute" horiz-adv-x="604" d="M166 288Q166 188 207 139T303 90Q357 90 398 139T439 288Q439 390 398 438T303 487Q249 487 208 439T166 288ZM36 288Q36 417 104 506T303 595Q433 595 501 506T569 288Q569 248 562 208T535
127T487 54T411 2T303 -18Q244 -18 197 1T120 51T71 123T44 205T36 288ZM212 670L326 859H479L319 670H212Z" />
<glyph unicode="&#xf4;" glyph-name="ocircumflex" horiz-adv-x="604" d="M73 670L246 855H354L531 670H400L301 789L204 670H73ZM166 288Q166 188 207 139T303 90Q357 90 398 139T439 288Q439 390 398 438T303 487Q249 487 208 439T166 288ZM36 288Q36 417 104
506T303 595Q433 595 501 506T569 288Q569 248 562 208T535 127T487 54T411 2T303 -18Q244 -18 197 1T120 51T71 123T44 205T36 288Z" />
<glyph unicode="&#xf5;" glyph-name="otilde" horiz-adv-x="604" d="M62 724Q126 821 217 821Q255 821 306 791T377 760Q429 760 465 822L534 766Q470 666 380 666Q341 666 291 696T220 727Q195 727 172 710T133 667L62 724ZM166 288Q166 188 207 139T303 90Q357
90 398 139T439 288Q439 390 398 438T303 487Q249 487 208 439T166 288ZM36 288Q36 417 104 506T303 595Q433 595 501 506T569 288Q569 248 562 208T535 127T487 54T411 2T303 -18Q244 -18 197 1T120 51T71 123T44 205T36 288Z" />
<glyph unicode="&#xf6;" glyph-name="odieresis" horiz-adv-x="604" d="M118 700V827H252V700H118ZM352 700V827H485V700H352ZM166 288Q166 188 207 139T303 90Q357 90 398 139T439 288Q439 390 398 438T303 487Q249 487 208 439T166 288ZM36 288Q36 417 104 506T303
595Q433 595 501 506T569 288Q569 248 562 208T535 127T487 54T411 2T303 -18Q244 -18 197 1T120 51T71 123T44 205T36 288Z" />
<glyph unicode="&#xf7;" glyph-name="divide" horiz-adv-x="600" d="M223 526V672H374V526H223ZM29 334V446H571V334H29ZM223 107V254H374V107H223Z" />
<glyph unicode="&#xf8;" glyph-name="oslash" horiz-adv-x="604" d="M36 288Q36 417 104 505T303 594Q364 594 414 572L453 646H550L485 524Q568 441 568 288Q568 248 561 208T535 127T487 54T411 2T303 -18Q244 -18 196 1L163 -61H66L124 47Q36 132 36 288ZM415
401L251 102Q275 90 303 90Q357 90 398 139T439 288Q439 356 415 401ZM360 471Q333 487 303 487Q249 487 208 439T166 288Q166 217 193 168L360 471Z" />
<glyph unicode="&#xf9;" glyph-name="ugrave" horiz-adv-x="600" d="M62 209V577H189V225Q189 90 284 90Q341 90 373 138T405 254V577H531V0H409V67H408Q394 36 355 9T256 -18Q221 -18 190 -8T128 26T80 97T62 209ZM115 859H268L382 670H275L115 859Z" />
<glyph unicode="&#xfa;" glyph-name="uacute" horiz-adv-x="600" d="M62 209V577H189V225Q189 90 284 90Q341 90 373 138T405 254V577H531V0H409V67H408Q394 36 355 9T256 -18Q221 -18 190 -8T128 26T80 97T62 209ZM209 670L323 859H476L316 670H209Z" />
<glyph unicode="&#xfb;" glyph-name="ucircumflex" horiz-adv-x="600" d="M62 209V577H189V225Q189 90 284 90Q341 90 373 138T405 254V577H531V0H409V67H408Q394 36 355 9T256 -18Q221 -18 190 -8T128 26T80 97T62 209ZM75 670L248 855H356L533 670H402L303 789L206
670H75Z" />
<glyph unicode="&#xfc;" glyph-name="udieresis" horiz-adv-x="600" d="M122 700V827H256V700H122ZM356 700V827H489V700H356ZM62 209V577H189V225Q189 90 284 90Q341 90 373 138T405 254V577H531V0H409V67H408Q394 36 355 9T256 -18Q221 -18 190 -8T128 26T80
97T62 209Z" />
<glyph unicode="&#xfd;" glyph-name="yacute" horiz-adv-x="560" d="M7 577H146L245 280Q270 198 283 147H287Q292 165 324 280L415 577H553L314 -76Q282 -164 232 -200T106 -236H67V-130H85Q130 -130 158 -111T204 -43L223 14L7 577ZM183 670L297 859H450L290 670H183Z" />
<glyph unicode="&#xfe;" glyph-name="thorn" horiz-adv-x="635" d="M206 289Q206 198 242 144T337 90Q399 90 434 142T470 289Q470 381 435 434T337 487Q279 487 243 433T206 289ZM82 -236V817H208V508Q223 545 264 569T354 594Q462 594 531 513T600 289Q600 209
578 148T520 52T441 0T354 -18Q298 -18 261 8T208 66V-236H82Z" />
<glyph unicode="&#xff;" glyph-name="ydieresis" horiz-adv-x="560" d="M93 700V827H227V700H93ZM327 700V827H460V700H327ZM7 577H146L245 280Q270 198 283 147H287Q292 165 324 280L415 577H553L314 -76Q282 -164 232 -200T106 -236H67V-130H85Q130 -130 158
-111T204 -43L223 14L7 577Z" />
<glyph unicode="&#x2013;" glyph-name="endash" horiz-adv-x="527" d="M36 325V437H492V325H36Z" />
<glyph unicode="&#x2014;" glyph-name="emdash" horiz-adv-x="1027" d="M0 325V437H1028V325H0Z" />
<glyph unicode="&#x2018;" glyph-name="quoteleft" horiz-adv-x="379" d="M107 560V671Q107 837 221 920L287 865Q246 834 230 800T213 708H284V560H107Z" />
<glyph unicode="&#x2019;" glyph-name="quoteright" horiz-adv-x="379" d="M96 732V879H273V768Q273 603 159 520L93 575Q134 606 150 640T167 732H96Z" />
<glyph unicode="&#x201a;" glyph-name="quotesinglbase" horiz-adv-x="379" d="M96 7V154H273V44Q273 -122 159 -205L93 -150Q134 -119 150 -85T167 7H96Z" />
<glyph unicode="&#x201c;" glyph-name="quotedblleft" horiz-adv-x="592" d="M342 560V671Q342 837 457 920L522 865Q481 834 465 800T449 708H519V560H342ZM83 560V671Q83 846 198 929L263 874Q223 844 206 805T189 708H259V560H83Z" />
<glyph unicode="&#x201d;" glyph-name="quotedblright" horiz-adv-x="592" d="M71 575Q112 606 128 640T144 732H74V879H251V768Q251 603 136 520L71 575ZM331 566Q372 598 388 636T405 732H334V879H511V768Q511 593 396 510L331 566Z" />
<glyph unicode="&#x201e;" glyph-name="quotedblbase" horiz-adv-x="592" d="M71 -150Q112 -119 128 -85T144 7H74V154H251V44Q251 -122 136 -205L71 -150ZM331 -159Q372 -128 388 -90T404 7H334V154H511V44Q511 -131 396 -214L331 -159Z" />
<glyph unicode="&#x2022;" glyph-name="bullet" horiz-adv-x="519" d="M142 263V497H378V263H142Z" />
<glyph unicode="&#x2039;" glyph-name="guilsinglleft" horiz-adv-x="403" d="M67 285L259 550L352 489L202 285L351 83L259 21L67 285Z" />
<glyph unicode="&#x203a;" glyph-name="guilsinglright" horiz-adv-x="403" d="M53 83L201 286L52 490L144 550L337 286L144 21L53 83Z" />
</font>
</defs>
</svg>
