<?xml version="1.0" standalone="no"?>
<!DOCTYPE svg PUBLIC "-//W3C//DTD SVG 1.1//EN" "http://www.w3.org/Graphics/SVG/1.1/DTD/svg11.dtd">
<svg xmlns="http://www.w3.org/2000/svg">
<defs >
<font id="GothicA1" horiz-adv-x="982" ><font-face
    font-family="Gothic A1 SemiBold"
    units-per-em="1024"
    panose-1="0 0 0 0 0 0 0 0 0 0"
    ascent="817"
    descent="-207"
    alphabetic="0" />
<glyph unicode=" " glyph-name="space" horiz-adv-x="250" />
<glyph unicode="!" glyph-name="exclam" horiz-adv-x="328" d="M87 -7V133H241V-7H87ZM217 219H112L102 781H226L217 219Z" />
<glyph unicode="&quot;" glyph-name="quotedbl" horiz-adv-x="563" d="M299 553L391 866H525L389 553H299ZM70 553L162 866H296L160 553H70Z" />
<glyph unicode="#" glyph-name="numbersign" horiz-adv-x="767" d="M52 200V286H183L208 470H85V555H219L245 754H346L320 555H495L522 754H623L596 555H716V470H585L562 286H683V200H550L524 2H421L448 200H274L247 2H145L172 200H52ZM285 286H459L484 470H308L285 286Z" />
<glyph unicode="$" glyph-name="dollar" horiz-adv-x="617" d="M53 156L137 196Q167 148 214 121T314 94Q369 94 407 123T445 209Q445 232 437 251T416 282T379 309T334 332T277 356T215 384Q143 418 110 464T76 576Q76 642 123 700T260 771V857H364V769Q421 765
472 725T544 638L459 597Q402 682 311 682Q256 682 223 652T189 575Q189 561 191 550T200 528T213 510T232 493T254 479T282 464T313 451T349 436T388 420Q424 405 450 390T504 350T545 293T560 219Q560 130 506 74T364 4V-77H260V6Q200 11 141 53T53 156Z" />
<glyph unicode="%" glyph-name="percent" horiz-adv-x="1048" d="M566 176Q566 260 624 315T773 370Q864 370 922 315T980 176Q980 90 922 36T773 -18Q683 -18 625 36T566 176ZM671 176Q671 125 701 96T773 67Q816 67 846 96T876 176Q876 226 847 255T773 285Q730
285 701 255T671 176ZM69 601Q69 685 127 740T276 795Q367 795 425 740T483 601Q483 515 425 462T276 408Q186 408 128 462T69 601ZM173 601Q173 550 203 521T276 492Q319 492 348 522T378 601Q378 651 349 681T276 711Q233 711 203 681T173 601ZM192 -4L743 781H857L305
-4H192Z" />
<glyph unicode="&amp;" glyph-name="ampersand" horiz-adv-x="703" d="M167 204Q167 145 205 111T305 76Q384 76 451 150L278 380Q167 298 167 204ZM53 202Q53 349 222 458Q194 496 185 510T163 553T151 612Q151 686 205 733T352 781Q431 781 485 742T567 640L484
604Q465 639 433 663T361 688Q316 688 291 666T265 608Q265 590 276 565T325 487T385 404T475 286Q497 258 508 243Q532 296 546 376L647 358Q630 246 577 153L697 0H564L512 67Q427 -18 303 -18Q185 -18 119 45T53 202Z" />
<glyph unicode="&apos;" glyph-name="quotesingle" horiz-adv-x="350" d="M85 553L177 866H311L175 553H85Z" />
<glyph unicode="(" glyph-name="parenleft" horiz-adv-x="469" d="M141 373Q141 667 321 900L402 854Q336 747 313 694Q251 553 251 373Q251 264 274 170T326 21T402 -108L321 -154Q237 -40 189 85T141 373Z" />
<glyph unicode=")" glyph-name="parenright" horiz-adv-x="469" d="M68 -108Q145 8 181 118T218 373Q218 458 207 530T170 662T124 761T68 854L148 900Q328 664 328 373Q328 209 280 84T148 -154L68 -108Z" />
<glyph unicode="*" glyph-name="asterisk" horiz-adv-x="589" d="M21 430L60 520L250 446L243 642H346L339 446L529 520L568 430L362 364L518 194L434 132L295 315L155 132L71 194L227 364L21 430Z" />
<glyph unicode="+" glyph-name="plus" horiz-adv-x="589" d="M28 335V432H239V644H349V432H560V335H349V116H239V335H28Z" />
<glyph unicode="," glyph-name="comma" horiz-adv-x="370" d="M47 -170L138 143H272L136 -170H47Z" />
<glyph unicode="-" glyph-name="hyphen" horiz-adv-x="589" d="M50 335V432H539V335H50Z" />
<glyph unicode="." glyph-name="period" horiz-adv-x="370" d="M108 0V143H262V0H108Z" />
<glyph unicode="/" glyph-name="slash" horiz-adv-x="385" d="M-15 -57L284 827H400L101 -57H-15Z" />
<glyph unicode="0" glyph-name="zero" horiz-adv-x="589" d="M161 388Q161 297 173 230T216 120T296 76Q333 76 359 101T400 173T421 271T428 388Q428 454 421 509T399 608T357 676T294 701Q247 701 216 658T173 547T161 388ZM43 388Q43 501 65 584T125 711T205
775T294 795Q414 795 480 689T546 388Q546 203 483 93T296 -18Q249 -18 207 2T127 66T66 193T43 388Z" />
<glyph unicode="1" glyph-name="one" horiz-adv-x="589" d="M92 563V650H126Q283 650 283 763V784H382V-9H265V563H92Z" />
<glyph unicode="2" glyph-name="two" horiz-adv-x="589" d="M48 591Q70 686 131 740T291 795Q394 795 460 736T526 574Q526 458 406 343Q395 333 360 299T315 255T279 218T242 176T217 138T192 94H524V0H54Q54 44 69 88T105 166T163 243T227 313T301 384Q312 394
317 399Q408 485 408 576Q408 635 376 668T290 701Q234 701 198 664T145 562L48 591Z" />
<glyph unicode="3" glyph-name="three" horiz-adv-x="589" d="M33 150L125 184Q176 76 282 76Q344 76 385 113T427 220Q427 284 382 322T267 360Q238 360 199 357V450Q223 448 263 448Q320 448 359 483T398 579Q398 632 364 666T277 701Q187 701 145 588L51 617Q73
696 133 745T284 795Q390 795 453 737T516 590Q516 527 484 480T404 411Q461 393 503 345T546 220Q546 108 474 45T283 -18Q189 -18 123 30T33 150Z" />
<glyph unicode="4" glyph-name="four" horiz-adv-x="589" d="M23 258L370 785H469V260H570V166H469V-8H355V166H23V258ZM132 260H355V504Q355 561 359 614H355Q344 594 322 558T296 517L132 260Z" />
<glyph unicode="5" glyph-name="five" horiz-adv-x="589" d="M42 138L137 173Q156 130 193 103T275 76Q341 76 379 121T418 239Q418 311 377 357T272 403Q196 403 138 332L67 360L107 777H492V683H212L187 459Q240 496 312 496Q411 496 473 427T536 241Q536 191
521 146T476 64T395 4T278 -18Q192 -18 133 24T42 138Z" />
<glyph unicode="6" glyph-name="six" horiz-adv-x="589" d="M167 246Q167 169 204 123T301 76Q359 76 396 122T434 246Q434 325 397 370T300 416Q242 416 205 369T167 246ZM47 351Q47 439 62 516T110 657T197 758T326 795Q476 795 544 641L454 610Q405 701 327
701Q210 701 175 509Q165 462 162 419Q181 459 221 484T316 510Q419 510 484 436T550 247Q550 133 485 58T305 -18Q188 -18 121 65Q47 155 47 351Z" />
<glyph unicode="7" glyph-name="seven" horiz-adv-x="589" d="M44 680V777H534V699Q343 392 253 -8H135Q204 336 401 680H44Z" />
<glyph unicode="8" glyph-name="eight" horiz-adv-x="589" d="M179 579Q179 524 212 490T295 456Q345 456 377 490T410 579Q410 631 378 666T295 701Q243 701 211 666T179 579ZM38 212Q38 291 79 341T177 412Q62 467 62 584Q62 675 128 735T295 795Q395 795 461
735T528 584Q528 521 495 478T412 412Q471 391 512 340T553 211Q553 109 481 46T295 -18Q187 -18 113 43T38 212ZM155 218Q155 157 194 117T295 76Q356 76 395 116T435 218Q435 278 396 320T295 363Q235 363 195 321T155 218Z" />
<glyph unicode="9" glyph-name="nine" horiz-adv-x="589" d="M154 533Q154 457 192 411T286 365Q343 365 380 412T417 533Q417 604 381 652T286 701Q229 701 192 654T154 533ZM40 137L134 168Q181 76 263 76Q307 76 339 99T388 165T414 254T424 356Q403 321 364
296T270 271Q174 271 107 342T39 532Q39 648 108 721T285 795Q376 795 438 737T522 585Q536 523 536 426Q536 215 469 99T261 -18Q182 -18 123 29T40 137Z" />
<glyph unicode=":" glyph-name="colon" horiz-adv-x="370" d="M108 74V217H262V74H108ZM108 488V632H262V488H108Z" />
<glyph unicode=";" glyph-name="semicolon" horiz-adv-x="370" d="M47 -96L138 217H272L136 -96H47ZM112 488V632H266V488H112Z" />
<glyph unicode="&lt;" glyph-name="less" horiz-adv-x="589" d="M47 325V427L478 750L538 667L155 376L538 86L478 3L47 325Z" />
<glyph unicode="=" glyph-name="equal" horiz-adv-x="589" d="M50 229V326H539V229H50ZM50 442V539H539V442H50Z" />
<glyph unicode="&gt;" glyph-name="greater" horiz-adv-x="589" d="M110 3L51 86L433 376L51 667L110 750L543 427V325L110 3Z" />
<glyph unicode="?" glyph-name="question" horiz-adv-x="598" d="M64 615Q89 695 151 746T302 798Q404 798 466 739T529 581Q529 534 511 496T466 433T413 382T368 323T349 246V214H234V255Q234 297 247 332T280 389T322 436T365 479T398 526T411 585Q411 637
382 669T303 701Q211 701 165 582L64 615ZM214 -7V133H369V-7H214Z" />
<glyph unicode="@" glyph-name="at" horiz-adv-x="991" d="M55 365Q55 561 183 686T516 811Q701 811 819 701T937 421Q937 342 917 282T864 188T795 138T720 121Q676 121 643 149T603 219H602Q587 182 546 152T453 122Q377 122 326 180T274 332Q274 458 339 530T494
602Q534 602 562 584T605 546L609 594H694L678 287Q676 247 689 226T727 205Q773 205 806 261T839 415Q839 555 751 642T516 730Q357 730 255 627T153 365Q153 197 251 100T505 2Q620 2 728 33L746 -42Q640 -79 505 -79Q300 -79 178 44T55 365ZM378 333Q378 282
402 247T466 211Q512 211 550 260T589 421Q589 463 567 491T502 519Q455 519 417 468T378 333Z" />
<glyph unicode="A" glyph-name="A" horiz-adv-x="688" d="M218 295H470L396 515Q390 533 373 587T347 668H341Q329 629 293 515L218 295ZM-4 0L280 777H409L693 0H570L501 203H188L119 0H-4Z" />
<glyph unicode="B" glyph-name="B" horiz-adv-x="702" d="M94 0V777H386Q507 777 567 723T628 574Q628 460 527 410Q580 392 618 343T656 223Q656 129 595 65T424 0H94ZM208 98H402Q459 98 498 130T538 222Q538 277 501 314T399 352H208V98ZM208 448H373Q433 448
471 477T510 565Q510 617 478 648T377 679H208V448Z" />
<glyph unicode="C" glyph-name="C" horiz-adv-x="696" d="M45 388Q45 576 140 685T386 795Q483 795 551 742T652 613L554 580Q488 697 384 697Q283 697 223 613T163 388Q163 246 224 163T384 80Q449 80 497 118T569 211L672 179Q657 143 634 112T577 49T494 0T386
-18Q238 -18 142 90T45 388Z" />
<glyph unicode="D" glyph-name="D" horiz-adv-x="725" d="M94 0V777H318Q492 777 587 677T683 388Q683 305 662 237T599 114T484 30T316 0H94ZM208 97H303Q564 97 564 388Q564 680 305 680H208V97Z" />
<glyph unicode="E" glyph-name="E" horiz-adv-x="640" d="M94 0V777H596V679H208V450H558V354H208V98H605V0H94Z" />
<glyph unicode="F" glyph-name="F" horiz-adv-x="595" d="M94 0V777H581V679H208V438H543V342H208V0H94Z" />
<glyph unicode="G" glyph-name="G" horiz-adv-x="750" d="M45 388Q45 567 139 681T392 795Q449 795 498 777T580 729T633 672T666 616L568 584Q536 635 496 666T392 697Q284 697 224 612T163 388Q163 245 225 163T387 80Q475 80 524 133T578 265Q579 282 579 332H379V429H690V0H610L601
91Q537 -18 384 -18Q236 -18 141 91T45 388Z" />
<glyph unicode="H" glyph-name="H" horiz-adv-x="751" d="M94 0V777H208V448H544V777H658V0H544V351H208V0H94Z" />
<glyph unicode="I" glyph-name="I" horiz-adv-x="301" d="M94 0V777H208V0H94Z" />
<glyph unicode="J" glyph-name="J" horiz-adv-x="537" d="M10 138L107 176Q120 134 149 107T220 80Q329 80 329 234V777H443V219Q443 104 386 43T223 -18Q137 -18 84 27T10 138Z" />
<glyph unicode="K" glyph-name="K" horiz-adv-x="683" d="M94 0V777H208V407H211L529 777H675L377 439L686 0H547L304 357L208 248V0H94Z" />
<glyph unicode="L" glyph-name="L" horiz-adv-x="575" d="M94 0V777H208V98H566V0H94Z" />
<glyph unicode="M" glyph-name="M" horiz-adv-x="910" d="M94 0V777H236L383 397Q396 360 419 294T453 199H457Q463 215 529 397L674 777H818V0H704V380Q704 457 717 619H713L662 473L500 49H412L250 473L198 620H193Q208 457 208 380V0H94Z" />
<glyph unicode="N" glyph-name="N" horiz-adv-x="756" d="M94 0V777H217L468 328L556 168H562Q548 273 548 391V777H663V0H540L288 445L200 607H195Q208 503 208 384V0H94Z" />
<glyph unicode="O" glyph-name="O" horiz-adv-x="750" d="M45 388Q45 571 135 683T376 795Q526 795 615 683T705 387Q705 202 615 92T376 -18Q226 -18 136 92T45 388ZM164 388Q164 246 220 163T376 80Q474 80 530 162T587 387Q587 528 532 612T376 697Q277 697
221 614T164 388Z" />
<glyph unicode="P" glyph-name="P" horiz-adv-x="684" d="M94 0V777H394Q513 777 580 713T648 543Q648 434 579 371T396 308H208V0H94ZM208 405H379Q451 405 490 440T530 543Q530 610 491 644T378 679H208V405Z" />
<glyph unicode="Q" glyph-name="Q" horiz-adv-x="750" d="M45 387Q45 572 136 683T376 795Q526 795 615 683T705 387Q705 205 616 94T376 -18Q225 -18 135 93T45 387ZM164 387Q164 245 221 163T376 80Q474 80 530 162T587 387Q587 532 530 614T376 697Q278 697
221 614T164 387ZM351 242L418 303L705 6L638 -54L351 242Z" />
<glyph unicode="R" glyph-name="R" horiz-adv-x="704" d="M208 416H387Q457 416 494 451T532 550Q532 608 493 643T382 679H208V416ZM94 0V777H405Q523 777 586 715T650 559Q650 479 612 428T527 361Q566 336 583 306T612 218Q625 156 642 108T694 0H566Q522 74
492 210Q481 263 458 291T384 319H208V0H94Z" />
<glyph unicode="S" glyph-name="S" horiz-adv-x="643" d="M31 159L133 194Q162 143 215 112T334 80Q403 80 446 114T490 204Q490 234 477 257T437 298T384 327T317 352Q199 391 155 418Q59 477 59 584Q59 679 133 737T327 795Q424 795 494 750T595 636L499 603Q437
697 326 697Q257 697 217 667T177 585Q177 546 209 516T269 475T367 441Q382 436 390 433Q437 417 471 401T539 359T591 295T609 209Q609 102 532 42T332 -18Q225 -18 147 30T31 159Z" />
<glyph unicode="T" glyph-name="T" horiz-adv-x="591" d="M11 679V777H582V679H354V0H240V679H11Z" />
<glyph unicode="U" glyph-name="U" horiz-adv-x="747" d="M91 287V777H206V288Q206 183 251 132T374 80Q453 80 498 133T543 288V777H658V287Q658 142 586 62T374 -18Q239 -18 165 59T91 287Z" />
<glyph unicode="V" glyph-name="V" horiz-adv-x="638" d="M0 777H125L268 301Q307 158 317 118H321Q330 151 346 209T371 301L514 777H640L385 0H254L0 777Z" />
<glyph unicode="W" glyph-name="W" horiz-adv-x="916" d="M12 777H134L224 318Q238 240 255 125H260Q276 213 297 318L399 777H517L620 318Q641 217 657 125H662Q666 148 677 217T694 318L783 777H905L728 0H596L495 453Q466 600 461 636H456Q451 601 437 533T421
453L321 0H190L12 777Z" />
<glyph unicode="X" glyph-name="X" horiz-adv-x="639" d="M1 0L252 399L13 777H150L251 602Q262 582 284 544T318 485H322Q333 505 356 544T389 602L490 777H627L388 399L640 0H505L394 186Q381 207 356 251T322 310H318Q292 264 246 186L136 0H1Z" />
<glyph unicode="Y" glyph-name="Y" horiz-adv-x="651" d="M-3 777H130L254 545Q296 468 324 412H327Q338 431 350 453T376 503T398 545L521 777H655L384 317V0H269V317L-3 777Z" />
<glyph unicode="Z" glyph-name="Z" horiz-adv-x="639" d="M38 83L452 679H70V777H594V692L178 98H604V0H38V83Z" />
<glyph unicode="[" glyph-name="bracketleft" horiz-adv-x="469" d="M139 -129V875H378V785H250V-39H378V-129H139Z" />
<glyph unicode="\" glyph-name="backslash" horiz-adv-x="368" d="M-15 827H99L385 -57H270L-15 827Z" />
<glyph unicode="]" glyph-name="bracketright" horiz-adv-x="469" d="M91 -39H220V785H91V875H331V-129H91V-39Z" />
<glyph unicode="^" glyph-name="asciicircum" horiz-adv-x="549" d="M13 492L223 855H327L537 492H422L310 700L275 767L274 766L238 698L127 492H13Z" />
<glyph unicode="_" glyph-name="underscore" horiz-adv-x="502" d="M6 -12H499V-102H6V-12Z" />
<glyph unicode="`" glyph-name="grave" horiz-adv-x="350" d="M175 553L39 866H173L265 553H175Z" />
<glyph unicode="a" glyph-name="a" horiz-adv-x="580" d="M149 154Q149 120 176 97T251 74Q315 74 360 115T405 224V285Q359 274 284 262Q216 251 183 225T149 154ZM37 145Q37 303 276 340Q375 355 405 365V396Q405 441 373 467T285 494Q188 494 120 415L52 473Q95
524 155 553T283 582Q515 582 515 354V0H408V78Q391 39 344 11T235 -18Q143 -18 90 27T37 145Z" />
<glyph unicode="b" glyph-name="b" horiz-adv-x="618" d="M79 0V804H188V489Q208 526 248 554T341 582Q445 582 512 502T580 283Q580 205 558 145T501 50T425 -1T342 -18Q289 -18 247 11T186 81V0H79ZM186 283Q186 187 225 131T326 75Q388 75 427 129T467 283Q467
378 429 433T326 488Q264 488 225 432T186 283Z" />
<glyph unicode="c" glyph-name="c" horiz-adv-x="541" d="M39 282Q39 418 109 500T296 582Q378 582 434 534T506 421L413 395Q400 434 370 461T297 488Q229 488 191 430T152 282Q152 185 193 130T297 75Q342 75 377 105T427 176L520 149Q501 82 440 32T296 -18Q181
-18 110 63T39 282Z" />
<glyph unicode="d" glyph-name="d" horiz-adv-x="618" d="M39 283Q39 422 106 502T278 582Q331 582 371 554T430 490V804H540V0H433V82Q414 40 373 11T278 -18Q234 -18 194 -1T118 50T61 144T39 283ZM151 283Q151 186 190 131T293 75Q353 75 392 131T432 283Q432
376 393 432T293 488Q227 488 189 432T151 283Z" />
<glyph unicode="e" glyph-name="e" horiz-adv-x="589" d="M39 285Q39 419 112 500T299 582Q412 582 482 501T553 292Q553 290 550 245H150Q150 174 191 123T305 72Q354 72 392 96T450 158L542 127Q515 64 455 23T304 -18Q186 -18 113 64T39 285ZM152 324H441Q441
395 403 444T299 493Q232 493 193 443T152 324Z" />
<glyph unicode="f" glyph-name="f" horiz-adv-x="363" d="M24 470V564H114V633Q114 719 156 761T276 804H361V711H292Q224 711 224 625V564H347V470H224V0H114V470H24Z" />
<glyph unicode="g" glyph-name="g" horiz-adv-x="602" d="M153 293Q153 202 189 150T287 98Q348 98 384 148T420 293Q420 385 384 436T289 488Q227 488 190 435T153 293ZM41 292Q41 424 106 503T274 582Q330 582 367 554T421 490V564H530V74Q530 -86 470 -162T281
-239Q140 -239 64 -133L138 -82Q199 -151 284 -151Q344 -151 381 -104T420 19Q420 31 420 55T421 88Q401 51 363 28T278 4Q171 4 106 83T41 292Z" />
<glyph unicode="h" glyph-name="h" horiz-adv-x="597" d="M79 0V804H188V496H190Q211 533 253 557T345 582Q428 582 479 531T531 363V0H422V348Q422 488 325 488Q268 488 228 440T188 326V0H79Z" />
<glyph unicode="i" glyph-name="i" horiz-adv-x="283" d="M80 662V788H203V662H80ZM88 0V564H197V0H88Z" />
<glyph unicode="j" glyph-name="j" horiz-adv-x="290" d="M85 662V788H210V662H85ZM-11 -133H10Q93 -133 93 -17V564H202V-22Q202 -123 157 -175T28 -227H-11V-133Z" />
<glyph unicode="k" glyph-name="k" horiz-adv-x="551" d="M80 0V804H190V321L404 564H544L339 336L561 0H430L268 259L190 172V0H80Z" />
<glyph unicode="l" glyph-name="l" horiz-adv-x="277" d="M84 0V804H194V0H84Z" />
<glyph unicode="m" glyph-name="m" horiz-adv-x="878" d="M73 0V564H180V492Q195 524 234 553T329 582Q425 582 468 473Q474 486 485 501T517 536T570 569T642 582Q813 582 813 363V0H701V358Q701 423 684 455T618 488Q565 488 531 444T497 334V0H388V361Q388
488 303 488Q247 488 216 447T184 337V0H73Z" />
<glyph unicode="n" glyph-name="n" horiz-adv-x="593" d="M73 0V564H180V485H181Q194 519 237 550T345 582Q427 582 477 531T527 363V0H417V348Q417 488 320 488Q263 488 224 442T184 329V0H73Z" />
<glyph unicode="o" glyph-name="o" horiz-adv-x="593" d="M151 282Q151 181 194 128T297 75Q356 75 399 128T443 282Q443 384 400 436T297 488Q238 488 195 436T151 282ZM39 282Q39 364 65 430T152 539T297 582Q422 582 488 496T555 282Q555 230 542 181T501 85T420
11T297 -18Q227 -18 175 9T95 82T53 178T39 282Z" />
<glyph unicode="p" glyph-name="p" horiz-adv-x="618" d="M187 283Q187 189 224 132T326 75Q388 75 427 130T467 283Q467 376 430 432T326 488Q262 488 225 431T187 283ZM79 -235V564H184V482Q206 526 247 554T341 582Q444 582 512 501T580 283Q580 207 559 147T502
52T426 0T341 -18Q284 -18 245 9T188 76V-235H79Z" />
<glyph unicode="q" glyph-name="q" horiz-adv-x="616" d="M151 283Q151 186 190 131T292 75Q355 75 393 132T431 283Q431 374 394 431T292 488Q224 488 188 431T151 283ZM39 283Q39 420 106 501T277 582Q329 582 370 554T434 482V564H540V-235H430V76Q411 36 371
9T277 -18Q233 -18 192 -1T116 51T60 146T39 283Z" />
<glyph unicode="r" glyph-name="r" horiz-adv-x="393" d="M73 0V564H178V496Q195 529 232 555T321 582Q367 582 396 569V468Q363 481 321 481Q255 481 220 431T184 296V0H73Z" />
<glyph unicode="s" glyph-name="s" horiz-adv-x="523" d="M29 116L109 162Q170 72 266 72Q317 72 348 92T379 147Q379 191 313 219Q292 229 218 252Q183 263 158 274T106 305T65 354T51 420Q51 493 112 537T267 582Q336 582 396 545T485 454L412 409Q355 492 267
492Q216 492 189 472T162 418Q162 400 172 385T192 361T228 342T266 327T310 313Q492 257 492 146Q492 77 433 30T268 -18Q189 -18 126 18T29 116Z" />
<glyph unicode="t" glyph-name="t" horiz-adv-x="385" d="M19 470V564H110V735H220V564H355V470H220V176Q220 132 237 113T291 94H355V0H277Q110 0 110 168V470H19Z" />
<glyph unicode="u" glyph-name="u" horiz-adv-x="590" d="M66 202V564H177V219Q177 75 279 75Q341 75 374 125T408 246V564H517V0H412V74H410Q396 41 357 12T254 -18Q177 -18 122 34T66 202Z" />
<glyph unicode="v" glyph-name="v" horiz-adv-x="542" d="M8 564H129L226 254Q259 134 270 94H272Q279 120 295 175T318 254L414 564H535L335 0H208L8 564Z" />
<glyph unicode="w" glyph-name="w" horiz-adv-x="773" d="M9 564H128L194 259Q208 191 224 106H228Q240 167 259 259L328 564H447L516 256Q519 242 530 190T547 106H551Q564 169 581 259L647 564H766L613 0H486L419 295Q393 423 389 445H385Q361 319 356 295L289
0H162L9 564Z" />
<glyph unicode="x" glyph-name="x" horiz-adv-x="545" d="M5 0L207 290L15 564H148L229 434Q236 422 250 400T270 367H273Q278 376 313 434L393 564H526L336 290L538 0H407L316 146Q295 179 273 214H270Q249 177 228 146L136 0H5Z" />
<glyph unicode="y" glyph-name="y" horiz-adv-x="541" d="M7 564H130L233 261Q260 178 274 127H277Q285 154 299 201T317 261L413 564H534L297 -80Q265 -166 219 -200T103 -235H67V-144H86Q128 -144 155 -124T202 -52L221 7L7 564Z" />
<glyph unicode="z" glyph-name="z" horiz-adv-x="512" d="M28 0V73L331 470H53V564H475V495L169 93H485V0H28Z" />
<glyph unicode="{" glyph-name="braceleft" horiz-adv-x="469" d="M64 328V413H96Q125 413 141 445T158 536V731Q158 800 197 837T298 875H384V785H318Q296 785 282 767T268 718V521Q268 420 192 371Q268 330 268 229V32Q268 -4 282 -21T320 -39H384V-129H298Q237
-129 198 -94T158 14V214Q158 264 142 296T96 328H64Z" />
<glyph unicode="|" glyph-name="bar" horiz-adv-x="301" d="M96 -168V911H207V-168H96Z" />
<glyph unicode="}" glyph-name="braceright" horiz-adv-x="469" d="M85 -39H150Q201 -39 201 32V229Q201 326 277 371Q242 394 222 427T201 521V718Q201 750 188 767T152 785H85V875H172Q234 875 273 838T312 731V536Q312 477 328 445T374 413H406V328H374Q344
328 328 296T312 214V14Q312 -58 273 -93T172 -129H85V-39Z" />
<glyph unicode="~" glyph-name="asciitilde" horiz-adv-x="824" d="M69 320Q140 492 286 492Q328 492 366 471T428 424T481 378T538 356Q565 356 586 366T623 399T644 433T661 472L755 429Q686 257 541 257Q499 257 460 278T397 324T343 371T286 392Q211 392 163
277L69 320Z" />
<glyph unicode="&#xa0;" glyph-name=".notdef" horiz-adv-x="250" />
<glyph unicode="&#xa1;" glyph-name="exclamdown" horiz-adv-x="328" d="M102 -217L112 342H217L226 -217H102ZM87 429V568H241V429H87Z" />
<glyph unicode="&#xa2;" glyph-name="cent" horiz-adv-x="540" d="M39 282Q39 395 93 477T243 575V657H343V576Q407 562 449 518T506 421L413 395Q398 434 370 461T300 488Q230 488 191 430T152 282Q152 188 191 132T298 76Q342 76 376 105T426 176L520 149Q503
94 458 49T343 -13V-100H243V-12Q152 3 96 81T39 282Z" />
<glyph unicode="&#xa3;" glyph-name="sterling" horiz-adv-x="630" d="M41 335V433H153V596Q153 692 216 743T385 795Q456 795 508 759T586 674L503 630Q458 696 386 696Q333 696 300 668T267 585V433H488V335H267V229Q267 142 231 106Q275 114 299 114Q330 114
380 97T467 80Q536 80 591 111L622 18Q541 -18 466 -18Q431 -18 364 -1T264 17Q228 17 179 10T98 -5L66 -12L38 69Q153 97 153 223V335H41Z" />
<glyph unicode="&#xa4;" glyph-name="currency" horiz-adv-x="686" d="M25 156L140 263Q102 313 102 386Q102 461 139 510L25 616L100 689L210 582Q274 623 344 623Q413 623 477 582L586 688L662 616L548 510Q586 459 586 386Q586 313 548 263L662 156L587 84L477
190Q416 149 344 149Q271 149 210 190L100 85L25 156ZM202 386Q202 329 242 288T344 246Q406 246 445 287T485 386Q485 445 445 485T344 526Q282 526 242 485T202 386Z" />
<glyph unicode="&#xa5;" glyph-name="yen" horiz-adv-x="650" d="M-3 777H130L247 591Q312 482 324 460H327Q366 525 405 591L521 777H655L431 439H586V357H383V249H586V167H383V0H269V167H65V249H269V357H65V439H220L-3 777Z" />
<glyph unicode="&#xa6;" glyph-name="brokenbar" horiz-adv-x="301" d="M96 483V911H207V483H96ZM96 -168V259H207V-168H96Z" />
<glyph unicode="&#xa7;" glyph-name="section" horiz-adv-x="584" d="M47 54L122 110Q175 39 271 39Q377 39 377 100Q377 122 363 136T315 165L203 216Q65 278 65 378Q65 459 156 527Q93 576 93 638Q93 708 149 751T317 795Q458 795 537 687L465 630Q403 699 315
699Q262 699 236 682T209 637Q209 626 212 617T225 600T242 585T266 570T292 557T324 543T357 528Q446 486 475 462Q535 414 535 343Q535 260 454 196Q492 157 492 100Q492 28 438 -14T271 -57Q197 -57 137 -25T47 54ZM181 382Q181 349 200 332T267 291L365 246Q420
294 420 343Q420 372 398 391T328 434L242 477Q181 431 181 382Z" />
<glyph unicode="&#xa8;" glyph-name="dieresis" horiz-adv-x="531" d="M102 649V777H228V649H102ZM304 649V777H430V649H304Z" />
<glyph unicode="&#xa9;" glyph-name="copyright" horiz-adv-x="909" d="M254 393Q254 509 313 575T468 641Q536 641 579 604T641 510L562 485Q527 559 468 559Q411 559 380 515T349 393Q349 312 381 270T468 228Q506 228 532 251T571 308L652 284Q635 227 587
187T467 147Q372 147 313 212T254 393ZM42 394Q42 583 159 698T455 813Q635 813 751 697T868 394Q868 210 752 93T455 -25Q277 -25 160 90T42 394ZM124 394Q124 239 215 144T455 48Q599 48 693 141T787 394Q787 551 695 645T455 740Q308 740 216 645T124 394Z"
/>
<glyph unicode="&#xaa;" glyph-name="ordfeminine" horiz-adv-x="408" d="M34 317V388H374V317H34ZM109 571Q109 548 127 532T177 516Q221 516 252 544T283 619V660Q267 656 236 651T187 642T149 629T119 607T109 571ZM28 564Q28 603 46 630T97 671T160 693T229
707T283 718V739Q283 770 261 788T201 806Q165 806 135 788T87 750L38 792Q61 821 105 845T200 869Q362 869 362 709V462H285V511Q247 450 167 450Q102 450 65 481T28 564Z" />
<glyph unicode="&#xab;" glyph-name="guillemotleft" horiz-adv-x="529" d="M40 275L212 527L292 474L158 275L291 78L212 22L40 275ZM242 275L414 517L492 458L361 275L492 90L414 33L242 275Z" />
<glyph unicode="&#xac;" glyph-name="logicalnot" horiz-adv-x="584" d="M50 319V417H536V127H431V319H50Z" />
<glyph unicode="&#xad;" glyph-name=".notdef" horiz-adv-x="594" d="M59 338V435H534V338H59Z" />
<glyph unicode="&#xae;" glyph-name="registered" horiz-adv-x="909" d="M297 153V629H489Q560 629 599 589T638 490Q638 410 573 375Q592 359 601 340T617 290Q630 230 672 153H568Q538 199 522 281Q518 299 516 306T509 324T496 339T475 344H391V153H297ZM391
417H476Q508 417 525 435T543 482Q543 508 525 526T476 545H391V417ZM42 395Q42 583 159 698T455 813Q636 813 752 697T868 395Q868 211 752 93T455 -25Q278 -25 160 91T42 395ZM124 395Q124 238 214 145T455 51Q602 51 694 144T787 395Q787 553 694 645T455 737Q307
737 216 644T124 395Z" />
<glyph unicode="&#xaf;" glyph-name="overscore" horiz-adv-x="526" d="M2 749V845H525V749H2Z" />
<glyph unicode="&#xb0;" glyph-name="degree" horiz-adv-x="451" d="M87 648Q87 704 126 744T226 784Q284 784 324 746T364 648Q364 590 324 551T226 512Q168 512 128 551T87 648ZM159 648Q159 619 178 600T226 580Q254 580 273 599T292 648Q292 676 274 695T226
715Q196 715 178 695T159 648Z" />
<glyph unicode="&#xb1;" glyph-name="plusminus" horiz-adv-x="594" d="M43 423V519H242V694H352V519H551V423H352V249H242V423H43ZM44 90V185H550V90H44Z" />
<glyph unicode="&#xb2;" glyph-name="twosuperior" horiz-adv-x="346" d="M27 741Q56 868 173 868Q235 868 273 833T312 737Q312 672 242 600Q232 590 212 571T180 539T153 509T129 473H311V406H32Q32 467 62 513T181 643Q231 690 231 737Q231 767 215 783T172
800Q146 800 128 784T106 754T96 721L27 741Z" />
<glyph unicode="&#xb3;" glyph-name="threesuperior" horiz-adv-x="346" d="M18 502L82 526Q112 463 167 463Q199 463 220 482T242 537Q242 569 218 588T158 608Q143 608 113 606V675Q147 673 156 673Q186 673 206 690T226 739Q226 766 209 783T165 801Q118 801
95 735L29 756Q60 868 168 868Q231 868 269 834T307 746Q307 681 253 646Q323 614 323 537Q323 471 281 433T168 395Q114 395 74 423T18 502Z" />
<glyph unicode="&#xb4;" glyph-name="acute" horiz-adv-x="387" d="M83 686L197 870H333L178 686H83Z" />
<glyph unicode="&#xb5;" glyph-name="mu" horiz-adv-x="600" d="M79 -236V564H189V219Q189 76 290 76Q353 76 386 127T419 247V564H530V0H424V72H423Q410 36 369 9T270 -18Q219 -18 189 19V-236H79Z" />
<glyph unicode="&#xb6;" glyph-name="paragraph" horiz-adv-x="668" d="M56 578Q56 684 112 749T273 814H581V-76H490V713H402V-76H311V342Q284 334 258 334Q172 334 114 397T56 578Z" />
<glyph unicode="&#xb7;" glyph-name="middot" horiz-adv-x="365" d="M106 302V444H259V302H106Z" />
<glyph unicode="&#xb8;" glyph-name="cedilla" horiz-adv-x="322" d="M46 -152Q84 -161 112 -161Q171 -161 171 -128Q171 -88 75 -81L131 33H229L198 -31Q274 -55 274 -129Q274 -176 239 -208T121 -240Q77 -240 46 -231V-152Z" />
<glyph unicode="&#xb9;" glyph-name="onesuperior" horiz-adv-x="346" d="M49 725V788H76Q157 788 157 846V865H228V406H148V725H49Z" />
<glyph unicode="&#xba;" glyph-name="ordmasculine" horiz-adv-x="413" d="M107 659Q107 589 136 554T206 518Q246 518 276 554T306 659Q306 729 276 765T206 801Q166 801 137 765T107 659ZM26 659Q26 748 72 808T206 869Q293 869 340 809T387 659Q387 623 378
589T349 522T292 470T206 450Q157 450 121 469T65 520T36 586T26 659ZM34 321V392H379V321H34Z" />
<glyph unicode="&#xbb;" glyph-name="guillemotright" horiz-adv-x="529" d="M38 458L116 517L288 275L116 33L39 90L170 275L38 458ZM240 79L372 275L238 474L319 527L491 275L319 22L240 79Z" />
<glyph unicode="&#xbc;" glyph-name="onequarter" horiz-adv-x="1027" d="M73 673V752H106Q196 752 196 813V838H283V309H184V673H73ZM586 136L813 482H895V145H960V61H895V-50H799V61H586V136ZM687 145H799V271Q799 280 799 300T800 326L770 276L687 145ZM173
-54L673 827H777L280 -54H173Z" />
<glyph unicode="&#xbd;" glyph-name="onehalf" horiz-adv-x="1027" d="M73 673V752H106Q196 752 196 813V838H283V309H184V673H73ZM606 334Q610 352 613 363T630 400T659 441T706 470T775 484Q846 484 892 443T938 331Q938 283 915 245T846 163Q809 128 793 112T759
75T731 35H936V-48H612Q612 21 645 74T784 227Q838 277 838 332Q838 365 821 383T774 401Q756 401 742 393T719 377T704 351T696 329T691 309L606 334ZM163 -54L666 827H770L270 -54H163Z" />
<glyph unicode="&#xbe;" glyph-name="threequarters" horiz-adv-x="1027" d="M59 431L139 461Q146 447 151 438T168 415T195 396T233 389Q267 389 290 409T314 469Q314 504 289 525T223 547Q207 547 168 544V630Q189 628 221 628Q253 628 274 646T296 699Q296
728 278 747T230 766Q208 766 192 754T169 728T153 691L71 716Q88 781 132 815T234 849Q307 849 351 809T395 706Q395 636 337 594Q414 553 414 469Q414 393 365 349T234 305Q179 305 131 334T59 431ZM593 135L820 482H902V145H966V61H902V-50H805V61H593V135ZM693
145H805V268Q805 277 805 299T806 326L776 274L693 145ZM237 -54L743 827H848L344 -54H237Z" />
<glyph unicode="&#xbf;" glyph-name="questiondown" horiz-adv-x="598" d="M69 -18Q69 30 87 67T132 130T185 181T230 240T249 318V347H364V309Q364 259 346 219T302 153T250 103T205 48T187 -22Q187 -75 215 -106T294 -137Q387 -137 433 -19L534 -53Q509 -133
447 -184T295 -235Q194 -235 132 -176T69 -18ZM229 429V568H384V429H229Z" />
<glyph unicode="&#xc0;" glyph-name="Agrave" horiz-adv-x="688" d="M218 295H470L396 515Q390 533 373 587T347 668H341Q329 629 293 515L218 295ZM-4 0L280 777H409L693 0H570L501 203H188L119 0H-4ZM417 1032H553L667 848H572L417 1032Z" />
<glyph unicode="&#xc1;" glyph-name="Aacute" horiz-adv-x="688" d="M218 295H470L396 515Q390 533 373 587T347 668H341Q329 629 293 515L218 295ZM-4 0L280 777H409L693 0H570L501 203H188L119 0H-4ZM522 848L636 1032H772L616 848H522Z" />
<glyph unicode="&#xc2;" glyph-name="Acircumflex" horiz-adv-x="688" d="M218 295H470L396 515Q390 533 373 587T347 668H341Q329 629 293 515L218 295ZM-4 0L280 777H409L693 0H570L501 203H188L119 0H-4ZM126 848L296 1027H392L565 848H449L344 969L242 848H126Z" />
<glyph unicode="&#xc3;" glyph-name="Atilde" horiz-adv-x="688" d="M218 295H470L396 515Q390 533 373 587T347 668H341Q329 629 293 515L218 295ZM-4 0L280 777H409L693 0H570L501 203H188L119 0H-4ZM108 914Q165 1009 255 1009Q292 1009 342 978T413 947Q466
947 500 1009L562 961Q501 864 416 864Q378 864 329 896T258 928Q233 928 209 911T171 866L108 914Z" />
<glyph unicode="&#xc4;" glyph-name="Adieresis" horiz-adv-x="688" d="M218 295H470L396 515Q390 533 373 587T347 668H341Q329 629 293 515L218 295ZM-4 0L280 777H409L693 0H570L501 203H188L119 0H-4ZM425 883V1000H548V883H425ZM651 883V1000H774V883H651Z" />
<glyph unicode="&#xc5;" glyph-name="Aring" horiz-adv-x="688" d="M218 295H470L396 515Q390 533 373 587T347 668H341Q329 629 293 515L218 295ZM-4 0L280 777H409L693 0H570L501 203H188L119 0H-4ZM195 948Q195 1007 237 1049T345 1092Q411 1092 452 1050T494
948Q494 887 451 845T345 803Q283 803 239 844T195 948ZM272 948Q272 917 293 897T345 876Q376 876 396 896T416 948Q416 979 397 1000T345 1021Q313 1021 293 1000T272 948Z" />
<glyph unicode="&#xc6;" glyph-name="AE" horiz-adv-x="1005" d="M276 295H492V669H482L276 295ZM-4 0L424 777H960V680H605V450H923V353H599V97H970V0H492V202H227L118 0H-4Z" />
<glyph unicode="&#xc7;" glyph-name="Ccedilla" horiz-adv-x="696" d="M45 388Q45 576 140 685T386 795Q483 795 551 742T652 613L554 580Q488 697 384 697Q283 697 223 613T163 388Q163 246 224 163T384 80Q449 80 497 118T569 211L672 179Q657 143 634 112T577
49T494 0T386 -18Q238 -18 142 90T45 388ZM525 -151Q577 -164 619 -164Q646 -164 669 -154T693 -122Q693 -79 578 -81L601 13H700L685 -41Q730 -47 755 -70T780 -129Q780 -172 741 -203T622 -235Q573 -235 525 -221V-151Z" />
<glyph unicode="&#xc8;" glyph-name="Egrave" horiz-adv-x="640" d="M94 0V777H596V679H208V450H558V354H208V98H605V0H94ZM173 1032H309L423 848H328L173 1032Z" />
<glyph unicode="&#xc9;" glyph-name="Eacute" horiz-adv-x="640" d="M94 0V777H596V679H208V450H558V354H208V98H605V0H94ZM517 848L631 1032H767L611 848H517Z" />
<glyph unicode="&#xca;" glyph-name="Ecircumflex" horiz-adv-x="640" d="M123 848L293 1027H389L562 848H446L341 969L239 848H123ZM94 0V777H596V679H208V450H558V354H208V98H605V0H94Z" />
<glyph unicode="&#xcb;" glyph-name="Edieresis" horiz-adv-x="640" d="M94 0V777H596V679H208V450H558V354H208V98H605V0H94ZM423 883V1000H546V883H423ZM649 883V1000H772V883H649Z" />
<glyph unicode="&#xcc;" glyph-name="Igrave" horiz-adv-x="301" d="M94 0V777H208V0H94ZM-29 1032H107L221 848H126L-29 1032Z" />
<glyph unicode="&#xcd;" glyph-name="Iacute" horiz-adv-x="301" d="M94 0V777H208V0H94ZM69 848L183 1032H319L163 848H69Z" />
<glyph unicode="&#xce;" glyph-name="Icircumflex" horiz-adv-x="301" d="M94 0V777H208V0H94ZM-68 848L102 1027H198L371 848H255L150 969L48 848H-68Z" />
<glyph unicode="&#xcf;" glyph-name="Idieresis" horiz-adv-x="301" d="M94 0V777H208V0H94ZM-23 883V1000H100V883H-23ZM203 883V1000H326V883H203Z" />
<glyph unicode="&#xd0;" glyph-name="Eth" horiz-adv-x="725" d="M94 0V777H318Q492 777 587 677T683 388Q683 305 662 237T599 114T484 30T316 0H94ZM208 97H303Q564 97 564 388Q564 680 305 680H208V97ZM11 348V440H407V348H11Z" />
<glyph unicode="&#xd1;" glyph-name="Ntilde" horiz-adv-x="756" d="M148 914Q205 1009 295 1009Q332 1009 382 978T453 947Q506 947 540 1009L602 961Q541 864 456 864Q418 864 369 896T298 928Q273 928 249 911T211 866L148 914ZM94 0V777H217L468 328L556 168H562Q548
273 548 391V777H663V0H540L288 445L200 607H195Q208 503 208 384V0H94Z" />
<glyph unicode="&#xd2;" glyph-name="Ograve" horiz-adv-x="750" d="M45 388Q45 571 135 683T376 795Q526 795 615 683T705 387Q705 202 615 92T376 -18Q226 -18 136 92T45 388ZM164 388Q164 246 220 163T376 80Q474 80 530 162T587 387Q587 528 532 612T376 697Q277
697 221 614T164 388ZM193 1039H329L443 855H348L193 1039Z" />
<glyph unicode="&#xd3;" glyph-name="Oacute" horiz-adv-x="750" d="M45 388Q45 571 135 683T376 795Q526 795 615 683T705 387Q705 202 615 92T376 -18Q226 -18 136 92T45 388ZM164 388Q164 246 220 163T376 80Q474 80 530 162T587 387Q587 528 532 612T376 697Q277
697 221 614T164 388ZM302 855L416 1039H552L396 855H302Z" />
<glyph unicode="&#xd4;" glyph-name="Ocircumflex" horiz-adv-x="750" d="M45 388Q45 571 135 683T376 795Q526 795 615 683T705 387Q705 202 615 92T376 -18Q226 -18 136 92T45 388ZM164 388Q164 246 220 163T376 80Q474 80 530 162T587 387Q587 528 532 612T376
697Q277 697 221 614T164 388ZM157 855L327 1034H423L596 855H480L375 976L273 855H157Z" />
<glyph unicode="&#xd5;" glyph-name="Otilde" horiz-adv-x="750" d="M146 914Q203 1009 293 1009Q330 1009 380 978T451 947Q504 947 538 1009L600 961Q539 864 454 864Q416 864 367 896T296 928Q271 928 247 911T209 866L146 914ZM45 388Q45 571 135 683T376
795Q526 795 615 683T705 387Q705 202 615 92T376 -18Q226 -18 136 92T45 388ZM164 388Q164 246 220 163T376 80Q474 80 530 162T587 387Q587 528 532 612T376 697Q277 697 221 614T164 388Z" />
<glyph unicode="&#xd6;" glyph-name="Odieresis" horiz-adv-x="750" d="M45 388Q45 571 135 683T376 795Q526 795 615 683T705 387Q705 202 615 92T376 -18Q226 -18 136 92T45 388ZM164 388Q164 246 220 163T376 80Q474 80 530 162T587 387Q587 528 532 612T376
697Q277 697 221 614T164 388ZM201 883V1000H324V883H201ZM427 883V1000H550V883H427Z" />
<glyph unicode="&#xd7;" glyph-name="multiply" horiz-adv-x="589" d="M41 210L227 385L41 561L112 630L294 451L478 630L549 561L363 385L549 210L477 141L294 319L112 141L41 210Z" />
<glyph unicode="&#xd8;" glyph-name="Oslash" horiz-adv-x="751" d="M45 388Q45 571 136 683T376 795Q460 795 528 757L570 835H668L598 704Q706 591 706 388Q706 203 616 93T376 -18Q298 -18 236 13L194 -65H97L165 62Q45 176 45 388ZM540 597L285 103Q323 80
376 80Q474 80 531 162T588 388Q588 517 540 597ZM480 666Q434 697 376 697Q277 697 221 614T164 388Q164 248 221 166L480 666Z" />
<glyph unicode="&#xd9;" glyph-name="Ugrave" horiz-adv-x="747" d="M91 287V777H206V288Q206 183 251 132T374 80Q453 80 498 133T543 288V777H658V287Q658 142 586 62T374 -18Q239 -18 165 59T91 287ZM197 1039H333L447 855H352L197 1039Z" />
<glyph unicode="&#xda;" glyph-name="Uacute" horiz-adv-x="747" d="M91 287V777H206V288Q206 183 251 132T374 80Q453 80 498 133T543 288V777H658V287Q658 142 586 62T374 -18Q239 -18 165 59T91 287ZM296 855L410 1039H546L390 855H296Z" />
<glyph unicode="&#xdb;" glyph-name="Ucircumflex" horiz-adv-x="747" d="M91 287V777H206V288Q206 183 251 132T374 80Q453 80 498 133T543 288V777H658V287Q658 142 586 62T374 -18Q239 -18 165 59T91 287ZM157 855L327 1034H423L596 855H480L375 976L273 855H157Z" />
<glyph unicode="&#xdc;" glyph-name="Udieresis" horiz-adv-x="747" d="M91 287V777H206V288Q206 183 251 132T374 80Q453 80 498 133T543 288V777H658V287Q658 142 586 62T374 -18Q239 -18 165 59T91 287ZM202 883V1000H325V883H202ZM428 883V1000H551V883H428Z" />
<glyph unicode="&#xdd;" glyph-name="Yacute" horiz-adv-x="651" d="M-3 777H130L254 545Q296 468 324 412H327Q338 431 350 453T376 503T398 545L521 777H655L384 317V0H269V317L-3 777ZM502 855L616 1039H752L596 855H502Z" />
<glyph unicode="&#xde;" glyph-name="Thorn" horiz-adv-x="623" d="M94 0V777H208V650H302Q379 650 435 630T523 573T570 493T585 399Q585 272 508 209T300 145H208V0H94ZM208 242H289Q465 242 465 400Q465 553 293 553H208V242Z" />
<glyph unicode="&#xdf;" glyph-name="germandbls" horiz-adv-x="683" d="M94 0V572Q94 680 162 737T332 795Q443 795 510 738T578 584Q578 470 488 418V416Q555 395 596 344T638 209Q638 105 573 44T397 -18Q321 -18 261 2L264 103Q325 80 393 80Q446 80 483 116T520
209Q520 280 479 318T366 356H296V453H356Q402 453 431 487T460 578Q460 631 427 664T335 697Q276 697 242 661T208 563V0H94Z" />
<glyph unicode="&#xe0;" glyph-name="agrave" horiz-adv-x="580" d="M149 154Q149 120 176 97T251 74Q315 74 360 115T405 224V285Q359 274 284 262Q216 251 183 225T149 154ZM37 145Q37 303 276 340Q375 355 405 365V396Q405 441 373 467T285 494Q188 494 120
415L52 473Q95 524 155 553T283 582Q515 582 515 354V0H408V78Q391 39 344 11T235 -18Q143 -18 90 27T37 145ZM120 839H256L370 655H275L120 839Z" />
<glyph unicode="&#xe1;" glyph-name="aacute" horiz-adv-x="580" d="M149 154Q149 120 176 97T251 74Q315 74 360 115T405 224V285Q359 274 284 262Q216 251 183 225T149 154ZM37 145Q37 303 276 340Q375 355 405 365V396Q405 441 373 467T285 494Q188 494 120
415L52 473Q95 524 155 553T283 582Q515 582 515 354V0H408V78Q391 39 344 11T235 -18Q143 -18 90 27T37 145ZM190 659L304 843H440L284 659H190Z" />
<glyph unicode="&#xe2;" glyph-name="acircumflex" horiz-adv-x="580" d="M149 154Q149 120 176 97T251 74Q315 74 360 115T405 224V285Q359 274 284 262Q216 251 183 225T149 154ZM37 145Q37 303 276 340Q375 355 405 365V396Q405 441 373 467T285 494Q188 494
120 415L52 473Q95 524 155 553T283 582Q515 582 515 354V0H408V78Q391 39 344 11T235 -18Q143 -18 90 27T37 145ZM63 659L233 838H329L502 659H386L281 780L179 659H63Z" />
<glyph unicode="&#xe3;" glyph-name="atilde" horiz-adv-x="580" d="M149 154Q149 120 176 97T251 74Q315 74 360 115T405 224V285Q359 274 284 262Q216 251 183 225T149 154ZM37 145Q37 303 276 340Q375 355 405 365V396Q405 441 373 467T285 494Q188 494 120
415L52 473Q95 524 155 553T283 582Q515 582 515 354V0H408V78Q391 39 344 11T235 -18Q143 -18 90 27T37 145ZM315 713Q372 808 462 808Q499 808 549 777T620 746Q673 746 707 808L769 760Q708 663 623 663Q585 663 536 695T465 727Q440 727 416 710T378 665L315
713Z" />
<glyph unicode="&#xe4;" glyph-name="adieresis" horiz-adv-x="580" d="M149 154Q149 120 176 97T251 74Q315 74 360 115T405 224V285Q359 274 284 262Q216 251 183 225T149 154ZM37 145Q37 303 276 340Q375 355 405 365V396Q405 441 373 467T285 494Q188 494
120 415L52 473Q95 524 155 553T283 582Q515 582 515 354V0H408V78Q391 39 344 11T235 -18Q143 -18 90 27T37 145ZM106 690V807H229V690H106ZM332 690V807H455V690H332Z" />
<glyph unicode="&#xe5;" glyph-name="aring" horiz-adv-x="580" d="M149 154Q149 120 176 97T251 74Q315 74 360 115T405 224V285Q359 274 284 262Q216 251 183 225T149 154ZM37 145Q37 303 276 340Q375 355 405 365V396Q405 441 373 467T285 494Q188 494 120
415L52 473Q95 524 155 553T283 582Q515 582 515 354V0H408V78Q391 39 344 11T235 -18Q143 -18 90 27T37 145ZM391 1030Q391 1089 433 1131T541 1174Q607 1174 648 1132T690 1030Q690 969 647 927T541 885Q479 885 435 926T391 1030ZM468 1030Q468 999 489 979T541
958Q572 958 592 978T612 1030Q612 1061 593 1082T541 1103Q509 1103 489 1082T468 1030Z" />
<glyph unicode="&#xe6;" glyph-name="ae" horiz-adv-x="945" d="M37 147Q37 304 283 341Q379 356 405 364Q405 367 405 380T404 397Q404 438 372 466T288 494Q189 494 119 414L51 472Q93 523 154 552T289 582Q420 582 475 486Q542 582 660 582Q768 582 838 500T909
291Q909 283 909 269T908 245H513V228Q517 167 556 120T663 72Q759 72 806 158L898 127Q870 64 810 23T661 -18Q520 -18 450 107Q369 -18 235 -18Q144 -18 91 27T37 147ZM149 154Q149 121 176 98T248 74Q313 74 358 116T404 223V285Q353 273 291 263Q222 253 186
228T149 154ZM513 323H797Q798 394 759 443T661 493Q600 493 563 451T515 345L513 323Z" />
<glyph unicode="&#xe7;" glyph-name="ccedilla" horiz-adv-x="541" d="M39 282Q39 418 109 500T296 582Q378 582 434 534T506 421L413 395Q400 434 370 461T297 488Q229 488 191 430T152 282Q152 185 193 130T297 75Q342 75 377 105T427 176L520 149Q501 82 440
32T296 -18Q181 -18 110 63T39 282ZM423 104Q475 91 517 91Q544 91 567 101T591 133Q591 176 476 174L499 268H598L583 214Q628 208 653 185T678 126Q678 83 639 52T520 20Q471 20 423 34V104Z" />
<glyph unicode="&#xe8;" glyph-name="egrave" horiz-adv-x="589" d="M39 285Q39 419 112 500T299 582Q412 582 482 501T553 292Q553 290 550 245H150Q150 174 191 123T305 72Q354 72 392 96T450 158L542 127Q515 64 455 23T304 -18Q186 -18 113 64T39 285ZM152
324H441Q441 395 403 444T299 493Q232 493 193 443T152 324ZM130 843H266L380 659H285L130 843Z" />
<glyph unicode="&#xe9;" glyph-name="eacute" horiz-adv-x="589" d="M39 285Q39 419 112 500T299 582Q412 582 482 501T553 292Q553 290 550 245H150Q150 174 191 123T305 72Q354 72 392 96T450 158L542 127Q515 64 455 23T304 -18Q186 -18 113 64T39 285ZM152
324H441Q441 395 403 444T299 493Q232 493 193 443T152 324ZM195 659L309 843H445L289 659H195Z" />
<glyph unicode="&#xea;" glyph-name="ecircumflex" horiz-adv-x="589" d="M39 285Q39 419 112 500T299 582Q412 582 482 501T553 292Q553 290 550 245H150Q150 174 191 123T305 72Q354 72 392 96T450 158L542 127Q515 64 455 23T304 -18Q186 -18 113 64T39 285ZM152
324H441Q441 395 403 444T299 493Q232 493 193 443T152 324ZM79 659L249 838H345L518 659H402L297 780L195 659H79Z" />
<glyph unicode="&#xeb;" glyph-name="edieresis" horiz-adv-x="589" d="M123 690V807H246V690H123ZM349 690V807H472V690H349ZM39 285Q39 419 112 500T299 582Q412 582 482 501T553 292Q553 290 550 245H150Q150 174 191 123T305 72Q354 72 392 96T450 158L542
127Q515 64 455 23T304 -18Q186 -18 113 64T39 285ZM152 324H441Q441 395 403 444T299 493Q232 493 193 443T152 324Z" />
<glyph unicode="&#xec;" glyph-name="igrave" horiz-adv-x="269" d="M80 0V564H190V0H80ZM-41 843H95L209 659H114L-41 843Z" />
<glyph unicode="&#xed;" glyph-name="iacute" horiz-adv-x="269" d="M80 0V564H190V0H80ZM55 659L169 843H305L149 659H55Z" />
<glyph unicode="&#xee;" glyph-name="icircumflex" horiz-adv-x="269" d="M-82 659L88 838H184L357 659H241L136 780L34 659H-82ZM80 0V564H190V0H80Z" />
<glyph unicode="&#xef;" glyph-name="idieresis" horiz-adv-x="269" d="M-37 690V807H86V690H-37ZM189 690V807H312V690H189ZM80 0V564H190V0H80Z" />
<glyph unicode="&#xf0;" glyph-name="eth" horiz-adv-x="591" d="M155 618L452 836L514 765L220 548L155 618ZM39 247Q39 372 108 446T288 520Q336 520 373 501T427 457Q403 568 327 638T144 725L182 814Q239 805 289 785T388 725T473 628T531 484T553 288Q553
151 484 67T290 -18Q175 -18 107 56T39 247ZM151 251Q151 174 189 125T294 76Q356 76 394 123T432 252Q432 329 394 377T294 425Q232 425 192 378T151 251Z" />
<glyph unicode="&#xf1;" glyph-name="ntilde" horiz-adv-x="593" d="M66 713Q123 808 213 808Q250 808 300 777T371 746Q424 746 458 808L520 760Q459 663 374 663Q336 663 287 695T216 727Q191 727 167 710T129 665L66 713ZM73 0V564H180V485H181Q194 519 237
550T345 582Q427 582 477 531T527 363V0H417V348Q417 488 320 488Q263 488 224 442T184 329V0H73Z" />
<glyph unicode="&#xf2;" glyph-name="ograve" horiz-adv-x="593" d="M151 282Q151 181 194 128T297 75Q356 75 399 128T443 282Q443 384 400 436T297 488Q238 488 195 436T151 282ZM39 282Q39 364 65 430T152 539T297 582Q422 582 488 496T555 282Q555 230 542
181T501 85T420 11T297 -18Q227 -18 175 9T95 82T53 178T39 282ZM130 843H266L380 659H285L130 843Z" />
<glyph unicode="&#xf3;" glyph-name="oacute" horiz-adv-x="593" d="M151 282Q151 181 194 128T297 75Q356 75 399 128T443 282Q443 384 400 436T297 488Q238 488 195 436T151 282ZM39 282Q39 364 65 430T152 539T297 582Q422 582 488 496T555 282Q555 230 542
181T501 85T420 11T297 -18Q227 -18 175 9T95 82T53 178T39 282ZM211 659L325 843H461L305 659H211Z" />
<glyph unicode="&#xf4;" glyph-name="ocircumflex" horiz-adv-x="593" d="M77 659L247 838H343L516 659H400L295 780L193 659H77ZM151 282Q151 181 194 128T297 75Q356 75 399 128T443 282Q443 384 400 436T297 488Q238 488 195 436T151 282ZM39 282Q39 364 65
430T152 539T297 582Q422 582 488 496T555 282Q555 230 542 181T501 85T420 11T297 -18Q227 -18 175 9T95 82T53 178T39 282Z" />
<glyph unicode="&#xf5;" glyph-name="otilde" horiz-adv-x="593" d="M65 713Q122 808 212 808Q249 808 299 777T370 746Q423 746 457 808L519 760Q458 663 373 663Q335 663 286 695T215 727Q190 727 166 710T128 665L65 713ZM151 282Q151 181 194 128T297 75Q356
75 399 128T443 282Q443 384 400 436T297 488Q238 488 195 436T151 282ZM39 282Q39 364 65 430T152 539T297 582Q422 582 488 496T555 282Q555 230 542 181T501 85T420 11T297 -18Q227 -18 175 9T95 82T53 178T39 282Z" />
<glyph unicode="&#xf6;" glyph-name="odieresis" horiz-adv-x="593" d="M122 690V807H245V690H122ZM348 690V807H471V690H348ZM151 282Q151 181 194 128T297 75Q356 75 399 128T443 282Q443 384 400 436T297 488Q238 488 195 436T151 282ZM39 282Q39 364 65 430T152
539T297 582Q422 582 488 496T555 282Q555 230 542 181T501 85T420 11T297 -18Q227 -18 175 9T95 82T53 178T39 282Z" />
<glyph unicode="&#xf7;" glyph-name="divide" horiz-adv-x="589" d="M225 519V653H363V519H225ZM28 335V432H560V335H28ZM225 114V249H363V114H225Z" />
<glyph unicode="&#xf8;" glyph-name="oslash" horiz-adv-x="593" d="M39 281Q39 363 65 429T152 538T297 582Q358 582 408 558L446 631H533L471 514Q555 431 555 281Q555 229 542 180T501 85T420 10T297 -18Q238 -18 192 2L158 -61H72L127 43Q39 125 39 281ZM413
408L239 90Q267 76 297 76Q356 76 399 128T442 281Q442 358 413 408ZM362 470Q334 488 297 488Q238 488 195 436T151 281Q151 201 186 147L362 470Z" />
<glyph unicode="&#xf9;" glyph-name="ugrave" horiz-adv-x="590" d="M66 202V564H177V219Q177 75 279 75Q341 75 374 125T408 246V564H517V0H412V74H410Q396 41 357 12T254 -18Q177 -18 122 34T66 202ZM123 843H259L373 659H278L123 843Z" />
<glyph unicode="&#xfa;" glyph-name="uacute" horiz-adv-x="590" d="M66 202V564H177V219Q177 75 279 75Q341 75 374 125T408 246V564H517V0H412V74H410Q396 41 357 12T254 -18Q177 -18 122 34T66 202ZM210 659L324 843H460L304 659H210Z" />
<glyph unicode="&#xfb;" glyph-name="ucircumflex" horiz-adv-x="590" d="M66 202V564H177V219Q177 75 279 75Q341 75 374 125T408 246V564H517V0H412V74H410Q396 41 357 12T254 -18Q177 -18 122 34T66 202ZM81 659L251 838H347L520 659H404L299 780L197 659H81Z" />
<glyph unicode="&#xfc;" glyph-name="udieresis" horiz-adv-x="590" d="M126 690V807H249V690H126ZM352 690V807H475V690H352ZM66 202V564H177V219Q177 75 279 75Q341 75 374 125T408 246V564H517V0H412V74H410Q396 41 357 12T254 -18Q177 -18 122 34T66 202Z" />
<glyph unicode="&#xfd;" glyph-name="yacute" horiz-adv-x="541" d="M7 564H130L233 261Q260 178 274 127H277Q285 154 299 201T317 261L413 564H534L297 -80Q265 -166 219 -200T103 -235H67V-144H86Q128 -144 155 -124T202 -52L221 7L7 564ZM177 659L291 843H427L271
659H177Z" />
<glyph unicode="&#xfe;" glyph-name="thorn" horiz-adv-x="623" d="M192 282Q192 188 231 132T330 76Q396 76 434 130T473 282Q473 377 435 432T330 488Q271 488 232 432T192 282ZM84 -236V804H194V485Q210 527 253 554T345 582Q452 582 518 502T585 282Q585 204
564 145T507 51T430 -1T344 -18Q288 -18 249 11T194 76V-236H84Z" />
<glyph unicode="&#xff;" glyph-name="ydieresis" horiz-adv-x="541" d="M92 690V807H215V690H92ZM318 690V807H441V690H318ZM7 564H130L233 261Q260 178 274 127H277Q285 154 299 201T317 261L413 564H534L297 -80Q265 -166 219 -200T103 -235H67V-144H86Q128
-144 155 -124T202 -52L221 7L7 564Z" />
<glyph unicode="&#x2013;" glyph-name="endash" horiz-adv-x="525" d="M38 326V423H488V326H38Z" />
<glyph unicode="&#x2014;" glyph-name="emdash" horiz-adv-x="1014" d="M0 326V423H1015V326H0Z" />
<glyph unicode="&#x2018;" glyph-name="quoteleft" horiz-adv-x="370" d="M109 559V662Q109 824 218 908L277 859Q237 826 221 790T205 696H272V559H109Z" />
<glyph unicode="&#x2019;" glyph-name="quoteright" horiz-adv-x="370" d="M99 729V866H261V764Q261 601 152 517L94 567Q134 600 150 636T166 729H99Z" />
<glyph unicode="&#x201a;" glyph-name="quotesinglbase" horiz-adv-x="370" d="M99 6V143H261V40Q261 -122 152 -206L94 -157Q134 -124 150 -88T166 6H99Z" />
<glyph unicode="&#x201c;" glyph-name="quotedblleft" horiz-adv-x="568" d="M332 559V662Q332 824 441 908L500 859Q460 826 444 790T428 696H494V559H332ZM82 559V662Q82 833 191 917L250 867Q211 835 195 795T178 696H245V559H82Z" />
<glyph unicode="&#x201d;" glyph-name="quotedblright" horiz-adv-x="568" d="M69 567Q109 600 125 636T141 729H74V866H237V764Q237 601 128 517L69 567ZM320 558Q361 591 376 630T392 729H325V866H488V764Q488 594 378 509L320 558Z" />
<glyph unicode="&#x201e;" glyph-name="quotedblbase" horiz-adv-x="568" d="M69 -157Q109 -124 125 -88T141 6H74V143H237V40Q237 -122 128 -206L69 -157ZM319 -165Q360 -132 375 -93T391 6H324V143H487V40Q487 -131 378 -215L319 -165Z" />
<glyph unicode="&#x2022;" glyph-name="bullet" horiz-adv-x="516" d="M143 259V488H374V259H143Z" />
<glyph unicode="&#x2039;" glyph-name="guilsinglleft" horiz-adv-x="391" d="M69 274L255 529L336 476L188 275L335 74L255 20L69 274Z" />
<glyph unicode="&#x203a;" glyph-name="guilsinglright" horiz-adv-x="391" d="M56 75L203 275L56 476L136 530L322 275L136 21L56 75Z" />
</font>
</defs>
</svg>
