<?xml version="1.0" standalone="no"?>
<!DOCTYPE svg PUBLIC "-//W3C//DTD SVG 1.1//EN" "http://www.w3.org/Graphics/SVG/1.1/DTD/svg11.dtd">
<svg xmlns="http://www.w3.org/2000/svg">
<defs >
<font id="GothicA1" horiz-adv-x="958" ><font-face
    font-family="Gothic A1 Light"
    units-per-em="1024"
    panose-1="0 0 0 0 0 0 0 0 0 0"
    ascent="817"
    descent="-207"
    alphabetic="0" />
<glyph unicode=" " glyph-name="space" horiz-adv-x="250" />
<glyph unicode="!" glyph-name="exclam" horiz-adv-x="312" d="M101 -9V94H212V-9H101ZM185 206H129L121 736H193L185 206Z" />
<glyph unicode="&quot;" glyph-name="quotedbl" horiz-adv-x="478" d="M265 544L349 828H441L317 544H265ZM69 544L152 828H245L120 544H69Z" />
<glyph unicode="#" glyph-name="numbersign" horiz-adv-x="703" d="M48 207V255H179L207 460H81V507H214L241 710H297L269 507H477L504 710H560L532 507H656V460H526L499 255H624V207H492L465 3H407L435 207H229L202 3H144L172 207H48ZM236 255H442L470 460H263L236 255Z" />
<glyph unicode="$" glyph-name="dollar" horiz-adv-x="590" d="M69 128L117 153Q146 108 197 81T297 53Q366 53 410 85T455 185Q455 220 441 247T399 293T340 327T266 359Q249 366 240 369Q165 400 126 442T86 556Q86 623 135 674T267 732V815H326V731Q379 729
427 696T495 623L447 600Q389 682 296 682Q228 682 189 646T149 555Q149 523 161 499T200 455T252 424T322 394Q357 380 379 370T430 342T477 304T506 255T519 191Q519 104 464 56T326 1V-77H267V2Q213 5 157 38T69 128Z" />
<glyph unicode="%" glyph-name="percent" horiz-adv-x="974" d="M533 158Q533 235 585 283T716 332Q795 332 847 284T900 158Q900 80 847 31T716 -18Q638 -18 586 30T533 158ZM592 158Q592 101 628 67T716 32Q767 32 804 67T841 158Q841 214 805 248T716 282Q665
282 629 248T592 158ZM75 578Q75 655 127 704T259 753Q338 753 390 705T442 578Q442 500 390 452T259 404Q181 404 128 452T75 578ZM134 578Q134 522 171 488T259 453Q310 453 346 487T383 578Q383 634 347 669T259 704Q208 704 171 669T134 578ZM189 -2L720 737H785L254
-2H189Z" />
<glyph unicode="&amp;" glyph-name="ampersand" horiz-adv-x="643" d="M130 184Q130 117 175 76T290 34Q391 34 467 133L274 390Q211 350 171 302T130 184ZM67 183Q67 330 241 436Q238 440 229 453T216 471T205 486T195 503T186 518T178 533T173 548T168 564T165
579T164 597Q164 658 211 701T340 745Q468 745 527 625L478 603Q460 638 424 665T344 693Q291 693 260 665T228 596Q228 556 285 472T468 224Q489 198 499 184Q534 252 547 338L604 328Q589 221 540 134L643 0H569L503 85Q419 -18 287 -18Q184 -18 126 39T67 183Z"
/>
<glyph unicode="&apos;" glyph-name="quotesingle" horiz-adv-x="289" d="M75 544L158 828H251L126 544H75Z" />
<glyph unicode="(" glyph-name="parenleft" horiz-adv-x="454" d="M161 351Q161 639 333 855L377 830Q342 778 324 746T277 651T236 514T223 351Q223 261 236 186T278 48T325 -45T377 -127L333 -152Q161 68 161 351Z" />
<glyph unicode=")" glyph-name="parenright" horiz-adv-x="454" d="M77 -127Q111 -77 134 -36T181 64T218 196T231 351Q231 438 219 511T180 644T133 742T77 830L121 855Q293 641 293 351Q293 69 121 -152L77 -127Z" />
<glyph unicode="*" glyph-name="asterisk" horiz-adv-x="560" d="M30 422L52 475L256 397L249 598H311L304 397L508 475L530 422L320 348L477 173L430 137L280 321L130 138L83 173L240 348L30 422Z" />
<glyph unicode="+" glyph-name="plus" horiz-adv-x="560" d="M31 336V390H250V604H310V390H528V336H310V114H250V336H31Z" />
<glyph unicode="," glyph-name="comma" horiz-adv-x="345" d="M55 -177L139 106H231L106 -177H55Z" />
<glyph unicode="-" glyph-name="hyphen" horiz-adv-x="560" d="M51 336V390H509V336H51Z" />
<glyph unicode="." glyph-name="period" horiz-adv-x="345" d="M117 0V106H229V0H117Z" />
<glyph unicode="/" glyph-name="slash" horiz-adv-x="330" d="M-11 -60L276 786H341L54 -60H-11Z" />
<glyph unicode="0" glyph-name="zero" horiz-adv-x="560" d="M119 367Q119 213 159 124T282 34Q326 34 358 61T407 135T433 240T441 367Q441 522 401 611T280 701Q201 701 160 613T119 367ZM54 367Q54 565 117 659T280 753Q386 753 446 655T506 367Q506 285 493
217T454 96T384 12T282 -18Q181 -18 118 79T54 367Z" />
<glyph unicode="1" glyph-name="one" horiz-adv-x="560" d="M109 578V627H141Q222 627 250 649T279 719V745H333V-11H268V578H109Z" />
<glyph unicode="2" glyph-name="two" horiz-adv-x="560" d="M55 575Q103 753 278 753Q370 753 429 700T489 552Q489 442 374 334Q252 220 203 164T134 52H489V0H58Q58 29 66 57T97 120T136 176T193 239T252 297T322 363Q424 460 424 553Q424 624 384 662T276 701Q211
701 170 663T111 560L55 575Z" />
<glyph unicode="3" glyph-name="three" horiz-adv-x="560" d="M41 119L94 141Q152 34 266 34Q340 34 390 77T440 202Q440 279 386 321T255 363Q221 363 199 361V414Q219 412 251 412Q321 412 366 452T411 561Q411 622 370 661T264 701Q165 701 115 588L61 606Q85
670 136 711T267 753Q363 753 419 700T475 566Q475 500 439 455T352 392Q413 377 459 329T505 202Q505 96 440 39T267 -18Q185 -18 128 21T41 119Z" />
<glyph unicode="4" glyph-name="four" horiz-adv-x="560" d="M26 223L369 746H428V225H540V172H428V-11H365V172H26V223ZM88 225H365V535Q365 594 368 654H365L300 550L88 225Z" />
<glyph unicode="5" glyph-name="five" horiz-adv-x="560" d="M51 112L103 133Q127 88 168 61T260 34Q339 34 383 85T428 217Q428 299 381 350T258 401Q220 401 180 384T110 336L72 351L110 735H449V683H168L138 410Q200 453 280 453Q374 453 433 389T493 218Q493
119 433 51T260 -18Q117 -18 51 112Z" />
<glyph unicode="6" glyph-name="six" horiz-adv-x="560" d="M125 227Q125 144 170 89T288 34Q359 34 404 88T450 227Q450 313 404 367T286 421Q217 421 171 365T125 227ZM55 326Q55 406 68 478T110 613T191 715T314 753Q439 753 503 628L452 609Q399 701 314 701Q267
701 232 676T176 609T144 525T127 436Q121 388 118 345Q137 403 184 438T296 474Q392 474 452 404T513 228Q513 124 454 53T292 -18Q189 -18 127 52Q55 132 55 326Z" />
<glyph unicode="7" glyph-name="seven" horiz-adv-x="560" d="M41 681V735H491V691Q384 514 318 349T208 -11H143Q187 193 253 351T418 681H41Z" />
<glyph unicode="8" glyph-name="eight" horiz-adv-x="560" d="M134 560Q134 497 177 458T280 419Q341 419 383 459T426 560Q426 622 384 661T280 701Q215 701 175 660T134 560ZM45 194Q45 274 87 324T193 394Q69 441 69 563Q69 642 128 697T280 753Q370 753 430
699T490 563Q490 497 454 454T367 394Q431 375 473 324T516 193Q516 101 450 42T280 -18Q180 -18 113 40T45 194ZM110 198Q110 127 159 81T280 34Q353 34 402 81T452 198Q452 270 402 318T280 367Q210 367 160 319T110 198Z" />
<glyph unicode="9" glyph-name="nine" horiz-adv-x="560" d="M108 509Q108 423 156 370T270 317Q337 317 384 371T431 508Q431 589 386 645T270 701Q201 701 155 647T108 509ZM53 111L106 131Q127 88 165 61T251 34Q302 34 339 61T396 139T426 248T436 380Q417
334 372 300T262 265Q173 265 109 331T44 508Q44 615 108 684T270 753Q354 753 410 701T485 566Q498 508 498 405Q498 -18 249 -18Q179 -18 128 20T53 111Z" />
<glyph unicode=":" glyph-name="colon" horiz-adv-x="345" d="M117 88V195H229V88H117ZM117 476V583H229V476H117Z" />
<glyph unicode=";" glyph-name="semicolon" horiz-adv-x="345" d="M55 -89L139 195H231L106 -89H55ZM116 476V583H227V476H116Z" />
<glyph unicode="&lt;" glyph-name="less" horiz-adv-x="560" d="M61 327V383L474 696L507 650L121 355L507 60L474 14L61 327Z" />
<glyph unicode="=" glyph-name="equal" horiz-adv-x="560" d="M51 241V295H509V241H51ZM51 432V486H509V432H51Z" />
<glyph unicode="&gt;" glyph-name="greater" horiz-adv-x="560" d="M86 14L54 60L438 355L54 650L86 696L500 383V327L86 14Z" />
<glyph unicode="?" glyph-name="question" horiz-adv-x="550" d="M66 600Q93 671 148 712T275 753Q367 753 420 700T474 558Q474 513 456 476T411 414T358 363T313 302T294 222V198H231V225Q231 274 249 313T294 379T346 430T390 487T409 559Q409 623 374 661T275
700Q173 700 122 580L66 600ZM206 -9V94H318V-9H206Z" />
<glyph unicode="@" glyph-name="at" horiz-adv-x="953" d="M62 345Q62 528 183 644T499 760Q674 760 783 659T892 397Q892 257 838 188T709 119Q664 119 631 151T596 234H595Q579 191 536 156T435 120Q365 120 319 172T273 312Q273 428 334 495T480 562Q529 562
558 540T600 493L604 553H653L640 277Q638 225 658 197T713 168Q768 168 802 227T837 392Q837 534 746 623T498 713Q333 713 226 611T118 345Q118 176 220 77T485 -22Q604 -22 706 9L717 -35Q613 -68 485 -68Q293 -68 178 47T62 345ZM331 312Q331 249 362 210T441
171Q464 171 487 181T535 215T575 285T590 397Q590 444 564 479T481 514Q424 514 378 460T331 312Z" />
<glyph unicode="A" glyph-name="A" horiz-adv-x="632" d="M168 273H464L365 547Q358 568 342 613T319 677H314Q309 664 293 617T269 547L168 273ZM-2 0L277 735H356L634 0H564L484 222H149L68 0H-2Z" />
<glyph unicode="B" glyph-name="B" horiz-adv-x="672" d="M110 0V735H377Q481 735 536 685T591 549Q591 487 559 445T478 385Q538 369 579 320T620 203Q620 117 564 59T410 0H110ZM173 54H395Q465 54 510 94T555 201Q555 265 509 308T390 352H173V54ZM173 405H364Q434
405 480 440T527 544Q527 604 489 642T369 681H173V405Z" />
<glyph unicode="C" glyph-name="C" horiz-adv-x="644" d="M55 367Q55 547 141 650T364 753Q449 753 507 707T594 598L540 578Q476 699 363 699Q252 699 186 608T120 367Q120 214 187 126T363 37Q432 37 481 74T556 167L613 148Q580 77 519 30T364 -18Q227 -18
141 84T55 367Z" />
<glyph unicode="D" glyph-name="D" horiz-adv-x="688" d="M110 0V735H303Q460 735 550 642T641 367Q641 192 553 96T302 0H110ZM173 54H289Q422 54 499 129T576 367Q576 532 500 606T291 681H173V54Z" />
<glyph unicode="E" glyph-name="E" horiz-adv-x="612" d="M110 0V735H562V681H173V407H525V354H173V54H572V0H110Z" />
<glyph unicode="F" glyph-name="F" horiz-adv-x="571" d="M110 0V735H547V681H173V397H510V344H173V0H110Z" />
<glyph unicode="G" glyph-name="G" horiz-adv-x="714" d="M55 367Q55 539 139 646T371 753Q462 753 521 708T609 603L555 584Q486 699 371 699Q252 699 186 608T120 367Q120 213 187 125T368 37Q470 37 523 105T577 266V337H359V391H639V0H592L587 122Q530 -18
366 -18Q225 -18 140 85T55 367Z" />
<glyph unicode="H" glyph-name="H" horiz-adv-x="732" d="M110 0V735H173V405H559V735H622V0H559V352H173V0H110Z" />
<glyph unicode="I" glyph-name="I" horiz-adv-x="283" d="M110 0V735H173V0H110Z" />
<glyph unicode="J" glyph-name="J" horiz-adv-x="494" d="M16 110L73 132Q89 87 121 62T196 37Q321 39 321 212V735H384V200Q384 92 337 37T198 -18Q63 -18 16 110Z" />
<glyph unicode="K" glyph-name="K" horiz-adv-x="635" d="M110 0V735H173V325H175L529 735H614L336 418L632 0H552L294 372L173 234V0H110Z" />
<glyph unicode="L" glyph-name="L" horiz-adv-x="538" d="M110 0V735H173V54H529V0H110Z" />
<glyph unicode="M" glyph-name="M" horiz-adv-x="884" d="M110 0V735H193L370 315Q385 279 408 219T440 138H444Q480 232 514 315L691 735H775V0H712V446Q712 520 720 656H717L677 558L471 59H414L208 557L168 656H164Q173 519 173 446V0H110Z" />
<glyph unicode="N" glyph-name="N" horiz-adv-x="737" d="M110 0V735H184L481 238L569 89H574Q564 172 564 286V735H628V0H554L253 504L169 645H166Q173 560 173 442V0H110Z" />
<glyph unicode="O" glyph-name="O" horiz-adv-x="709" d="M55 367Q55 541 136 647T355 753Q493 753 573 647T654 366Q654 191 573 87T355 -18Q217 -18 136 87T55 367ZM120 367Q120 217 183 127T355 37Q462 37 525 125T589 366Q589 518 527 608T355 699Q247 699
184 609T120 367Z" />
<glyph unicode="P" glyph-name="P" horiz-adv-x="655" d="M110 0V735H385Q489 735 550 677T612 523Q612 424 549 368T385 311H173V0H110ZM173 364H373Q454 364 500 404T547 523Q547 599 501 640T371 681H173V364Z" />
<glyph unicode="Q" glyph-name="Q" horiz-adv-x="708" d="M55 366Q55 542 137 647T355 753Q492 753 573 647T654 366Q654 193 574 88T355 -18Q217 -18 136 87T55 366ZM120 366Q120 215 183 126T355 37Q462 37 525 126T589 366Q589 522 525 610T355 699Q248 699
184 610T120 366ZM345 223L387 261L653 -14L611 -51L345 223Z" />
<glyph unicode="R" glyph-name="R" horiz-adv-x="665" d="M173 379H386Q464 379 506 420T549 531Q549 597 505 639T377 681H173V379ZM110 0V735H393Q499 735 556 678T614 535Q614 454 573 407T481 348Q523 328 544 294T578 203Q579 197 585 173T592 144T598 120T605
95T613 74T622 49T633 27T648 0H577Q561 30 549 64T530 122T512 199Q499 256 470 290T379 325H173V0H110Z" />
<glyph unicode="S" glyph-name="S" horiz-adv-x="611" d="M46 130L105 152Q136 99 190 68T315 37Q397 37 448 77T500 187Q500 215 489 238T462 277T418 308T367 331T308 352Q275 363 258 368T211 386T165 409T127 435T95 469T76 511T68 564Q68 650 133 701T310
753Q392 753 454 716T544 622L490 603Q429 699 308 699Q226 699 180 662T133 564Q133 519 166 486T231 440T333 403Q340 400 344 399Q383 386 410 376T469 347T520 309T552 258T565 190Q565 92 497 37T313 -18Q218 -18 151 22T46 130Z" />
<glyph unicode="T" glyph-name="T" horiz-adv-x="547" d="M15 681V735H534V681H306V0H243V681H15Z" />
<glyph unicode="U" glyph-name="U" horiz-adv-x="730" d="M109 261V735H172V264Q172 151 225 94T365 37Q454 37 506 95T559 264V735H622V261Q622 129 556 56T365 -18Q243 -18 176 54T109 261Z" />
<glyph unicode="V" glyph-name="V" horiz-adv-x="577" d="M-2 735H68L238 215Q243 198 260 146T286 64H289Q298 96 315 149T337 215L510 735H581L327 0H250L-2 735Z" />
<glyph unicode="W" glyph-name="W" horiz-adv-x="847" d="M11 735H81L195 220Q215 116 223 71H228Q255 195 261 220L388 735H459L587 220Q596 182 621 71H624Q626 81 653 220L767 735H837L661 0H586L459 508Q436 604 426 656H423Q418 629 406 577T389 508L263
0H188L11 735Z" />
<glyph unicode="X" glyph-name="X" horiz-adv-x="559" d="M-3 0L239 378L9 735H88L209 540Q209 540 278 426H281Q294 448 318 487T352 540L472 735H551L320 378L564 0H486L356 205Q342 227 315 271T281 328H278Q208 212 204 205L75 0H-3Z" />
<glyph unicode="Y" glyph-name="Y" horiz-adv-x="580" d="M-3 735H73L217 487Q231 463 259 414T289 360H291Q302 378 314 400T341 448T364 487L507 735H583L323 303V0H259V303L-3 735Z" />
<glyph unicode="Z" glyph-name="Z" horiz-adv-x="614" d="M52 48L477 681H84V735H554V687L127 54H565V0H52V48Z" />
<glyph unicode="[" glyph-name="bracketleft" horiz-adv-x="454" d="M161 -131V834H355V783H222V-81H355V-131H161Z" />
<glyph unicode="\" glyph-name="backslash" horiz-adv-x="312" d="M-11 786H52L325 -60H262L-11 786Z" />
<glyph unicode="]" glyph-name="bracketright" horiz-adv-x="454" d="M100 -81H232V783H100V834H294V-131H100V-81Z" />
<glyph unicode="^" glyph-name="asciicircum" horiz-adv-x="494" d="M22 486L217 812H278L473 486H407L282 701L248 761L247 760L212 701L88 486H22Z" />
<glyph unicode="_" glyph-name="underscore" horiz-adv-x="440" d="M7 -28H436V-79H7V-28Z" />
<glyph unicode="`" glyph-name="grave" horiz-adv-x="287" d="M162 544L38 828H131L213 544H162Z" />
<glyph unicode="a" glyph-name="a" horiz-adv-x="556" d="M107 130Q107 90 141 62T235 33Q310 33 363 81T417 205V288Q372 274 267 258Q183 244 145 213T107 130ZM45 126Q45 198 98 242T268 305Q384 324 417 337V367Q417 422 379 457T270 493Q222 493 178 471T103
410L63 442Q99 487 153 515T269 543Q378 543 427 489T477 344V0H418V95Q401 50 349 16T227 -18Q142 -18 94 22T45 126Z" />
<glyph unicode="b" glyph-name="b" horiz-adv-x="585" d="M91 0V764H151V418Q164 464 210 503T319 543Q417 543 477 469T538 264Q538 124 473 53T319 -18Q260 -18 215 17T151 104V0H91ZM149 264Q149 158 196 96T311 33Q384 33 430 95T477 264Q477 368 431 430T312
492Q245 492 197 431T149 264Z" />
<glyph unicode="c" glyph-name="c" horiz-adv-x="503" d="M48 263Q48 387 110 465T279 543Q347 543 396 505T463 413L410 398Q394 438 359 465T279 492Q202 492 156 427T110 263Q110 158 157 96T279 33Q327 33 367 63T425 134L477 117Q455 61 402 22T279 -18Q176
-18 112 58T48 263Z" />
<glyph unicode="d" glyph-name="d" horiz-adv-x="585" d="M48 264Q48 394 109 468T267 543Q328 543 372 506T435 419V764H495V0H437V105Q417 52 373 17T267 -18Q180 -18 114 53T48 264ZM110 264Q110 159 155 96T275 33Q343 33 390 95T437 264Q437 369 389 430T274
492Q201 492 156 430T110 264Z" />
<glyph unicode="e" glyph-name="e" horiz-adv-x="556" d="M48 266Q48 389 113 466T283 543Q389 543 450 468T511 279Q511 267 509 243H110Q110 157 156 95T286 33Q339 33 381 59T446 127L498 110Q472 54 418 18T286 -18Q178 -18 113 60T48 266ZM111 290H449Q449
374 404 433T283 492Q205 492 159 432T111 290Z" />
<glyph unicode="f" glyph-name="f" horiz-adv-x="332" d="M25 474V525H119V615Q119 691 157 727T262 764H323V713H270Q181 713 181 607V525H309V474H181V0H119V474H25Z" />
<glyph unicode="g" glyph-name="g" horiz-adv-x="574" d="M110 272Q110 174 154 114T269 53Q342 53 384 111T426 274Q426 374 383 433T271 492Q197 492 154 430T110 272ZM48 272Q48 394 107 468T263 543Q327 543 367 508T426 427V525H486V54Q486 -94 435 -166T269
-239Q146 -239 79 -147L123 -118Q186 -189 270 -189Q348 -189 387 -131T426 29V114Q406 65 366 33T265 1Q166 1 107 77T48 272Z" />
<glyph unicode="h" glyph-name="h" horiz-adv-x="573" d="M91 0V764H151V432H153Q171 476 218 509T325 543Q493 543 493 340V0H433V329Q433 492 313 492Q249 492 200 439T151 315V0H91Z" />
<glyph unicode="i" glyph-name="i" horiz-adv-x="273" d="M93 654V746H180V654H93ZM107 0V525H168V0H107Z" />
<glyph unicode="j" glyph-name="j" horiz-adv-x="278" d="M96 654V746H185V654H96ZM-8 -177H17Q111 -177 111 -49V525H171V-53Q171 -138 134 -183T27 -228H-8V-177Z" />
<glyph unicode="k" glyph-name="k" horiz-adv-x="503" d="M92 0V764H154V243L402 525H483L297 317L507 0H432L256 273L154 160V0H92Z" />
<glyph unicode="l" glyph-name="l" horiz-adv-x="252" d="M96 0V764H156V0H96Z" />
<glyph unicode="m" glyph-name="m" horiz-adv-x="842" d="M85 0V525H145V439H146Q160 478 200 510T301 543Q406 543 439 418Q443 431 453 449T484 489T538 527T614 543Q693 543 728 491T763 340V0H702V334Q702 412 681 452T599 492Q539 492 497 442T455 314V0H394V334Q394
492 289 492Q225 492 186 444T147 319V0H85Z" />
<glyph unicode="n" glyph-name="n" horiz-adv-x="568" d="M85 0V525H145V426H146Q157 466 205 504T322 543Q393 543 441 498T489 340V0H427V329Q427 492 308 492Q244 492 196 440T147 317V0H85Z" />
<glyph unicode="o" glyph-name="o" horiz-adv-x="562" d="M110 263Q110 159 158 96T281 33Q355 33 404 96T453 263Q453 368 404 430T281 492Q208 492 159 430T110 263ZM48 263Q48 384 109 463T281 543Q390 543 452 464T515 263Q515 191 492 130T414 25T281 -18Q203
-18 149 25T71 129T48 263Z" />
<glyph unicode="p" glyph-name="p" horiz-adv-x="585" d="M151 264Q151 160 194 97T312 33Q383 33 430 95T477 264Q477 364 433 428T312 492Q242 492 197 428T151 264ZM91 -235V525H150V418Q172 475 216 509T319 543Q416 543 477 467T538 264Q538 129 474 56T319
-18Q258 -18 215 16T151 103V-235H91Z" />
<glyph unicode="q" glyph-name="q" horiz-adv-x="584" d="M110 264Q110 158 156 96T274 33Q347 33 391 97T435 264Q435 365 390 428T274 492Q196 492 153 428T110 264ZM48 264Q48 391 109 467T267 543Q323 543 368 510T437 419V525H495V-235H435V104Q414 51 371
17T267 -18Q176 -18 112 55T48 264Z" />
<glyph unicode="r" glyph-name="r" horiz-adv-x="369" d="M85 0V525H144V442Q159 480 197 511T295 543Q341 543 371 529V473Q332 488 295 488Q226 488 187 436T147 301V0H85Z" />
<glyph unicode="s" glyph-name="s" horiz-adv-x="490" d="M40 98L87 125Q146 33 248 33Q311 33 350 58T389 127Q389 147 380 162T359 188T321 210T277 227T220 245Q185 256 161 266T110 295T69 339T55 399Q55 464 107 503T248 543Q311 543 363 511T438 433L396
406Q375 442 336 467T248 492Q185 492 151 467T116 398Q116 366 140 342T191 307T263 282Q302 271 329 261T387 232T434 187T451 127Q451 65 398 24T248 -18Q180 -18 126 12T40 98Z" />
<glyph unicode="t" glyph-name="t" horiz-adv-x="357" d="M23 474V525H119V698H181V525H321V474H181V149Q181 97 201 74T266 52L321 53V0H258Q191 -1 155 34T119 143V474H23Z" />
<glyph unicode="u" glyph-name="u" horiz-adv-x="565" d="M80 183V525H141V198Q141 33 265 33Q340 33 380 90T420 225V525H480V0H421V94Q418 79 407 62T377 25T324 -6T250 -18Q172 -18 126 34T80 183Z" />
<glyph unicode="v" glyph-name="v" horiz-adv-x="490" d="M11 525H79L203 179Q203 179 245 53H247Q254 76 269 118T290 179L411 525H480L283 0H208L11 525Z" />
<glyph unicode="w" glyph-name="w" horiz-adv-x="708" d="M10 525H78L166 178Q182 112 194 56H198Q205 87 227 178L318 525H392L483 175Q485 167 496 125T512 56H515Q519 75 529 115T544 178L631 525H700L552 0H475L385 337Q369 399 356 460H353Q339 395 324 337L235
0H157L10 525Z" />
<glyph unicode="x" glyph-name="x" horiz-adv-x="464" d="M5 0L194 273L15 525H88L187 382Q193 374 230 318H233Q240 329 255 352T275 382L373 525H446L268 273L458 0H385L275 165Q236 223 233 227H230Q223 215 208 194T188 165L78 0H5Z" />
<glyph unicode="y" glyph-name="y" horiz-adv-x="484" d="M10 525H81L199 194Q222 129 244 62H247Q255 87 270 132T292 195L405 525H475L247 -95Q219 -172 182 -203T94 -235H66V-184H84Q120 -184 147 -161T194 -78L215 -14L10 525Z" />
<glyph unicode="z" glyph-name="z" horiz-adv-x="476" d="M36 0V42L353 474H63V525H432V485L113 52H441V0H36Z" />
<glyph unicode="{" glyph-name="braceleft" horiz-adv-x="454" d="M74 323V371H100Q180 371 180 515V710Q180 769 212 801T291 834H366V783H302Q276 783 259 762T241 701V504Q241 440 222 405T167 347Q241 313 241 201V10Q241 -35 258 -57T304 -80H366V-130H291Q245
-130 213 -100T180 -8V188Q180 253 158 288T100 323H74Z" />
<glyph unicode="|" glyph-name="bar" horiz-adv-x="257" d="M98 -167V867H160V-167H98Z" />
<glyph unicode="}" glyph-name="braceright" horiz-adv-x="454" d="M88 -80H151Q213 -80 213 10V203Q213 260 234 296T287 347Q252 368 233 403T213 503V701Q213 741 196 762T153 783H88V834H164Q211 834 242 802T274 710V515Q274 442 295 407T354 371H380V323H354Q317
323 296 287T274 190V-8Q274 -69 242 -99T163 -130H88V-80Z" />
<glyph unicode="~" glyph-name="asciitilde" horiz-adv-x="751" d="M73 311Q137 444 255 444Q288 444 316 431T366 398T407 359T450 327T499 313Q514 313 527 316T550 324T570 338T586 353T600 371T611 389T621 407T629 423L680 397Q609 262 500 262Q459 262 423
282T366 327T314 372T254 393Q178 393 123 285L73 311Z" />
<glyph unicode="&#xa0;" glyph-name=".notdef" horiz-adv-x="248" />
<glyph unicode="&#xa1;" glyph-name="exclamdown" horiz-adv-x="312" d="M120 -214L129 314H185L193 -214H120ZM100 426V529H212V426H100Z" />
<glyph unicode="&#xa2;" glyph-name="cent" horiz-adv-x="502" d="M48 263Q48 376 102 455T253 541V620H311V541Q369 532 407 496T462 414L411 398Q394 438 360 465T281 492Q202 492 156 428T110 263Q110 160 157 97T281 33Q327 33 366 63T424 134L476 117Q455
69 413 33T311 -15V-97H253V-16Q162 -9 105 66T48 263Z" />
<glyph unicode="&#xa3;" glyph-name="sterling" horiz-adv-x="574" d="M38 338V392H150V569Q150 658 203 706T346 754Q408 754 454 723T521 650L478 624Q458 656 424 677T348 699Q286 699 249 665T212 564V392H444V338H212V207Q212 99 155 54Q218 67 256 67Q287
67 336 52T417 36Q490 36 545 67L564 16Q498 -18 415 -18Q384 -18 327 -2T238 14Q205 14 160 7T87 -6L59 -13L41 34Q96 50 123 97T150 205V338H38Z" />
<glyph unicode="&#xa4;" glyph-name="currency" horiz-adv-x="630" d="M31 141L141 243Q97 294 97 368Q97 441 140 493L31 594L73 634L180 533Q241 579 316 579Q394 579 453 533L558 633L600 593L492 493Q536 441 536 368Q536 297 492 243L600 141L559 101L452
202Q395 156 316 156Q240 156 180 202L73 102L31 141ZM154 368Q154 303 200 257T316 210Q386 210 432 256T479 368Q479 434 432 480T316 526Q246 526 200 480T154 368Z" />
<glyph unicode="&#xa5;" glyph-name="yen" horiz-adv-x="579" d="M-3 735H73L213 520Q268 432 289 396H291Q332 462 367 519L507 735H583L355 388H518V341H322V229H518V182H322V0H259V182H60V229H259V341H60V388H226L-3 735Z" />
<glyph unicode="&#xa6;" glyph-name="brokenbar" horiz-adv-x="257" d="M98 465V867H160V465H98ZM98 -166V233H160V-166H98Z" />
<glyph unicode="&#xa7;" glyph-name="section" horiz-adv-x="565" d="M66 42L109 73Q131 39 172 18T262 -3Q325 -3 358 19T392 79Q392 110 373 128T308 167L200 215Q138 242 108 275T78 355Q78 390 96 421T133 468T181 505Q109 558 109 616Q109 679 158 716T302
753Q365 753 416 726T497 653L455 624Q394 700 300 700Q234 700 203 677T172 617Q172 606 174 596T184 577T197 561T216 545T237 531T261 518T286 505T314 492T342 479Q423 440 459 407T496 320Q496 241 411 171Q455 135 455 79Q455 19 408 -19T263 -57Q196 -57
145 -29T66 42ZM142 359Q142 320 163 301T243 255L362 201Q433 258 433 320Q433 353 408 374T320 428L228 476Q200 456 185 443T156 407T142 359Z" />
<glyph unicode="&#xa8;" glyph-name="dieresis" horiz-adv-x="466" d="M102 645V735H192V645H102ZM276 645V735H365V645H276Z" />
<glyph unicode="&#xa9;" glyph-name="copyright" horiz-adv-x="885" d="M261 372Q261 478 313 544T457 610Q562 610 613 501L564 484Q524 560 457 560Q393 560 355 508T317 372Q317 286 355 235T457 184Q497 184 528 207T574 266L624 249Q604 202 561 168T457
134Q370 134 316 198T261 372ZM53 374Q53 545 164 655T443 765Q613 765 724 655T835 374Q835 207 724 95T443 -17Q275 -17 164 93T53 374ZM100 374Q100 226 195 126T443 26Q594 26 691 125T788 374Q788 523 691 622T443 722Q294 722 197 624T100 374Z" />
<glyph unicode="&#xaa;" glyph-name="ordfeminine" horiz-adv-x="388" d="M39 336V380H349V336H39ZM82 548Q82 523 104 504T165 485Q214 485 249 516T285 598V650Q267 645 235 640T180 630T132 617T95 591T82 548ZM33 545Q33 582 50 607T99 646T160 665T228 679T285
692V709Q285 745 261 768T190 791Q151 791 120 771T77 733L44 759Q61 785 101 808T189 832Q264 832 299 795T334 693V455H287V508Q270 480 237 462T161 443Q101 443 67 471T33 545Z" />
<glyph unicode="&#xab;" glyph-name="guillemotleft" horiz-adv-x="445" d="M37 250L196 473L241 443L105 250L240 57L195 26L37 250ZM207 250L366 468L410 436L275 250L409 63L365 31L207 250Z" />
<glyph unicode="&#xac;" glyph-name="logicalnot" horiz-adv-x="544" d="M50 323V377H496V126H437V323H50Z" />
<glyph unicode="&#xad;" glyph-name=".notdef" horiz-adv-x="560" d="M61 336V390H499V336H61Z" />
<glyph unicode="&#xae;" glyph-name="registered" horiz-adv-x="885" d="M310 147V596H478Q541 596 576 560T612 471Q612 390 540 360Q574 337 588 276Q606 198 634 147H572Q554 180 533 268Q526 302 512 321T468 340H365V147H310ZM365 387H470Q510 387 533 408T556
467Q556 501 535 523T470 546H365V387ZM53 374Q53 545 164 655T443 765Q613 765 724 655T835 374Q835 206 725 95T443 -17Q275 -17 164 93T53 374ZM100 374Q100 226 195 126T443 26Q595 26 691 126T788 374Q788 524 691 623T443 722Q294 722 197 624T100 374Z"
/>
<glyph unicode="&#xaf;" glyph-name="overscore" horiz-adv-x="512" d="M0 760V813H513V760H0Z" />
<glyph unicode="&#xb0;" glyph-name="degree" horiz-adv-x="417" d="M86 624Q86 672 120 707T209 743Q260 743 295 709T331 624Q331 573 295 540T209 506Q158 506 122 540T86 624ZM129 624Q129 589 152 567T209 545Q242 545 265 567T288 624Q288 657 266 680T209
703Q173 703 151 680T129 624Z" />
<glyph unicode="&#xb1;" glyph-name="plusminus" horiz-adv-x="560" d="M46 406V460H250V646H310V460H515V406H310V222H250V406H46ZM47 93V147H514V93H47Z" />
<glyph unicode="&#xb2;" glyph-name="twosuperior" horiz-adv-x="319" d="M30 722Q57 830 160 830Q213 830 247 799T282 714Q282 652 211 583Q203 575 185 558T159 533T138 511T117 488T103 468T90 445H282V404H33Q32 450 63 491T181 615Q234 665 234 714Q234
750 214 769T159 789Q93 789 72 711L30 722Z" />
<glyph unicode="&#xb3;" glyph-name="threesuperior" horiz-adv-x="319" d="M23 480L62 497Q96 436 154 436Q193 436 218 458T244 523Q244 560 217 582T144 605Q133 605 111 603V646Q137 644 143 644Q184 644 205 665T227 720Q227 752 207 771T153 791Q101 791
74 727L34 741Q67 831 154 831Q209 831 242 800T275 723Q275 658 218 628Q291 600 291 523Q291 462 254 429T154 395Q61 395 23 480Z" />
<glyph unicode="&#xb4;" glyph-name="acute" horiz-adv-x="331" d="M78 655L190 828H275L133 655H78Z" />
<glyph unicode="&#xb5;" glyph-name="mu" horiz-adv-x="579" d="M91 -235V525H152V196Q152 123 181 78T275 33Q351 33 392 90T433 225V525H494V0H435V94H434Q420 48 376 15T265 -18Q187 -18 152 46V-235H91Z" />
<glyph unicode="&#xb6;" glyph-name="paragraph" horiz-adv-x="634" d="M63 547Q63 648 115 709T264 770H541V-71H489V713H375V-71H323V331Q288 320 251 320Q171 320 117 379T63 547Z" />
<glyph unicode="&#xb7;" glyph-name="middot" horiz-adv-x="339" d="M114 299V405H226V299H114Z" />
<glyph unicode="&#xb8;" glyph-name="cedilla" horiz-adv-x="294" d="M46 -176Q94 -186 110 -186Q184 -186 184 -139Q184 -94 86 -83L129 5H185L157 -53Q241 -72 241 -140Q241 -182 210 -207T115 -232Q74 -232 46 -222V-176Z" />
<glyph unicode="&#xb9;" glyph-name="onesuperior" horiz-adv-x="319" d="M58 726V764H82Q123 764 137 774T152 808V829H194V402H146V726H58Z" />
<glyph unicode="&#xba;" glyph-name="ordmasculine" horiz-adv-x="388" d="M81 638Q81 569 113 527T194 485Q242 485 274 527T307 638Q307 708 275 749T194 790Q146 790 114 749T81 638ZM32 638Q32 721 75 776T194 832Q269 832 312 777T356 638Q356 559 315 501T194
443Q114 443 73 501T32 638ZM39 336V380H349V336H39Z" />
<glyph unicode="&#xbb;" glyph-name="guillemotright" horiz-adv-x="445" d="M36 436L81 468L239 250L81 31L38 63L172 250L36 436ZM206 58L341 250L205 443L251 473L409 250L251 26L206 58Z" />
<glyph unicode="&#xbc;" glyph-name="onequarter" horiz-adv-x="965" d="M87 675V722H116Q163 722 179 733T195 770V797H245V302H187V675H87ZM542 116L762 453H812V123H883V74H812V-42H756V74H542V116ZM604 123H756V308Q756 317 756 334T757 359L729 313L604 123ZM159
-51L641 783H702L221 -51H159Z" />
<glyph unicode="&#xbd;" glyph-name="onehalf" horiz-adv-x="965" d="M87 675V722H116Q163 722 179 733T195 770V797H245V302H187V675H87ZM569 325Q574 341 577 352T593 384T620 418T661 441T720 452Q782 452 821 416T861 317Q861 242 786 172Q711 101 682 70T640
8H861V-41H572Q572 11 605 59T742 203Q804 261 804 317Q804 358 781 380T718 403Q644 403 620 311L569 325ZM149 -51L637 783H698L212 -51H149Z" />
<glyph unicode="&#xbe;" glyph-name="threequarters" horiz-adv-x="965" d="M65 403L113 423Q153 353 218 353Q261 353 290 377T320 451Q320 496 289 520T211 544Q178 544 167 543V594Q184 592 208 592Q248 592 274 615T301 678Q301 713 278 736T217 759Q158 759
126 685L78 702Q116 808 219 808Q283 808 320 772T358 681Q358 608 294 572Q329 558 353 528T377 451Q377 381 333 343T218 304Q170 304 129 328T65 403ZM552 116L772 453H822V123H893V74H822V-42H766V74H552V116ZM614 123H766V309Q766 318 766 334T767 358L740
314L614 123ZM228 -51L716 783H777L291 -51H228Z" />
<glyph unicode="&#xbf;" glyph-name="questiondown" horiz-adv-x="548" d="M75 -35Q75 11 93 47T138 109T191 159T236 221T255 302V322H318V298Q318 248 300 209T255 143T202 93T158 36T139 -36Q139 -101 174 -139T273 -177Q375 -177 427 -58L482 -78Q455 -149
400 -190T274 -231Q183 -231 129 -178T75 -35ZM230 427V529H342V427H230Z" />
<glyph unicode="&#xc0;" glyph-name="Agrave" horiz-adv-x="632" d="M168 273H464L365 547Q358 568 342 613T319 677H314Q309 664 293 617T269 547L168 273ZM-2 0L277 735H356L634 0H564L484 222H149L68 0H-2ZM423 989H507L620 817H563L423 989Z" />
<glyph unicode="&#xc1;" glyph-name="Aacute" horiz-adv-x="632" d="M168 273H464L365 547Q358 568 342 613T319 677H314Q309 664 293 617T269 547L168 273ZM-2 0L277 735H356L634 0H564L484 222H149L68 0H-2ZM508 817L620 989H705L563 817H508Z" />
<glyph unicode="&#xc2;" glyph-name="Acircumflex" horiz-adv-x="632" d="M168 273H464L365 547Q358 568 342 613T319 677H314Q309 664 293 617T269 547L168 273ZM-2 0L277 735H356L634 0H564L484 222H149L68 0H-2ZM127 817L288 979H344L507 817H439L316 941L194
817H127Z" />
<glyph unicode="&#xc3;" glyph-name="Atilde" horiz-adv-x="632" d="M168 273H464L365 547Q358 568 342 613T319 677H314Q309 664 293 617T269 547L168 273ZM-2 0L277 735H356L634 0H564L484 222H149L68 0H-2ZM106 882Q148 971 229 971Q266 971 313 937T382 903Q433
903 465 968L504 943Q458 855 383 855Q346 855 301 889T230 924Q202 924 180 905T145 857L106 882Z" />
<glyph unicode="&#xc4;" glyph-name="Adieresis" horiz-adv-x="632" d="M168 273H464L365 547Q358 568 342 613T319 677H314Q309 664 293 617T269 547L168 273ZM-2 0L277 735H356L634 0H564L484 222H149L68 0H-2ZM423 857V945H514V857H423ZM626 857V945H717V857H626Z" />
<glyph unicode="&#xc5;" glyph-name="Aring" horiz-adv-x="632" d="M168 273H464L365 547Q358 568 342 613T319 677H314Q309 664 293 617T269 547L168 273ZM-2 0L277 735H356L634 0H564L484 222H149L68 0H-2ZM186 903Q186 955 223 991T317 1028Q374 1028 411 991T448
903Q448 851 411 814T317 777Q262 777 224 814T186 903ZM232 903Q232 868 256 844T317 819Q354 819 377 842T401 903Q401 938 378 962T317 986Q279 986 256 962T232 903Z" />
<glyph unicode="&#xc6;" glyph-name="AE" horiz-adv-x="929" d="M230 273H480V676H471L230 273ZM-2 0L439 735H882V681H543V408H846V354H540V54H889V0H480V222H200L69 0H-2Z" />
<glyph unicode="&#xc7;" glyph-name="Ccedilla" horiz-adv-x="644" d="M55 367Q55 547 141 650T364 753Q449 753 507 707T594 598L540 578Q476 699 363 699Q252 699 186 608T120 367Q120 214 187 126T363 37Q432 37 481 74T556 167L613 148Q580 77 519 30T364
-18Q227 -18 141 84T55 367ZM507 86Q561 71 602 71Q633 71 659 85T686 123Q686 148 655 161T569 173L592 261H648L632 201Q682 198 709 177T737 120Q737 81 702 55T603 29Q556 29 507 44V86Z" />
<glyph unicode="&#xc8;" glyph-name="Egrave" horiz-adv-x="612" d="M110 0V735H562V681H173V407H525V354H173V54H572V0H110ZM204 989H288L401 817H344L204 989Z" />
<glyph unicode="&#xc9;" glyph-name="Eacute" horiz-adv-x="612" d="M110 0V735H562V681H173V407H525V354H173V54H572V0H110ZM265 817L377 989H462L320 817H265Z" />
<glyph unicode="&#xca;" glyph-name="Ecircumflex" horiz-adv-x="612" d="M146 817L307 979H363L526 817H458L335 941L213 817H146ZM110 0V735H562V681H173V407H525V354H173V54H572V0H110Z" />
<glyph unicode="&#xcb;" glyph-name="Edieresis" horiz-adv-x="612" d="M110 0V735H562V681H173V407H525V354H173V54H572V0H110ZM189 857V945H280V857H189ZM392 857V945H483V857H392Z" />
<glyph unicode="&#xcc;" glyph-name="Igrave" horiz-adv-x="283" d="M110 0V735H173V0H110ZM-6 989H78L191 817H134L-6 989Z" />
<glyph unicode="&#xcd;" glyph-name="Iacute" horiz-adv-x="283" d="M110 0V735H173V0H110ZM82 817L194 989H279L137 817H82Z" />
<glyph unicode="&#xce;" glyph-name="Icircumflex" horiz-adv-x="283" d="M110 0V735H173V0H110ZM-48 817L113 979H169L332 817H264L141 941L19 817H-48Z" />
<glyph unicode="&#xcf;" glyph-name="Idieresis" horiz-adv-x="283" d="M110 0V735H173V0H110ZM-5 857V945H86V857H-5ZM198 857V945H289V857H198Z" />
<glyph unicode="&#xd0;" glyph-name="Eth" horiz-adv-x="688" d="M110 0V735H303Q460 735 550 642T641 367Q641 192 553 96T302 0H110ZM173 54H289Q422 54 499 129T576 367Q576 532 500 606T291 681H173V54ZM275 352V403H628V352H275Z" />
<glyph unicode="&#xd1;" glyph-name="Ntilde" horiz-adv-x="737" d="M169 882Q211 971 292 971Q329 971 376 937T445 903Q496 903 528 968L567 943Q521 855 446 855Q409 855 364 889T293 924Q265 924 243 905T208 857L169 882ZM110 0V735H184L481 238L569 89H574Q564
172 564 286V735H628V0H554L253 504L169 645H166Q173 560 173 442V0H110Z" />
<glyph unicode="&#xd2;" glyph-name="Ograve" horiz-adv-x="709" d="M55 367Q55 541 136 647T355 753Q493 753 573 647T654 366Q654 191 573 87T355 -18Q217 -18 136 87T55 367ZM120 367Q120 217 183 127T355 37Q462 37 525 125T589 366Q589 518 527 608T355 699Q247
699 184 609T120 367ZM211 992H295L408 820H351L211 992Z" />
<glyph unicode="&#xd3;" glyph-name="Oacute" horiz-adv-x="709" d="M55 367Q55 541 136 647T355 753Q493 753 573 647T654 366Q654 191 573 87T355 -18Q217 -18 136 87T55 367ZM120 367Q120 217 183 127T355 37Q462 37 525 125T589 366Q589 518 527 608T355 699Q247
699 184 609T120 367ZM294 820L406 992H491L349 820H294Z" />
<glyph unicode="&#xd4;" glyph-name="Ocircumflex" horiz-adv-x="709" d="M55 367Q55 541 136 647T355 753Q493 753 573 647T654 366Q654 191 573 87T355 -18Q217 -18 136 87T55 367ZM120 367Q120 217 183 127T355 37Q462 37 525 125T589 366Q589 518 527 608T355
699Q247 699 184 609T120 367ZM166 820L327 982H383L546 820H478L355 944L233 820H166Z" />
<glyph unicode="&#xd5;" glyph-name="Otilde" horiz-adv-x="709" d="M156 882Q198 971 279 971Q316 971 363 937T432 903Q483 903 515 968L554 943Q508 855 433 855Q396 855 351 889T280 924Q252 924 230 905T195 857L156 882ZM55 367Q55 541 136 647T355 753Q493
753 573 647T654 366Q654 191 573 87T355 -18Q217 -18 136 87T55 367ZM120 367Q120 217 183 127T355 37Q462 37 525 125T589 366Q589 518 527 608T355 699Q247 699 184 609T120 367Z" />
<glyph unicode="&#xd6;" glyph-name="Odieresis" horiz-adv-x="709" d="M55 367Q55 541 136 647T355 753Q493 753 573 647T654 366Q654 191 573 87T355 -18Q217 -18 136 87T55 367ZM120 367Q120 217 183 127T355 37Q462 37 525 125T589 366Q589 518 527 608T355
699Q247 699 184 609T120 367ZM206 857V945H297V857H206ZM409 857V945H500V857H409Z" />
<glyph unicode="&#xd7;" glyph-name="multiply" horiz-adv-x="560" d="M47 181L243 362L49 545L87 583L280 398L474 583L512 545L318 362L514 180L475 143L280 327L86 143L47 181Z" />
<glyph unicode="&#xd8;" glyph-name="Oslash" horiz-adv-x="709" d="M55 367Q55 541 136 647T355 754Q440 754 507 710L551 795H611L549 675Q654 570 654 367Q654 192 573 87T355 -18Q281 -18 221 15L177 -73H117L178 45Q55 148 55 367ZM520 617L248 66Q294 37
355 37Q463 37 526 126T590 367Q590 529 520 617ZM481 658Q428 699 355 699Q247 699 184 609T120 367Q120 190 206 101L481 658Z" />
<glyph unicode="&#xd9;" glyph-name="Ugrave" horiz-adv-x="730" d="M109 261V735H172V264Q172 151 225 94T365 37Q454 37 506 95T559 264V735H622V261Q622 129 556 56T365 -18Q243 -18 176 54T109 261ZM230 992H314L427 820H370L230 992Z" />
<glyph unicode="&#xda;" glyph-name="Uacute" horiz-adv-x="730" d="M109 261V735H172V264Q172 151 225 94T365 37Q454 37 506 95T559 264V735H622V261Q622 129 556 56T365 -18Q243 -18 176 54T109 261ZM300 820L412 992H497L355 820H300Z" />
<glyph unicode="&#xdb;" glyph-name="Ucircumflex" horiz-adv-x="730" d="M109 261V735H172V264Q172 151 225 94T365 37Q454 37 506 95T559 264V735H622V261Q622 129 556 56T365 -18Q243 -18 176 54T109 261ZM179 820L340 982H396L559 820H491L368 944L246 820H179Z" />
<glyph unicode="&#xdc;" glyph-name="Udieresis" horiz-adv-x="730" d="M109 261V735H172V264Q172 151 225 94T365 37Q454 37 506 95T559 264V735H622V261Q622 129 556 56T365 -18Q243 -18 176 54T109 261ZM221 857V945H312V857H221ZM424 857V945H515V857H424Z" />
<glyph unicode="&#xdd;" glyph-name="Yacute" horiz-adv-x="580" d="M-3 735H73L217 487Q231 463 259 414T289 360H291Q302 378 314 400T341 448T364 487L507 735H583L323 303V0H259V303L-3 735ZM478 820L590 992H675L533 820H478Z" />
<glyph unicode="&#xde;" glyph-name="Thorn" horiz-adv-x="609" d="M110 0V735H173V608H309Q438 608 501 547T564 380Q564 263 491 207T296 150H173V0H110ZM173 204H290Q499 204 499 380Q499 554 302 554H173V204Z" />
<glyph unicode="&#xdf;" glyph-name="germandbls" horiz-adv-x="660" d="M110 0V559Q110 652 171 703T327 754Q423 754 483 700T544 557Q544 437 455 388V386Q516 371 561 321T607 185Q607 96 550 39T396 -18Q320 -18 250 4L256 60Q318 37 393 37Q456 37 499 78T542
185Q542 267 492 309T369 352H307V406H362Q415 406 447 447T479 553Q479 616 439 657T328 699Q257 699 215 661T173 554V0H110Z" />
<glyph unicode="&#xe0;" glyph-name="agrave" horiz-adv-x="556" d="M107 130Q107 90 141 62T235 33Q310 33 363 81T417 205V288Q372 274 267 258Q183 244 145 213T107 130ZM45 126Q45 198 98 242T268 305Q384 324 417 337V367Q417 422 379 457T270 493Q222 493
178 471T103 410L63 442Q99 487 153 515T269 543Q378 543 427 489T477 344V0H418V95Q401 50 349 16T227 -18Q142 -18 94 22T45 126ZM145 796H229L342 624H285L145 796Z" />
<glyph unicode="&#xe1;" glyph-name="aacute" horiz-adv-x="556" d="M107 130Q107 90 141 62T235 33Q310 33 363 81T417 205V288Q372 274 267 258Q183 244 145 213T107 130ZM45 126Q45 198 98 242T268 305Q384 324 417 337V367Q417 422 379 457T270 493Q222 493
178 471T103 410L63 442Q99 487 153 515T269 543Q378 543 427 489T477 344V0H418V95Q401 50 349 16T227 -18Q142 -18 94 22T45 126ZM194 628L306 800H391L249 628H194Z" />
<glyph unicode="&#xe2;" glyph-name="acircumflex" horiz-adv-x="556" d="M107 130Q107 90 141 62T235 33Q310 33 363 81T417 205V288Q372 274 267 258Q183 244 145 213T107 130ZM45 126Q45 198 98 242T268 305Q384 324 417 337V367Q417 422 379 457T270 493Q222
493 178 471T103 410L63 442Q99 487 153 515T269 543Q378 543 427 489T477 344V0H418V95Q401 50 349 16T227 -18Q142 -18 94 22T45 126ZM78 628L239 790H295L458 628H390L267 752L145 628H78Z" />
<glyph unicode="&#xe3;" glyph-name="atilde" horiz-adv-x="556" d="M107 130Q107 90 141 62T235 33Q310 33 363 81T417 205V288Q372 274 267 258Q183 244 145 213T107 130ZM45 126Q45 198 98 242T268 305Q384 324 417 337V367Q417 422 379 457T270 493Q222 493
178 471T103 410L63 442Q99 487 153 515T269 543Q378 543 427 489T477 344V0H418V95Q401 50 349 16T227 -18Q142 -18 94 22T45 126ZM328 684Q370 773 451 773Q488 773 535 739T604 705Q655 705 687 770L726 745Q680 657 605 657Q568 657 523 691T452 726Q424 726
402 707T367 659L328 684Z" />
<glyph unicode="&#xe4;" glyph-name="adieresis" horiz-adv-x="556" d="M107 130Q107 90 141 62T235 33Q310 33 363 81T417 205V288Q372 274 267 258Q183 244 145 213T107 130ZM45 126Q45 198 98 242T268 305Q384 324 417 337V367Q417 422 379 457T270 493Q222
493 178 471T103 410L63 442Q99 487 153 515T269 543Q378 543 427 489T477 344V0H418V95Q401 50 349 16T227 -18Q142 -18 94 22T45 126ZM121 664V752H212V664H121ZM324 664V752H415V664H324Z" />
<glyph unicode="&#xe5;" glyph-name="aring" horiz-adv-x="556" d="M107 130Q107 90 141 62T235 33Q310 33 363 81T417 205V288Q372 274 267 258Q183 244 145 213T107 130ZM45 126Q45 198 98 242T268 305Q384 324 417 337V367Q417 422 379 457T270 493Q222 493
178 471T103 410L63 442Q99 487 153 515T269 543Q378 543 427 489T477 344V0H418V95Q401 50 349 16T227 -18Q142 -18 94 22T45 126ZM392 990Q392 1042 429 1078T523 1115Q580 1115 617 1078T654 990Q654 938 617 901T523 864Q468 864 430 901T392 990ZM438 990Q438
955 462 931T523 906Q560 906 583 929T607 990Q607 1025 584 1049T523 1073Q485 1073 462 1049T438 990Z" />
<glyph unicode="&#xe6;" glyph-name="ae" horiz-adv-x="917" d="M45 127Q45 198 97 242T267 305Q382 323 416 337V367Q416 420 379 456T274 493Q171 493 103 409L62 442Q98 487 153 515T274 543Q352 543 397 509T458 419Q483 476 533 509T648 543Q749 543 810
467T872 278V243H478V221Q485 144 529 89T649 33Q703 33 744 60T806 127L859 109Q796 -18 648 -18Q576 -18 524 21T445 128Q420 67 365 25T227 -18Q143 -18 94 22T45 127ZM107 130Q107 90 140 62T233 33Q308 33 362 81T416 205V288Q379 276 270 259Q107 234 107
130ZM478 290H811Q811 374 766 433T648 492Q577 492 533 439T480 309L478 290Z" />
<glyph unicode="&#xe7;" glyph-name="ccedilla" horiz-adv-x="503" d="M48 263Q48 387 110 465T279 543Q347 543 396 505T463 413L410 398Q394 438 359 465T279 492Q202 492 156 427T110 263Q110 158 157 96T279 33Q327 33 367 63T425 134L477 117Q455 61 402
22T279 -18Q176 -18 112 58T48 263ZM413 85Q467 70 508 70Q539 70 565 84T592 122Q592 147 561 160T475 172L498 260H554L538 200Q588 197 615 176T643 119Q643 80 608 54T509 28Q462 28 413 43V85Z" />
<glyph unicode="&#xe8;" glyph-name="egrave" horiz-adv-x="556" d="M48 266Q48 389 113 466T283 543Q389 543 450 468T511 279Q511 267 509 243H110Q110 157 156 95T286 33Q339 33 381 59T446 127L498 110Q472 54 418 18T286 -18Q178 -18 113 60T48 266ZM111
290H449Q449 374 404 433T283 492Q205 492 159 432T111 290ZM151 800H235L348 628H291L151 800Z" />
<glyph unicode="&#xe9;" glyph-name="eacute" horiz-adv-x="556" d="M48 266Q48 389 113 466T283 543Q389 543 450 468T511 279Q511 267 509 243H110Q110 157 156 95T286 33Q339 33 381 59T446 127L498 110Q472 54 418 18T286 -18Q178 -18 113 60T48 266ZM111
290H449Q449 374 404 433T283 492Q205 492 159 432T111 290ZM200 628L312 800H397L255 628H200Z" />
<glyph unicode="&#xea;" glyph-name="ecircumflex" horiz-adv-x="556" d="M48 266Q48 389 113 466T283 543Q389 543 450 468T511 279Q511 267 509 243H110Q110 157 156 95T286 33Q339 33 381 59T446 127L498 110Q472 54 418 18T286 -18Q178 -18 113 60T48 266ZM111
290H449Q449 374 404 433T283 492Q205 492 159 432T111 290ZM94 628L255 790H311L474 628H406L283 752L161 628H94Z" />
<glyph unicode="&#xeb;" glyph-name="edieresis" horiz-adv-x="556" d="M134 664V752H225V664H134ZM337 664V752H428V664H337ZM48 266Q48 389 113 466T283 543Q389 543 450 468T511 279Q511 267 509 243H110Q110 157 156 95T286 33Q339 33 381 59T446 127L498
110Q472 54 418 18T286 -18Q178 -18 113 60T48 266ZM111 290H449Q449 374 404 433T283 492Q205 492 159 432T111 290Z" />
<glyph unicode="&#xec;" glyph-name="igrave" horiz-adv-x="243" d="M91 0V525H153V0H91ZM-19 800H65L178 628H121L-19 800Z" />
<glyph unicode="&#xed;" glyph-name="iacute" horiz-adv-x="243" d="M91 0V525H153V0H91ZM62 628L174 800H259L117 628H62Z" />
<glyph unicode="&#xee;" glyph-name="icircumflex" horiz-adv-x="243" d="M-68 628L93 790H149L312 628H244L121 752L-1 628H-68ZM91 0V525H153V0H91Z" />
<glyph unicode="&#xef;" glyph-name="idieresis" horiz-adv-x="243" d="M-26 664V752H65V664H-26ZM177 664V752H268V664H177ZM91 0V525H153V0H91Z" />
<glyph unicode="&#xf0;" glyph-name="eth" horiz-adv-x="562" d="M162 580L438 780L473 740L197 541L162 580ZM48 239Q48 358 111 427T279 496Q340 496 382 468T443 399Q418 542 347 619T157 715L177 764Q514 711 514 259Q514 138 453 60T280 -18Q171 -18 110
56T48 239ZM110 241Q110 149 156 91T282 33Q358 33 402 90T447 243Q447 334 402 389T282 444Q207 444 159 391T110 241Z" />
<glyph unicode="&#xf1;" glyph-name="ntilde" horiz-adv-x="568" d="M81 684Q123 773 204 773Q241 773 288 739T357 705Q408 705 440 770L479 745Q433 657 358 657Q321 657 276 691T205 726Q177 726 155 707T120 659L81 684ZM85 0V525H145V426H146Q157 466 205
504T322 543Q393 543 441 498T489 340V0H427V329Q427 492 308 492Q244 492 196 440T147 317V0H85Z" />
<glyph unicode="&#xf2;" glyph-name="ograve" horiz-adv-x="562" d="M110 263Q110 159 158 96T281 33Q355 33 404 96T453 263Q453 368 404 430T281 492Q208 492 159 430T110 263ZM48 263Q48 384 109 463T281 543Q390 543 452 464T515 263Q515 191 492 130T414
25T281 -18Q203 -18 149 25T71 129T48 263ZM150 800H234L347 628H290L150 800Z" />
<glyph unicode="&#xf3;" glyph-name="oacute" horiz-adv-x="562" d="M110 263Q110 159 158 96T281 33Q355 33 404 96T453 263Q453 368 404 430T281 492Q208 492 159 430T110 263ZM48 263Q48 384 109 463T281 543Q390 543 452 464T515 263Q515 191 492 130T414
25T281 -18Q203 -18 149 25T71 129T48 263ZM215 628L327 800H412L270 628H215Z" />
<glyph unicode="&#xf4;" glyph-name="ocircumflex" horiz-adv-x="562" d="M92 628L253 790H309L472 628H404L281 752L159 628H92ZM110 263Q110 159 158 96T281 33Q355 33 404 96T453 263Q453 368 404 430T281 492Q208 492 159 430T110 263ZM48 263Q48 384 109
463T281 543Q390 543 452 464T515 263Q515 191 492 130T414 25T281 -18Q203 -18 149 25T71 129T48 263Z" />
<glyph unicode="&#xf5;" glyph-name="otilde" horiz-adv-x="562" d="M331 684Q373 773 454 773Q491 773 538 739T607 705Q658 705 690 770L729 745Q683 657 608 657Q571 657 526 691T455 726Q427 726 405 707T370 659L331 684ZM110 263Q110 159 158 96T281 33Q355
33 404 96T453 263Q453 368 404 430T281 492Q208 492 159 430T110 263ZM48 263Q48 384 109 463T281 543Q390 543 452 464T515 263Q515 191 492 130T414 25T281 -18Q203 -18 149 25T71 129T48 263Z" />
<glyph unicode="&#xf6;" glyph-name="odieresis" horiz-adv-x="562" d="M134 664V752H225V664H134ZM337 664V752H428V664H337ZM110 263Q110 159 158 96T281 33Q355 33 404 96T453 263Q453 368 404 430T281 492Q208 492 159 430T110 263ZM48 263Q48 384 109 463T281
543Q390 543 452 464T515 263Q515 191 492 130T414 25T281 -18Q203 -18 149 25T71 129T48 263Z" />
<glyph unicode="&#xf7;" glyph-name="divide" horiz-adv-x="560" d="M230 499V595H330V499H230ZM30 336V390H530V336H30ZM230 132V228H330V132H230Z" />
<glyph unicode="&#xf8;" glyph-name="oslash" horiz-adv-x="562" d="M48 262Q48 383 110 463T282 543Q347 543 393 515L429 586H482L431 486Q514 409 514 262Q514 149 455 66T282 -18Q224 -18 180 5L145 -62H93L140 31Q95 69 72 130T48 262ZM402 430L205 54Q242
33 282 33Q356 33 404 96T453 262Q453 366 402 430ZM367 464Q326 492 282 492Q209 492 160 430T110 262Q110 150 169 85L367 464Z" />
<glyph unicode="&#xf9;" glyph-name="ugrave" horiz-adv-x="565" d="M80 183V525H141V198Q141 33 265 33Q340 33 380 90T420 225V525H480V0H421V94Q418 79 407 62T377 25T324 -6T250 -18Q172 -18 126 34T80 183ZM148 800H232L345 628H288L148 800Z" />
<glyph unicode="&#xfa;" glyph-name="uacute" horiz-adv-x="565" d="M80 183V525H141V198Q141 33 265 33Q340 33 380 90T420 225V525H480V0H421V94Q418 79 407 62T377 25T324 -6T250 -18Q172 -18 126 34T80 183ZM218 628L330 800H415L273 628H218Z" />
<glyph unicode="&#xfb;" glyph-name="ucircumflex" horiz-adv-x="565" d="M80 183V525H141V198Q141 33 265 33Q340 33 380 90T420 225V525H480V0H421V94Q418 79 407 62T377 25T324 -6T250 -18Q172 -18 126 34T80 183ZM103 628L264 790H320L483 628H415L292 752L170
628H103Z" />
<glyph unicode="&#xfc;" glyph-name="udieresis" horiz-adv-x="565" d="M141 664V752H232V664H141ZM344 664V752H435V664H344ZM80 183V525H141V198Q141 33 265 33Q340 33 380 90T420 225V525H480V0H421V94Q418 79 407 62T377 25T324 -6T250 -18Q172 -18 126 34T80 183Z" />
<glyph unicode="&#xfd;" glyph-name="yacute" horiz-adv-x="484" d="M10 525H81L199 194Q222 129 244 62H247Q255 87 270 132T292 195L405 525H475L247 -95Q219 -172 182 -203T94 -235H66V-184H84Q120 -184 147 -161T194 -78L215 -14L10 525ZM163 628L275 800H360L218
628H163Z" />
<glyph unicode="&#xfe;" glyph-name="thorn" horiz-adv-x="588" d="M152 264Q152 160 198 97T312 33Q388 33 433 94T479 263Q479 367 434 429T312 492Q247 492 200 429T152 264ZM93 -235V764H154V417Q171 473 219 508T319 543Q421 543 480 468T540 263Q540 125
476 54T318 -18Q259 -18 216 18T154 105V-235H93Z" />
<glyph unicode="&#xff;" glyph-name="ydieresis" horiz-adv-x="484" d="M89 664V752H180V664H89ZM292 664V752H383V664H292ZM10 525H81L199 194Q222 129 244 62H247Q255 87 270 132T292 195L405 525H475L247 -95Q219 -172 182 -203T94 -235H66V-184H84Q120 -184
147 -161T194 -78L215 -14L10 525Z" />
<glyph unicode="&#x2013;" glyph-name="endash" horiz-adv-x="523" d="M46 327V381H478V327H46Z" />
<glyph unicode="&#x2014;" glyph-name="emdash" horiz-adv-x="976" d="M0 327V381H977V327H0Z" />
<glyph unicode="&#x2018;" glyph-name="quoteleft" horiz-adv-x="345" d="M118 554V631Q118 709 138 766T210 869L246 838Q208 801 194 760T180 657H236V554H118Z" />
<glyph unicode="&#x2019;" glyph-name="quoteright" horiz-adv-x="345" d="M109 722V825H228V748Q228 591 135 510L99 541Q137 578 151 619T166 722H109Z" />
<glyph unicode="&#x201a;" glyph-name="quotesinglbase" horiz-adv-x="345" d="M109 4V106H228V30Q228 -127 135 -208L99 -178Q137 -141 151 -99T166 4H109Z" />
<glyph unicode="&#x201c;" glyph-name="quotedblleft" horiz-adv-x="497" d="M301 554V630Q301 708 321 766T393 869L430 838Q392 801 378 760T363 657H419V554H301ZM82 554V630Q82 796 175 877L211 846Q144 780 144 657H201V554H82Z" />
<glyph unicode="&#x201d;" glyph-name="quotedblright" horiz-adv-x="497" d="M68 541Q106 578 120 619T135 722H78V825H197V749Q197 591 104 510L68 541ZM288 533Q327 571 340 614T354 722H298V825H416V749Q416 582 324 502L288 533Z" />
<glyph unicode="&#x201e;" glyph-name="quotedblbase" horiz-adv-x="497" d="M68 -178Q106 -141 120 -99T135 4H78V106H197V31Q197 -127 104 -208L68 -178ZM287 -185Q326 -147 339 -104T353 4H297V106H416V31Q416 -135 323 -216L287 -185Z" />
<glyph unicode="&#x2022;" glyph-name="bullet" horiz-adv-x="509" d="M147 246V458H362V246H147Z" />
<glyph unicode="&#x2039;" glyph-name="guilsinglleft" horiz-adv-x="361" d="M81 248L247 477L293 446L149 248L292 52L247 21L81 248Z" />
<glyph unicode="&#x203a;" glyph-name="guilsinglright" horiz-adv-x="361" d="M70 52L212 249L69 446L114 477L281 249L114 21L70 52Z" />
</font>
</defs>
</svg>
