<?xml version="1.0" standalone="no"?>
<!DOCTYPE svg PUBLIC "-//W3C//DTD SVG 1.1//EN" "http://www.w3.org/Graphics/SVG/1.1/DTD/svg11.dtd">
<svg xmlns="http://www.w3.org/2000/svg">
<defs >
<font id="GothicA1" horiz-adv-x="952" ><font-face
    font-family="Gothic A1 ExtraLight"
    units-per-em="1024"
    panose-1="0 0 0 0 0 0 0 0 0 0"
    ascent="817"
    descent="-207"
    alphabetic="0" />
<glyph unicode=" " glyph-name="space" horiz-adv-x="250" />
<glyph unicode="!" glyph-name="exclam" horiz-adv-x="309" d="M107 -9V84H204V-9H107ZM176 205H134L127 722H183L176 205Z" />
<glyph unicode="&quot;" glyph-name="quotedbl" horiz-adv-x="459" d="M258 542L343 816H417L297 542H258ZM70 542L155 816H228L109 542H70Z" />
<glyph unicode="#" glyph-name="numbersign" horiz-adv-x="685" d="M48 208V244H178L209 458H80V493H213L242 697H283L255 493H471L500 697H541L513 493H638V458H508L478 244H606V208H474L446 3H403L432 208H216L188 3H145L174 208H48ZM220 244H436L467 458H250L220 244Z" />
<glyph unicode="$" glyph-name="dollar" horiz-adv-x="583" d="M76 119L111 139Q140 95 193 67T293 39Q365 39 412 72T459 177Q459 207 448 232T422 274T377 307T326 333T266 358Q254 363 248 365Q173 394 132 436T90 550Q90 617 139 666T270 719V801H314V718Q366
717 413 686T480 618L444 600Q385 681 292 681Q220 681 179 644T137 549Q137 487 178 453T302 386Q339 371 361 362T414 333T463 295T493 246T506 181Q506 95 451 50T314 0V-78H270V1Q220 3 165 34T76 119Z" />
<glyph unicode="%" glyph-name="percent" horiz-adv-x="957" d="M528 152Q528 227 578 274T704 322Q780 322 830 274T881 152Q881 76 830 29T704 -18Q631 -18 580 29T528 152ZM572 152Q572 93 612 56T704 19Q757 19 797 56T837 152Q837 211 799 247T704 284Q649
284 611 247T572 152ZM78 570Q78 645 128 692T254 740Q329 740 379 693T430 570Q430 495 379 448T254 401Q180 401 129 447T78 570ZM121 570Q121 511 161 475T254 438Q307 438 346 474T386 570Q386 629 348 666T254 703Q200 703 161 666T121 570ZM193 -3L717 724H766L241
-3H193Z" />
<glyph unicode="&amp;" glyph-name="ampersand" horiz-adv-x="633" d="M119 179Q119 110 166 65T286 20Q346 20 395 51T477 130L275 392Q119 302 119 179ZM73 178Q73 327 249 427Q221 466 209 485T184 534T171 590Q171 649 215 690T338 731Q402 731 448 698T518
616L480 600Q462 636 424 664T340 692Q283 692 251 662T218 589Q218 569 231 540T280 460T338 379T420 273T501 169Q537 236 549 329L593 322Q579 217 531 130L632 0H578L504 94Q423 -19 285 -19Q187 -19 130 37T73 178Z" />
<glyph unicode="&apos;" glyph-name="quotesingle" horiz-adv-x="271" d="M72 542L157 816H230L112 542H72Z" />
<glyph unicode="(" glyph-name="parenleft" horiz-adv-x="454" d="M169 344Q169 634 339 842L372 824Q339 778 318 741T270 644T230 508T216 344Q216 270 228 201T253 89T294 -7T333 -77T372 -135L339 -153Q169 61 169 344Z" />
<glyph unicode=")" glyph-name="parenright" horiz-adv-x="454" d="M83 -135Q116 -88 136 -53T184 44T225 181T239 344Q239 431 226 505T187 640T139 738T83 824L116 842Q285 636 285 344Q285 59 116 -153L83 -135Z" />
<glyph unicode="*" glyph-name="asterisk" horiz-adv-x="551" d="M35 419L52 460L258 382L251 586H300L294 382L500 460L517 419L306 346L464 168L427 140L276 323L124 140L88 168L246 345L35 419Z" />
<glyph unicode="+" glyph-name="plus" horiz-adv-x="551" d="M34 336V376H254V589H298V376H517V336H298V114H254V336H34Z" />
<glyph unicode="," glyph-name="comma" horiz-adv-x="339" d="M61 -180L146 94H219L100 -180H61Z" />
<glyph unicode="-" glyph-name="hyphen" horiz-adv-x="551" d="M53 336V376H498V336H53Z" />
<glyph unicode="." glyph-name="period" horiz-adv-x="339" d="M121 0V94H218V0H121Z" />
<glyph unicode="/" glyph-name="slash" horiz-adv-x="316" d="M-9 -63L278 775H325L39 -63H-9Z" />
<glyph unicode="0" glyph-name="zero" horiz-adv-x="551" d="M106 361Q106 202 149 112T277 21Q338 21 377 70T431 192T446 361Q446 521 403 611T276 701Q194 701 150 613T106 361ZM58 361Q58 553 118 646T276 740Q377 740 435 644T494 361Q494 254 474 172T403
36T277 -18Q177 -18 118 80T58 361Z" />
<glyph unicode="1" glyph-name="one" horiz-adv-x="551" d="M115 584V619H150Q226 619 251 637T277 703V732H317V-12H269V584H115Z" />
<glyph unicode="2" glyph-name="two" horiz-adv-x="551" d="M58 569Q80 648 134 694T275 740Q364 740 420 689T477 545Q477 435 365 330Q233 207 183 150T116 39H477V0H60Q60 26 68 52T98 111T137 165T194 227T254 286T325 352Q430 452 430 545Q430 620 387 660T272
701Q205 701 161 662T100 558L58 569Z" />
<glyph unicode="3" glyph-name="three" horiz-adv-x="551" d="M45 109L85 127Q146 21 261 21Q340 21 392 65T445 197Q445 279 389 321T252 363Q210 363 200 362V402Q209 401 248 401Q322 401 368 443T415 556Q415 620 373 660T261 701Q158 701 105 588L65 602Q123
740 263 740Q355 740 409 688T463 559Q463 492 426 447T336 385Q398 372 445 325T493 197Q493 93 429 38T261 -18Q115 -18 45 109Z" />
<glyph unicode="4" glyph-name="four" horiz-adv-x="551" d="M27 213L368 733H415V214H531V176H415V-12H369V176H27V213ZM74 214H369V549Q369 591 371 667H368L306 567L74 214Z" />
<glyph unicode="5" glyph-name="five" horiz-adv-x="551" d="M54 104L93 120Q118 74 161 48T254 21Q337 21 384 75T432 210Q432 296 384 348T255 400Q216 400 174 384T101 337L74 347L111 721H435V682H154L123 395Q187 439 271 439Q363 439 421 377T480 211Q480
115 421 49T254 -18Q119 -18 54 104Z" />
<glyph unicode="6" glyph-name="six" horiz-adv-x="551" d="M112 221Q112 137 159 79T284 21Q359 21 407 78T455 221Q455 309 407 366T282 423Q209 423 161 365T112 221ZM58 317Q58 378 65 435T91 548T138 646T210 714T311 740Q429 740 491 624L453 608Q398 701
311 701Q260 701 222 674T161 600T128 509T111 413Q107 382 105 320Q123 383 171 422T289 461Q383 461 442 392T502 221Q502 120 444 51T288 -18Q190 -18 133 44Q58 122 58 317Z" />
<glyph unicode="7" glyph-name="seven" horiz-adv-x="551" d="M41 681V721H478V688Q369 506 304 347T194 -12H146Q192 197 257 351T424 681H41Z" />
<glyph unicode="8" glyph-name="eight" horiz-adv-x="551" d="M120 554Q120 489 166 448T275 406Q339 406 385 448T431 554Q431 620 386 660T275 701Q206 701 163 659T120 554ZM48 189Q48 269 91 319T200 388Q145 407 109 448T73 557Q73 632 129 686T275 740Q362
740 420 688T479 557Q479 491 442 448T353 388Q418 370 461 319T505 187Q505 98 440 40T275 -18Q179 -18 114 39T48 189ZM96 191Q96 117 147 69T275 21Q353 21 405 69T457 191Q457 268 404 318T275 368Q202 368 149 318T96 191Z" />
<glyph unicode="9" glyph-name="nine" horiz-adv-x="551" d="M94 501Q94 411 145 356T265 301Q335 301 385 358T436 501Q436 586 388 643T265 701Q192 701 143 645T94 501ZM57 103L97 119Q119 75 158 48T247 21Q437 21 441 388Q423 338 375 300T260 262Q171 262
109 327T47 501Q47 605 108 672T265 740Q348 740 402 689T474 560Q486 507 486 398Q486 -18 246 -18Q179 -18 131 17T57 103Z" />
<glyph unicode=":" glyph-name="colon" horiz-adv-x="339" d="M121 92V186H218V92H121ZM121 472V566H218V472H121Z" />
<glyph unicode=";" glyph-name="semicolon" horiz-adv-x="339" d="M61 -88L146 186H219L100 -88H61ZM119 472V566H216V472H119Z" />
<glyph unicode="&lt;" glyph-name="less" horiz-adv-x="551" d="M69 327V369L471 679L496 645L113 347L496 50L471 16L69 327Z" />
<glyph unicode="=" glyph-name="equal" horiz-adv-x="551" d="M53 244V284H498V244H53ZM53 429V468H498V429H53Z" />
<glyph unicode="&gt;" glyph-name="greater" horiz-adv-x="551" d="M80 16L56 50L438 347L56 645L80 679L483 369V327L80 16Z" />
<glyph unicode="?" glyph-name="question" horiz-adv-x="536" d="M69 595Q97 664 149 702T267 740Q355 740 406 688T457 550Q457 505 439 470T394 409T342 358T297 297T278 216V196H231V218Q231 267 249 306T294 371T346 421T391 477T410 550Q410 617 373 658T268
700Q164 700 109 580L69 595ZM206 -9V84H303V-9H206Z" />
<glyph unicode="@" glyph-name="at" horiz-adv-x="944" d="M66 337Q66 517 184 630T495 744Q668 744 774 645T880 388Q880 252 829 186T705 119Q660 119 628 152T595 238H594Q577 193 534 157T431 120Q364 120 320 170T275 305Q275 416 335 481T476 547Q511 547
539 533T579 504T599 475L604 538H641L629 273Q627 218 649 187T709 156Q768 156 803 216T838 384Q838 527 746 617T494 708Q327 708 217 606T107 337Q107 169 211 70T481 -30Q597 -30 699 0L708 -33Q602 -66 481 -66Q294 -66 180 45T66 337ZM318 305Q318 240 351
199T434 158Q458 158 483 168T533 203T575 275T592 388Q592 436 564 473T476 511Q416 511 367 456T318 305Z" />
<glyph unicode="A" glyph-name="A" horiz-adv-x="614" d="M152 266H463L352 562Q320 649 310 678H306Q302 667 264 562L152 266ZM1 0L278 721H337L615 0H562L477 228H138L53 0H1Z" />
<glyph unicode="B" glyph-name="B" horiz-adv-x="665" d="M117 0V721H374Q474 721 527 671T581 540Q581 476 547 435T462 377Q524 362 566 313T609 196Q609 111 553 56T405 0H117ZM163 40H393Q467 40 514 84T562 195Q562 262 513 307T388 353H163V40ZM163 392H363Q436
392 485 429T534 538Q534 600 493 640T368 681H163V392Z" />
<glyph unicode="C" glyph-name="C" horiz-adv-x="627" d="M59 361Q59 539 141 639T356 740Q438 740 493 696T573 593L533 577Q475 699 355 699Q242 699 175 607T107 361Q107 204 176 113T355 22Q425 22 475 59T551 152L593 138Q518 -18 356 -18Q223 -18 141 83T59 361Z" />
<glyph unicode="D" glyph-name="D" horiz-adv-x="676" d="M117 0V721H300Q452 721 539 631T627 361Q627 186 541 93T300 0H117ZM163 40H287Q423 40 501 116T579 361Q579 681 289 681H163V40Z" />
<glyph unicode="E" glyph-name="E" horiz-adv-x="605" d="M117 0V721H553V681H163V394H516V355H163V40H565V0H117Z" />
<glyph unicode="F" glyph-name="F" horiz-adv-x="571" d="M117 0V721H537V681H163V384H499V345H163V0H117Z" />
<glyph unicode="G" glyph-name="G" horiz-adv-x="702" d="M59 361Q59 531 139 635T364 740Q449 740 506 698T590 599L551 584Q487 699 364 699Q241 699 174 606T107 361Q107 205 175 114T362 22Q417 22 459 43T526 99T563 177T576 265V337H353V377H622V0H585L583
134Q561 68 507 25T361 -18Q221 -18 140 84T59 361Z" />
<glyph unicode="H" glyph-name="H" horiz-adv-x="728" d="M117 0V721H163V392H565V721H612V0H565V353H163V0H117Z" />
<glyph unicode="I" glyph-name="I" horiz-adv-x="279" d="M117 0V721H163V0H117Z" />
<glyph unicode="J" glyph-name="J" horiz-adv-x="482" d="M19 100L62 116Q80 71 113 46T187 22Q320 25 320 205V721H367V194Q367 89 321 36T189 -18Q67 -18 19 100Z" />
<glyph unicode="K" glyph-name="K" horiz-adv-x="622" d="M117 0V721H163V297H164L533 721H595L324 412L616 0H556L293 377L163 229V0H117Z" />
<glyph unicode="L" glyph-name="L" horiz-adv-x="528" d="M117 0V721H163V40H518V0H117Z" />
<glyph unicode="M" glyph-name="M" horiz-adv-x="876" d="M117 0V721H178L369 285Q382 254 404 199T437 119H440Q449 141 472 197T508 285L698 721H761V0H714V469Q714 533 720 661H717L676 566L460 62H417L201 565L159 662H157Q163 554 163 469V0H117Z" />
<glyph unicode="N" glyph-name="N" horiz-adv-x="735" d="M117 0V721H172L490 205L576 65H580Q573 147 573 248V721H620V0H564L238 528L160 656H157Q163 563 163 461V0H117Z" />
<glyph unicode="O" glyph-name="O" horiz-adv-x="692" d="M59 361Q59 532 137 636T347 740Q480 740 556 636T633 360Q633 189 556 86T347 -18Q214 -18 137 86T59 361ZM107 361Q107 209 170 116T347 22Q458 22 522 114T586 360Q586 515 522 607T347 699Q237 699
172 608T107 361Z" />
<glyph unicode="P" glyph-name="P" horiz-adv-x="648" d="M117 0V721H384Q483 721 542 666T602 517Q602 422 541 367T383 312H163V0H117ZM163 350H373Q457 350 505 393T554 517Q554 596 506 638T371 681H163V350Z" />
<glyph unicode="Q" glyph-name="Q" horiz-adv-x="691" d="M59 360Q59 532 136 636T347 740Q479 740 556 636T633 360Q633 189 557 86T347 -18Q214 -18 137 85T59 360ZM107 360Q107 207 172 115T347 22Q457 22 521 114T586 360Q586 518 521 608T347 699Q237 699
172 608T107 360ZM342 218L374 247L632 -23L600 -50L342 218Z" />
<glyph unicode="R" glyph-name="R" horiz-adv-x="655" d="M163 366H385Q466 366 511 409T556 525Q556 593 511 637T376 681H163V366ZM117 0V721H389Q492 721 547 666T603 527Q603 445 560 399T465 342Q508 323 531 288T568 197Q570 188 575 165T583 136T589 112T596
88T603 67T612 45T622 24T635 0H582Q567 28 556 61T539 115T519 194Q512 220 504 240T480 282T439 314T379 326H163V0H117Z" />
<glyph unicode="S" glyph-name="S" horiz-adv-x="602" d="M52 120L96 137Q128 85 183 54T308 22Q394 22 448 64T503 182Q503 218 488 245T440 293T380 324T304 352Q259 367 235 375T175 403T119 441T86 490T71 558Q71 642 133 691T304 740Q381 740 440 705T527
618L487 602Q424 699 301 699Q215 699 167 661T118 558Q118 529 131 505T161 464T210 433T265 409T329 387Q371 373 396 364T454 336T505 299T537 250T551 184Q551 89 486 36T306 -18Q135 -18 52 120Z" />
<glyph unicode="T" glyph-name="T" horiz-adv-x="536" d="M18 681V721H520V681H293V0H246V681H18Z" />
<glyph unicode="U" glyph-name="U" horiz-adv-x="727" d="M116 251V721H162V255Q162 141 216 82T363 22Q458 22 512 82T566 255V721H613V251Q613 123 549 53T363 -18Q245 -18 181 51T116 251Z" />
<glyph unicode="V" glyph-name="V" horiz-adv-x="557" d="M-3 721H50L227 196Q234 174 250 125T275 49H278Q287 77 304 125T328 196L509 721H561L305 0H249L-3 721Z" />
<glyph unicode="W" glyph-name="W" horiz-adv-x="828" d="M11 721H63L185 197Q195 151 215 53H219Q225 78 236 126T253 197L387 721H441L576 197Q582 172 593 124T610 53H613Q631 143 644 197L766 721H818L641 0H584L451 515Q428 605 416 665H413Q402 612 377
515L245 0H189L11 721Z" />
<glyph unicode="X" glyph-name="X" horiz-adv-x="530" d="M-4 0L234 371L9 721H67L198 512Q203 504 263 406H267Q315 485 333 512L464 721H523L296 371L535 0H478L336 223Q323 244 298 285T267 334H263Q249 311 195 223L54 0H-4Z" />
<glyph unicode="Y" glyph-name="Y" horiz-adv-x="557" d="M-3 721H54L212 455Q221 440 244 400T278 341H280Q306 385 347 455L504 721H561L303 297V0H257V297L-3 721Z" />
<glyph unicode="Z" glyph-name="Z" horiz-adv-x="608" d="M57 36L486 681H89V721H543V685L112 40H553V0H57V36Z" />
<glyph unicode="[" glyph-name="bracketleft" horiz-adv-x="455" d="M171 -131V821H349V783H217V-94H349V-131H171Z" />
<glyph unicode="\" glyph-name="backslash" horiz-adv-x="298" d="M-9 775H37L308 -63H262L-9 775Z" />
<glyph unicode="]" glyph-name="bracketright" horiz-adv-x="455" d="M106 -94H238V783H106V821H284V-131H106V-94Z" />
<glyph unicode="^" glyph-name="asciicircum" horiz-adv-x="482" d="M29 486L219 800H264L454 486H405L276 704L242 761H241L206 704L78 486H29Z" />
<glyph unicode="_" glyph-name="underscore" horiz-adv-x="422" d="M8 -39H416V-78H8V-39Z" />
<glyph unicode="`" glyph-name="grave" horiz-adv-x="268" d="M157 542L41 816H114L196 542H157Z" />
<glyph unicode="a" glyph-name="a" horiz-adv-x="549" d="M94 122Q94 80 129 50T229 20Q307 20 364 70T421 200V292Q372 275 263 258Q94 231 94 122ZM48 120Q48 189 98 232T262 293T421 329V356Q421 416 381 454T267 493Q219 493 175 471T101 409L70 432Q102 475
154 502T266 530Q368 530 417 479T466 344V0H422V102Q404 54 350 18T225 -18Q143 -18 96 21T48 120Z" />
<glyph unicode="b" glyph-name="b" horiz-adv-x="576" d="M95 0V751H141V393Q154 444 200 487T312 530Q407 530 465 457T524 257Q524 121 461 52T311 -18Q250 -18 206 19T141 112V0H95ZM139 257Q139 147 188 84T307 20Q383 20 431 84T479 257Q479 365 432 428T308
492Q239 492 189 429T139 257Z" />
<glyph unicode="c" glyph-name="c" horiz-adv-x="493" d="M52 257Q52 377 111 453T275 530Q338 530 385 496T450 410L410 398Q393 439 357 465T275 492Q196 492 147 426T98 257Q98 151 148 86T275 20Q324 20 364 49T425 120L464 106Q441 54 391 18T275 -18Q176
-18 114 57T52 257Z" />
<glyph unicode="d" glyph-name="d" horiz-adv-x="576" d="M52 257Q52 384 111 457T265 530Q328 530 373 491T436 395V751H481V0H437V113Q417 57 372 20T264 -18Q179 -18 116 51T52 257ZM98 257Q98 150 144 85T269 20Q339 20 388 83T437 257Q437 366 387 429T268
492Q192 492 145 429T98 257Z" />
<glyph unicode="e" glyph-name="e" horiz-adv-x="547" d="M52 260Q52 379 113 454T277 530Q380 530 439 456T498 273Q498 267 498 258T497 243H98Q98 152 146 86T280 20Q334 20 378 47T446 117L485 103Q458 49 406 16T280 -18Q175 -18 114 59T52 260ZM99 278H452Q452
366 404 429T277 492Q195 492 148 428T99 278Z" />
<glyph unicode="f" glyph-name="f" horiz-adv-x="323" d="M26 474V513H122V608Q122 682 159 716T259 751H311V713H263Q168 713 168 601V513H297V474H168V0H122V474H26Z" />
<glyph unicode="g" glyph-name="g" horiz-adv-x="566" d="M98 266Q98 165 144 102T263 38Q339 38 383 99T428 267Q428 368 382 430T265 492Q187 492 143 429T98 266ZM52 266Q52 384 109 457T261 530Q327 530 368 492T428 404V513H473V46Q473 -99 425 -169T266
-239Q154 -239 87 -152L120 -131Q183 -202 267 -202Q428 -202 428 31V123Q381 0 262 0Q167 0 110 74T52 266Z" />
<glyph unicode="h" glyph-name="h" horiz-adv-x="568" d="M95 0V751H141V413H142Q160 459 208 494T319 530Q398 530 440 480T483 332V0H439V323Q439 492 311 492Q245 492 193 439T141 312V0H95Z" />
<glyph unicode="i" glyph-name="i" horiz-adv-x="272" d="M97 649V732H174V649H97ZM115 0V513H159V0H115Z" />
<glyph unicode="j" glyph-name="j" horiz-adv-x="276" d="M100 649V732H178V649H100ZM-6 -190H20Q118 -190 118 -60V513H162V-64Q162 -145 128 -187T28 -229H-6V-190Z" />
<glyph unicode="k" glyph-name="k" horiz-adv-x="489" d="M96 0V751H143V218L404 513H464L284 310L489 0H434L253 277L143 155V0H96Z" />
<glyph unicode="l" glyph-name="l" horiz-adv-x="244" d="M99 0V751H145V0H99Z" />
<glyph unicode="m" glyph-name="m" horiz-adv-x="835" d="M91 0V513H135V421H136Q151 463 191 496T294 530Q405 530 431 400Q433 412 443 431T473 473T528 513T607 530Q682 530 716 481T751 333V0H705V326Q705 408 683 450T596 492Q533 492 489 441T444 307V0H398V326Q398
492 286 492Q220 492 178 443T136 314V0H91Z" />
<glyph unicode="n" glyph-name="n" horiz-adv-x="564" d="M91 0V513H135V407H136Q145 448 194 489T315 530Q345 530 371 522T423 493T464 432T479 332V0H433V323Q433 492 306 492Q240 492 188 439T136 312V0H91Z" />
<glyph unicode="o" glyph-name="o" horiz-adv-x="553" d="M98 257Q98 152 147 86T277 20Q356 20 406 86T456 257Q456 363 405 427T277 492Q200 492 149 428T98 257ZM52 257Q52 376 112 453T277 530Q380 530 441 453T502 257Q502 204 488 156T448 69T377 6T277
-18Q168 -18 110 63T52 257Z" />
<glyph unicode="p" glyph-name="p" horiz-adv-x="576" d="M140 258Q140 152 186 86T308 20Q382 20 430 83T479 257Q479 360 434 426T308 492Q236 492 188 426T140 258ZM95 -235V513H140V396Q161 457 206 493T312 530Q407 530 465 456T524 257Q524 125 463 54T311
-18Q248 -18 205 19T141 114V-235H95Z" />
<glyph unicode="q" glyph-name="q" horiz-adv-x="575" d="M98 257Q98 149 145 85T268 20Q343 20 389 86T436 258Q436 361 388 426T268 492Q187 492 143 426T98 257ZM52 257Q52 381 110 455T264 530Q322 530 368 495T437 397V513H481V-235H436V114Q415 56 371 19T265
-18Q174 -18 113 54T52 257Z" />
<glyph unicode="r" glyph-name="r" horiz-adv-x="363" d="M91 0V513H134V424Q148 463 186 496T287 530Q332 530 364 515V474Q328 490 287 490Q217 490 177 438T136 303V0H91Z" />
<glyph unicode="s" glyph-name="s" horiz-adv-x="479" d="M44 90L79 110Q136 20 242 20Q308 20 349 47T390 121Q390 139 385 153T365 179T340 198T304 215T266 229T220 243Q185 254 161 264T111 291T71 334T57 393Q57 456 108 493T242 530Q302 530 350 500T422
427L390 407Q368 444 329 468T242 492Q178 492 141 465T103 392Q103 344 141 317T247 272Q286 261 313 251T371 224T418 180T435 121Q435 62 385 22T242 -18Q108 -18 44 90Z" />
<glyph unicode="t" glyph-name="t" horiz-adv-x="350" d="M26 474V513H123V686H170V513H308V474H170V141Q170 86 191 62T259 39H308V0H254Q191 -1 157 32T123 134V474H26Z" />
<glyph unicode="u" glyph-name="u" horiz-adv-x="560" d="M85 176V513H130V191Q130 20 261 20Q341 20 383 78T425 218V513H469V0H426V101Q417 59 373 21T251 -18Q173 -18 129 34T85 176Z" />
<glyph unicode="v" glyph-name="v" horiz-adv-x="474" d="M13 513H63L196 157Q203 139 216 99T237 39H239Q262 102 281 157L411 513H462L266 0H209L13 513Z" />
<glyph unicode="w" glyph-name="w" horiz-adv-x="687" d="M11 513H62L160 152Q163 138 172 100T186 41H189Q194 59 204 96T218 152L316 513H373L472 150Q475 138 485 101T501 42H503Q508 65 518 104T530 152L627 513H678L531 0H472L375 350Q356 417 345 465H342Q339
451 334 428T324 385T314 350L217 0H158L11 513Z" />
<glyph unicode="x" glyph-name="x" horiz-adv-x="438" d="M5 0L191 267L16 513H70L174 364Q184 350 198 329T218 300H220Q226 311 241 332T263 364L365 513H420L247 267L432 0H377L262 170Q250 186 220 233H218Q211 222 197 202T175 170L60 0H5Z" />
<glyph unicode="y" glyph-name="y" horiz-adv-x="466" d="M11 513H64L190 164Q198 140 213 97T234 36H237Q277 151 282 166L403 513H455L230 -99Q203 -173 170 -204T90 -235H65V-197H83Q153 -197 191 -87L213 -20L11 513Z" />
<glyph unicode="z" glyph-name="z" horiz-adv-x="466" d="M39 0V32L361 474H65V513H418V482L96 38H428V0H39Z" />
<glyph unicode="{" glyph-name="braceleft" horiz-adv-x="455" d="M81 321V357H106Q191 357 191 508V704Q191 760 220 790T292 821H364V783H301Q274 783 256 760T237 695V499Q237 381 163 338Q195 324 216 286T237 188V2Q237 -46 255 -70T303 -94H364V-131H293Q252
-131 222 -102T191 -14V176Q191 247 169 284T106 321H81Z" />
<glyph unicode="|" glyph-name="bar" horiz-adv-x="242" d="M99 -165V850H144V-165H99Z" />
<glyph unicode="}" glyph-name="braceright" horiz-adv-x="455" d="M91 -94H151Q181 -94 200 -70T219 2V192Q219 250 239 287T292 338Q219 380 219 497V695Q219 737 200 760T153 783H91V821H162Q205 821 234 791T264 704V508Q264 357 349 357H374V321H349Q308
321 286 283T264 180V-14Q264 -73 234 -102T161 -131H91V-94Z" />
<glyph unicode="~" glyph-name="asciitilde" horiz-adv-x="730" d="M75 308Q138 429 245 429Q285 429 319 409T374 364T425 320T487 299Q513 299 534 308T573 338T598 370T620 406L656 387Q587 261 488 261Q454 261 426 274T378 307T340 346T297 378T245 392Q168
392 112 288L75 308Z" />
<glyph unicode="&#xa0;" glyph-name=".notdef" horiz-adv-x="247" />
<glyph unicode="&#xa1;" glyph-name="exclamdown" horiz-adv-x="309" d="M127 -212L134 304H176L182 -212H127ZM106 425V517H203V425H106Z" />
<glyph unicode="&#xa2;" glyph-name="cent" horiz-adv-x="493" d="M52 257Q52 370 106 447T258 529V607H301V528Q355 520 394 488T450 411L411 398Q394 438 358 465T276 492Q195 492 147 426T98 257Q98 151 147 86T275 20Q323 20 364 49T425 120L463 106Q442 60
400 27T301 -16V-97H258V-17Q167 -12 110 62T52 257Z" />
<glyph unicode="&#xa3;" glyph-name="sterling" horiz-adv-x="554" d="M38 338V378H150V559Q150 647 200 693T335 740Q393 740 436 712T500 643L469 623Q422 700 336 700Q272 700 234 663T196 555V378H429V338H196V200Q196 88 131 37Q200 53 243 53Q275 53 322
38T401 22Q474 22 528 52L543 14Q483 -18 400 -18Q371 -18 317 -3T232 13Q200 13 156 6T84 -7L56 -14L42 22Q96 40 123 90T150 199V338H38Z" />
<glyph unicode="&#xa4;" glyph-name="currency" horiz-adv-x="616" d="M35 135L143 235Q98 285 98 361Q98 435 142 486L35 585L66 615L172 516Q233 564 309 564Q388 564 447 515L551 614L582 584L476 486Q522 434 522 361Q522 290 475 235L582 135L552 106L446
204Q392 157 309 157Q228 157 171 204L66 107L35 135ZM141 361Q141 293 188 245T309 197Q382 197 430 245T478 361Q478 429 430 476T309 524Q237 524 189 477T141 361Z" />
<glyph unicode="&#xa5;" glyph-name="yen" horiz-adv-x="556" d="M-3 721H54L209 479Q265 391 278 369H280Q289 384 312 420T348 477L504 721H561L329 364H498V329H303V221H498V186H303V0H256V186H58V221H256V329H58V364H230L-3 721Z" />
<glyph unicode="&#xa6;" glyph-name="brokenbar" horiz-adv-x="242" d="M99 459V850H144V459H99ZM99 -164V225H144V-164H99Z" />
<glyph unicode="&#xa7;" glyph-name="section" horiz-adv-x="560" d="M73 36L106 60Q128 24 169 4T261 -17Q327 -17 362 7T397 72Q397 106 377 126T306 168L200 215Q141 241 112 272T83 349Q83 385 101 416T138 462T189 498Q115 552 115 610Q115 670 161 705T298
740Q358 740 408 714T485 644L453 623Q394 700 297 700Q226 700 194 675T161 611Q161 588 173 568T210 531T258 501T316 472Q330 465 337 462Q416 423 450 392T485 312Q485 234 399 163Q444 127 444 72Q444 16 399 -20T262 -56Q197 -56 149 -30T73 36ZM130 353Q130
313 152 292T236 243L361 186Q438 246 438 312Q438 347 412 369T319 426L224 476Q200 459 188 450T160 424T137 391T130 353Z" />
<glyph unicode="&#xa8;" glyph-name="dieresis" horiz-adv-x="447" d="M103 643V721H181V643H103ZM267 643V721H345V643H267Z" />
<glyph unicode="&#xa9;" glyph-name="copyright" horiz-adv-x="879" d="M264 365Q264 468 315 534T455 600Q502 600 541 574T605 497L566 483Q528 562 454 562Q387 562 348 508T308 365Q308 275 348 222T454 168Q496 168 528 192T577 253L617 238Q596 193 554
162T454 130Q370 130 317 193T264 365ZM57 367Q57 532 166 641T440 750Q605 750 714 642T824 367Q824 205 715 95T440 -15Q275 -15 166 93T57 367ZM93 367Q93 221 189 120T440 18Q593 18 690 119T788 367Q788 514 690 615T440 717Q290 717 192 617T93 367Z" />
<glyph unicode="&#xaa;" glyph-name="ordfeminine" horiz-adv-x="381" d="M37 335V369H345V335H37ZM72 538Q72 511 95 492T161 472Q212 472 250 505T288 591V649Q266 641 222 634T148 620T96 593T72 538ZM34 536Q34 573 52 598T101 635T163 653T231 666T288 681V698Q288
737 261 762T186 787Q146 787 116 767T74 729L47 748Q66 776 104 797T186 819Q257 819 291 784T325 689V451H289V509Q272 479 237 459T158 439Q101 439 68 466T34 536Z" />
<glyph unicode="&#xab;" glyph-name="guillemotleft" horiz-adv-x="421" d="M36 246L191 463L225 441L86 246L224 51L190 28L36 246ZM196 246L352 460L384 436L246 246L383 54L351 31L196 246Z" />
<glyph unicode="&#xac;" glyph-name="logicalnot" horiz-adv-x="533" d="M51 325V364H484V125H439V325H51Z" />
<glyph unicode="&#xad;" glyph-name=".notdef" horiz-adv-x="551" d="M63 336V376H488V336H63Z" />
<glyph unicode="&#xae;" glyph-name="registered" horiz-adv-x="879" d="M314 144V586H474Q535 586 570 551T605 465Q605 384 530 355Q565 333 580 273Q604 178 623 144H574Q559 172 537 264Q528 301 513 320T466 340H357V144H314ZM357 376H468Q511 376 536 399T561
462Q561 499 538 523T468 548H357V376ZM57 367Q57 532 166 641T440 750Q606 750 715 642T824 367Q824 205 716 95T440 -15Q275 -15 166 93T57 367ZM93 367Q93 221 189 120T440 18Q593 18 690 120T788 367Q788 514 690 615T440 717Q290 717 192 617T93 367Z" />
<glyph unicode="&#xaf;" glyph-name="overscore" horiz-adv-x="509" d="M0 763V803H510V763H0Z" />
<glyph unicode="&#xb0;" glyph-name="degree" horiz-adv-x="408" d="M87 616Q87 661 120 695T205 729Q254 729 288 697T322 616Q322 567 288 535T205 503Q155 503 121 535T87 616ZM120 616Q120 579 144 556T205 533Q239 533 263 556T288 616Q288 650 265 674T205
698Q166 698 143 674T120 616Z" />
<glyph unicode="&#xb1;" glyph-name="plusminus" horiz-adv-x="551" d="M45 401V441H254V633H298V441H506V401H298V210H254V401H45ZM48 88V127H505V88H48Z" />
<glyph unicode="&#xb2;" glyph-name="twosuperior" horiz-adv-x="310" d="M32 716Q58 818 156 818Q207 818 239 789T271 707Q271 645 204 582Q116 498 97 472Q84 453 77 436H271V405H34Q34 433 54 467T94 521T168 594Q176 603 181 607Q235 660 235 707Q235 745
214 765T155 786Q89 786 64 708L32 716Z" />
<glyph unicode="&#xb3;" glyph-name="threesuperior" horiz-adv-x="310" d="M24 472L54 487Q88 427 148 427Q189 427 216 450T243 518Q243 555 218 579T138 603Q119 603 110 602V635Q120 634 136 634Q184 634 206 657T228 713Q228 745 206 766T148 787Q96 787
66 724L36 735Q69 818 149 818Q201 818 232 789T263 715Q263 649 205 621Q280 595 280 518Q280 460 243 428T148 395Q62 395 24 472Z" />
<glyph unicode="&#xb4;" glyph-name="acute" horiz-adv-x="323" d="M82 646L194 816H263L126 646H82Z" />
<glyph unicode="&#xb5;" glyph-name="mu" horiz-adv-x="576" d="M95 -235V513H141V187Q141 114 173 67T273 20Q353 20 397 79T441 218V513H486V0H443V101H441Q428 54 382 18T265 -18Q178 -18 141 55V-235H95Z" />
<glyph unicode="&#xb6;" glyph-name="paragraph" horiz-adv-x="627" d="M68 539Q68 639 118 699T263 759H530V-69H491V716H368V-69H328V331Q289 318 251 318Q173 318 121 376T68 539Z" />
<glyph unicode="&#xb7;" glyph-name="middot" horiz-adv-x="335" d="M120 298V392H217V298H120Z" />
<glyph unicode="&#xb8;" glyph-name="cedilla" horiz-adv-x="286" d="M47 -183Q90 -193 111 -193Q189 -193 189 -142Q189 -95 90 -84L130 -5H171L144 -60Q232 -77 232 -142Q232 -182 202 -205T113 -228Q83 -228 47 -217V-183Z" />
<glyph unicode="&#xb9;" glyph-name="onesuperior" horiz-adv-x="310" d="M61 725V754H86Q124 754 137 762T151 792V816H183V401H146V725H61Z" />
<glyph unicode="&#xba;" glyph-name="ordmasculine" horiz-adv-x="381" d="M72 629Q72 559 105 516T190 472Q242 472 275 516T309 629Q309 700 275 743T190 786Q139 786 106 743T72 629ZM35 629Q35 711 76 765T190 819Q261 819 304 765T347 629Q347 551 307 495T190
439Q114 439 75 495T35 629ZM37 335V369H345V335H37Z" />
<glyph unicode="&#xbb;" glyph-name="guillemotright" horiz-adv-x="420" d="M37 436L70 460L225 246L71 31L38 54L175 246L37 436ZM197 51L335 246L196 441L230 463L385 246L232 28L197 51Z" />
<glyph unicode="&#xbc;" glyph-name="onequarter" horiz-adv-x="947" d="M89 677V713H117Q163 713 177 721T192 756V784H229V299H187V677H89ZM530 110L749 445H789V115H862V78H789V-41H747V78H530V110ZM577 115H747V320V376L717 328L577 115ZM158 -50L639 770H685L205
-50H158Z" />
<glyph unicode="&#xbd;" glyph-name="onehalf" horiz-adv-x="947" d="M89 677V713H117Q163 713 177 721T192 756V784H229V299H187V677H89ZM560 327Q595 446 705 446Q764 446 802 412T840 316Q840 246 766 175Q688 102 656 67T613 0H840V-37H563Q563 11 598 57T733
197Q797 257 797 316Q797 361 772 384T703 408Q661 408 635 382T599 316L560 327ZM142 -50L634 769H680L189 -50H142Z" />
<glyph unicode="&#xbe;" glyph-name="threequarters" horiz-adv-x="947" d="M64 389L100 405Q140 336 210 336Q257 336 289 362T321 441Q321 490 287 515T204 541Q185 541 165 539V579Q181 577 201 577Q245 577 273 602T302 669Q302 707 277 731T210 755Q149 755
114 682L77 695Q118 793 211 793Q273 793 308 758T344 671Q344 595 276 562Q313 549 338 519T363 441Q363 373 321 336T210 298Q161 298 123 323T64 389ZM540 110L759 445H799V115H872V78H799V-41H757V78H540V110ZM587 115H757V320V376L728 328L587 115ZM222 -50L713
769H759L269 -50H222Z" />
<glyph unicode="&#xbf;" glyph-name="questiondown" horiz-adv-x="533" d="M76 -40Q76 5 94 41T139 102T192 152T236 213T255 295V313H301V293Q301 243 283 204T238 140T186 90T142 33T123 -40Q123 -108 160 -149T265 -190Q369 -190 424 -70L464 -85Q436 -154
384 -192T266 -230Q178 -230 127 -178T76 -40ZM229 426V517H326V426H229Z" />
<glyph unicode="&#xc0;" glyph-name="Agrave" horiz-adv-x="614" d="M152 266H463L352 562Q320 649 310 678H306Q302 667 264 562L152 266ZM1 0L278 721H337L615 0H562L477 228H138L53 0H1ZM424 976H493L605 806H561L424 976Z" />
<glyph unicode="&#xc1;" glyph-name="Aacute" horiz-adv-x="614" d="M152 266H463L352 562Q320 649 310 678H306Q302 667 264 562L152 266ZM1 0L278 721H337L615 0H562L477 228H138L53 0H1ZM506 806L618 976H687L550 806H506Z" />
<glyph unicode="&#xc2;" glyph-name="Acircumflex" horiz-adv-x="614" d="M152 266H463L352 562Q320 649 310 678H306Q302 667 264 562L152 266ZM1 0L278 721H337L615 0H562L477 228H138L53 0H1ZM127 806L285 963H329L488 806H436L307 932L180 806H127Z" />
<glyph unicode="&#xc3;" glyph-name="Atilde" horiz-adv-x="614" d="M152 266H463L352 562Q320 649 310 678H306Q302 667 264 562L152 266ZM1 0L278 721H337L615 0H562L477 228H138L53 0H1ZM110 852Q123 885 152 911T225 938Q261 938 307 903T376 868Q428 868
458 935L490 917Q450 832 378 832Q341 832 296 867T225 902Q170 902 142 834L110 852Z" />
<glyph unicode="&#xc4;" glyph-name="Adieresis" horiz-adv-x="614" d="M152 266H463L352 562Q320 649 310 678H306Q302 667 264 562L152 266ZM1 0L278 721H337L615 0H562L477 228H138L53 0H1ZM423 850V929H505V850H423ZM620 850V929H701V850H620Z" />
<glyph unicode="&#xc5;" glyph-name="Aring" horiz-adv-x="614" d="M152 266H463L352 562Q320 649 310 678H306Q302 667 264 562L152 266ZM1 0L278 721H337L615 0H562L477 228H138L53 0H1ZM182 888Q182 937 218 973T308 1009Q362 1009 397 974T433 888Q433 839
398 804T308 768Q255 768 219 803T182 888ZM219 888Q219 851 244 826T308 801Q347 801 371 825T396 888Q396 925 372 950T308 975Q268 975 244 950T219 888Z" />
<glyph unicode="&#xc6;" glyph-name="AE" horiz-adv-x="905" d="M216 266H478V679H469L216 266ZM1 0L445 721H859V681H524V394H823V355H522V40H864V0H478V228H193L53 0H1Z" />
<glyph unicode="&#xc7;" glyph-name="Ccedilla" horiz-adv-x="627" d="M59 361Q59 539 141 639T356 740Q438 740 493 696T573 593L533 577Q475 699 355 699Q242 699 175 607T107 361Q107 204 176 113T355 22Q425 22 475 59T551 152L593 138Q518 -18 356 -18Q223
-18 141 83T59 361ZM501 80Q552 63 595 63Q628 63 655 78T683 118Q683 174 566 172L587 257H630L614 196Q666 195 694 174T722 117Q722 80 688 56T595 31Q545 31 501 47V80Z" />
<glyph unicode="&#xc8;" glyph-name="Egrave" horiz-adv-x="605" d="M117 0V721H553V681H163V394H516V355H163V40H565V0H117ZM216 976H285L397 806H353L216 976Z" />
<glyph unicode="&#xc9;" glyph-name="Eacute" horiz-adv-x="605" d="M117 0V721H553V681H163V394H516V355H163V40H565V0H117ZM269 806L381 976H450L313 806H269Z" />
<glyph unicode="&#xca;" glyph-name="Ecircumflex" horiz-adv-x="605" d="M156 806L314 963H358L517 806H465L336 932L209 806H156ZM117 0V721H553V681H163V394H516V355H163V40H565V0H117Z" />
<glyph unicode="&#xcb;" glyph-name="Edieresis" horiz-adv-x="605" d="M117 0V721H553V681H163V394H516V355H163V40H565V0H117ZM199 850V929H281V850H199ZM396 850V929H477V850H396Z" />
<glyph unicode="&#xcc;" glyph-name="Igrave" horiz-adv-x="279" d="M117 0V721H163V0H117ZM3 976H72L184 806H140L3 976Z" />
<glyph unicode="&#xcd;" glyph-name="Iacute" horiz-adv-x="279" d="M117 0V721H163V0H117ZM89 806L201 976H270L133 806H89Z" />
<glyph unicode="&#xce;" glyph-name="Icircumflex" horiz-adv-x="279" d="M117 0V721H163V0H117ZM-42 806L116 963H160L319 806H267L138 932L11 806H-42Z" />
<glyph unicode="&#xcf;" glyph-name="Idieresis" horiz-adv-x="279" d="M117 0V721H163V0H117ZM1 850V929H83V850H1ZM198 850V929H279V850H198Z" />
<glyph unicode="&#xd0;" glyph-name="Eth" horiz-adv-x="676" d="M117 0V721H300Q452 721 539 631T627 361Q627 186 541 93T300 0H117ZM163 40H287Q423 40 501 116T579 361Q579 681 289 681H163V40ZM280 352V390H619V352H280Z" />
<glyph unicode="&#xd1;" glyph-name="Ntilde" horiz-adv-x="735" d="M179 852Q192 885 221 911T294 938Q330 938 376 903T445 868Q497 868 527 935L559 917Q519 832 447 832Q410 832 365 867T294 902Q239 902 211 834L179 852ZM117 0V721H172L490 205L576 65H580Q573
147 573 248V721H620V0H564L238 528L160 656H157Q163 563 163 461V0H117Z" />
<glyph unicode="&#xd2;" glyph-name="Ograve" horiz-adv-x="692" d="M59 361Q59 532 137 636T347 740Q480 740 556 636T633 360Q633 189 556 86T347 -18Q214 -18 137 86T59 361ZM107 361Q107 209 170 116T347 22Q458 22 522 114T586 360Q586 515 522 607T347 699Q237
699 172 608T107 361ZM217 979H286L398 809H354L217 979Z" />
<glyph unicode="&#xd3;" glyph-name="Oacute" horiz-adv-x="692" d="M59 361Q59 532 137 636T347 740Q480 740 556 636T633 360Q633 189 556 86T347 -18Q214 -18 137 86T59 361ZM107 361Q107 209 170 116T347 22Q458 22 522 114T586 360Q586 515 522 607T347 699Q237
699 172 608T107 361ZM292 809L404 979H473L336 809H292Z" />
<glyph unicode="&#xd4;" glyph-name="Ocircumflex" horiz-adv-x="692" d="M59 361Q59 532 137 636T347 740Q480 740 556 636T633 360Q633 189 556 86T347 -18Q214 -18 137 86T59 361ZM107 361Q107 209 170 116T347 22Q458 22 522 114T586 360Q586 515 522 607T347
699Q237 699 172 608T107 361ZM166 809L324 966H368L527 809H475L346 935L219 809H166Z" />
<glyph unicode="&#xd5;" glyph-name="Otilde" horiz-adv-x="692" d="M159 852Q172 885 201 911T274 938Q310 938 356 903T425 868Q477 868 507 935L539 917Q499 832 427 832Q390 832 345 867T274 902Q219 902 191 834L159 852ZM59 361Q59 532 137 636T347 740Q480
740 556 636T633 360Q633 189 556 86T347 -18Q214 -18 137 86T59 361ZM107 361Q107 209 170 116T347 22Q458 22 522 114T586 360Q586 515 522 607T347 699Q237 699 172 608T107 361Z" />
<glyph unicode="&#xd6;" glyph-name="Odieresis" horiz-adv-x="692" d="M59 361Q59 532 137 636T347 740Q480 740 556 636T633 360Q633 189 556 86T347 -18Q214 -18 137 86T59 361ZM107 361Q107 209 170 116T347 22Q458 22 522 114T586 360Q586 515 522 607T347
699Q237 699 172 608T107 361ZM206 850V929H288V850H206ZM403 850V929H484V850H403Z" />
<glyph unicode="&#xd7;" glyph-name="multiply" horiz-adv-x="551" d="M48 171L248 354L51 537L80 567L276 380L472 567L501 538L305 354L504 170L475 142L276 327L77 142L48 171Z" />
<glyph unicode="&#xd8;" glyph-name="Oslash" horiz-adv-x="692" d="M59 360Q59 531 136 635T347 740Q432 740 496 695L539 782H584L527 669Q634 565 634 360Q634 190 557 86T347 -18Q274 -18 217 14L172 -76H128L185 37Q59 135 59 360ZM506 625L237 52Q286 22
347 22Q459 22 522 114T586 360Q586 536 506 625ZM477 656Q422 699 347 699Q236 699 172 608T107 360Q107 164 205 77L477 656Z" />
<glyph unicode="&#xd9;" glyph-name="Ugrave" horiz-adv-x="727" d="M116 251V721H162V255Q162 141 216 82T363 22Q458 22 512 82T566 255V721H613V251Q613 123 549 53T363 -18Q245 -18 181 51T116 251ZM244 979H313L425 809H381L244 979Z" />
<glyph unicode="&#xda;" glyph-name="Uacute" horiz-adv-x="727" d="M116 251V721H162V255Q162 141 216 82T363 22Q458 22 512 82T566 255V721H613V251Q613 123 549 53T363 -18Q245 -18 181 51T116 251ZM303 809L415 979H484L347 809H303Z" />
<glyph unicode="&#xdb;" glyph-name="Ucircumflex" horiz-adv-x="727" d="M116 251V721H162V255Q162 141 216 82T363 22Q458 22 512 82T566 255V721H613V251Q613 123 549 53T363 -18Q245 -18 181 51T116 251ZM186 809L344 966H388L547 809H495L366 935L239 809H186Z" />
<glyph unicode="&#xdc;" glyph-name="Udieresis" horiz-adv-x="727" d="M116 251V721H162V255Q162 141 216 82T363 22Q458 22 512 82T566 255V721H613V251Q613 123 549 53T363 -18Q245 -18 181 51T116 251ZM228 850V929H310V850H228ZM425 850V929H506V850H425Z" />
<glyph unicode="&#xdd;" glyph-name="Yacute" horiz-adv-x="557" d="M-3 721H54L212 455Q221 440 244 400T278 341H280Q306 385 347 455L504 721H561L303 297V0H257V297L-3 721ZM472 809L584 979H653L516 809H472Z" />
<glyph unicode="&#xde;" glyph-name="Thorn" horiz-adv-x="606" d="M117 0V722H163V592H312Q436 592 497 534T558 372Q558 258 487 204T295 149H163V0H117ZM163 188H290Q511 188 511 371Q511 552 306 552H163V188Z" />
<glyph unicode="&#xdf;" glyph-name="germandbls" horiz-adv-x="654" d="M117 0V555Q117 643 176 691T326 740Q417 740 476 688T535 549Q535 484 509 441T445 378V376Q471 370 495 357T544 321T584 261T599 177Q599 94 545 38T396 -18Q318 -18 248 4L255 45Q319
22 395 22Q460 22 505 65T551 177Q551 263 498 307T371 351H311V390H365Q419 390 453 434T487 545Q487 612 444 655T326 699Q252 699 208 660T163 551V0H117Z" />
<glyph unicode="&#xe0;" glyph-name="agrave" horiz-adv-x="549" d="M94 122Q94 80 129 50T229 20Q307 20 364 70T421 200V292Q372 275 263 258Q94 231 94 122ZM48 120Q48 189 98 232T262 293T421 329V356Q421 416 381 454T267 493Q219 493 175 471T101 409L70
432Q102 475 154 502T266 530Q368 530 417 479T466 344V0H422V102Q404 54 350 18T225 -18Q143 -18 96 21T48 120ZM153 786H222L334 616H290L153 786Z" />
<glyph unicode="&#xe1;" glyph-name="aacute" horiz-adv-x="549" d="M94 122Q94 80 129 50T229 20Q307 20 364 70T421 200V292Q372 275 263 258Q94 231 94 122ZM48 120Q48 189 98 232T262 293T421 329V356Q421 416 381 454T267 493Q219 493 175 471T101 409L70
432Q102 475 154 502T266 530Q368 530 417 479T466 344V0H422V102Q404 54 350 18T225 -18Q143 -18 96 21T48 120ZM196 618L308 788H377L240 618H196Z" />
<glyph unicode="&#xe2;" glyph-name="acircumflex" horiz-adv-x="549" d="M94 122Q94 80 129 50T229 20Q307 20 364 70T421 200V292Q372 275 263 258Q94 231 94 122ZM48 120Q48 189 98 232T262 293T421 329V356Q421 416 381 454T267 493Q219 493 175 471T101 409L70
432Q102 475 154 502T266 530Q368 530 417 479T466 344V0H422V102Q404 54 350 18T225 -18Q143 -18 96 21T48 120ZM84 618L242 775H286L445 618H393L264 744L137 618H84Z" />
<glyph unicode="&#xe3;" glyph-name="atilde" horiz-adv-x="549" d="M94 122Q94 80 129 50T229 20Q307 20 364 70T421 200V292Q372 275 263 258Q94 231 94 122ZM48 120Q48 189 98 232T262 293T421 329V356Q421 416 381 454T267 493Q219 493 175 471T101 409L70
432Q102 475 154 502T266 530Q368 530 417 479T466 344V0H422V102Q404 54 350 18T225 -18Q143 -18 96 21T48 120ZM334 654Q347 687 376 713T449 740Q485 740 531 705T600 670Q652 670 682 737L714 719Q674 634 602 634Q565 634 520 669T449 704Q394 704 366 636L334
654Z" />
<glyph unicode="&#xe4;" glyph-name="adieresis" horiz-adv-x="549" d="M94 122Q94 80 129 50T229 20Q307 20 364 70T421 200V292Q372 275 263 258Q94 231 94 122ZM48 120Q48 189 98 232T262 293T421 329V356Q421 416 381 454T267 493Q219 493 175 471T101 409L70
432Q102 475 154 502T266 530Q368 530 417 479T466 344V0H422V102Q404 54 350 18T225 -18Q143 -18 96 21T48 120ZM126 656V735H208V656H126ZM323 656V735H404V656H323Z" />
<glyph unicode="&#xe5;" glyph-name="aring" horiz-adv-x="549" d="M94 122Q94 80 129 50T229 20Q307 20 364 70T421 200V292Q372 275 263 258Q94 231 94 122ZM48 120Q48 189 98 232T262 293T421 329V356Q421 416 381 454T267 493Q219 493 175 471T101 409L70
432Q102 475 154 502T266 530Q368 530 417 479T466 344V0H422V102Q404 54 350 18T225 -18Q143 -18 96 21T48 120ZM395 976Q395 1025 431 1061T521 1097Q575 1097 610 1062T646 976Q646 927 611 892T521 856Q468 856 432 891T395 976ZM432 976Q432 939 457 914T521
889Q560 889 584 913T609 976Q609 1013 585 1038T521 1063Q481 1063 457 1038T432 976Z" />
<glyph unicode="&#xe6;" glyph-name="ae" horiz-adv-x="911" d="M48 120Q48 188 98 232T262 293Q381 311 421 329Q421 334 421 343T420 356Q420 415 381 454T269 493Q166 493 100 409L69 432Q101 475 153 502T269 530Q349 530 395 493T453 397Q478 458 528 494T644
530Q742 530 802 455T862 273V242H466V218Q473 135 520 78T646 20Q703 20 744 47T809 116L848 102Q785 -18 645 -18Q571 -18 520 23T444 135Q423 69 365 26T225 -18Q144 -18 96 20T48 120ZM94 123Q94 81 129 51T228 20Q306 20 363 70T420 200V292Q369 273 264 258Q176
245 135 212T94 123ZM466 278H817Q817 366 769 429T644 492Q569 492 522 435T467 297L466 278Z" />
<glyph unicode="&#xe7;" glyph-name="ccedilla" horiz-adv-x="493" d="M52 257Q52 377 111 453T275 530Q338 530 385 496T450 410L410 398Q393 439 357 465T275 492Q196 492 147 426T98 257Q98 151 148 86T275 20Q324 20 364 49T425 120L464 106Q441 54 391 18T275
-18Q176 -18 114 57T52 257ZM415 79Q466 62 509 62Q542 62 569 77T597 117Q597 173 480 171L501 256H544L528 195Q580 194 608 173T636 116Q636 79 602 55T509 30Q459 30 415 46V79Z" />
<glyph unicode="&#xe8;" glyph-name="egrave" horiz-adv-x="547" d="M52 260Q52 379 113 454T277 530Q380 530 439 456T498 273Q498 267 498 258T497 243H98Q98 152 146 86T280 20Q334 20 378 47T446 117L485 103Q458 49 406 16T280 -18Q175 -18 114 59T52 260ZM99
278H452Q452 366 404 429T277 492Q195 492 148 428T99 278ZM159 788H228L340 618H296L159 788Z" />
<glyph unicode="&#xe9;" glyph-name="eacute" horiz-adv-x="547" d="M52 260Q52 379 113 454T277 530Q380 530 439 456T498 273Q498 267 498 258T497 243H98Q98 152 146 86T280 20Q334 20 378 47T446 117L485 103Q458 49 406 16T280 -18Q175 -18 114 59T52 260ZM99
278H452Q452 366 404 429T277 492Q195 492 148 428T99 278ZM201 618L313 788H382L245 618H201Z" />
<glyph unicode="&#xea;" glyph-name="ecircumflex" horiz-adv-x="547" d="M52 260Q52 379 113 454T277 530Q380 530 439 456T498 273Q498 267 498 258T497 243H98Q98 152 146 86T280 20Q334 20 378 47T446 117L485 103Q458 49 406 16T280 -18Q175 -18 114 59T52
260ZM99 278H452Q452 366 404 429T277 492Q195 492 148 428T99 278ZM97 618L255 775H299L458 618H406L277 744L150 618H97Z" />
<glyph unicode="&#xeb;" glyph-name="edieresis" horiz-adv-x="547" d="M137 656V735H219V656H137ZM334 656V735H415V656H334ZM52 260Q52 379 113 454T277 530Q380 530 439 456T498 273Q498 267 498 258T497 243H98Q98 152 146 86T280 20Q334 20 378 47T446 117L485
103Q458 49 406 16T280 -18Q175 -18 114 59T52 260ZM99 278H452Q452 366 404 429T277 492Q195 492 148 428T99 278Z" />
<glyph unicode="&#xec;" glyph-name="igrave" horiz-adv-x="234" d="M94 0V513H140V0H94ZM-12 788H57L169 618H125L-12 788Z" />
<glyph unicode="&#xed;" glyph-name="iacute" horiz-adv-x="234" d="M94 0V513H140V0H94ZM65 618L177 788H246L109 618H65Z" />
<glyph unicode="&#xee;" glyph-name="icircumflex" horiz-adv-x="234" d="M-64 618L94 775H138L297 618H245L116 744L-11 618H-64ZM94 0V513H140V0H94Z" />
<glyph unicode="&#xef;" glyph-name="idieresis" horiz-adv-x="234" d="M-23 656V735H59V656H-23ZM174 656V735H255V656H174ZM94 0V513H140V0H94Z" />
<glyph unicode="&#xf0;" glyph-name="eth" horiz-adv-x="554" d="M165 567L435 763L460 733L192 538L165 567ZM52 236Q52 353 114 420T277 488Q342 488 385 458T448 381Q404 678 163 714L177 750Q336 725 418 605T500 250Q500 133 443 58T277 -18Q170 -18 111
55T52 236ZM98 238Q98 142 146 81T278 20Q358 20 405 79T452 240Q452 335 405 392T279 450Q200 450 149 395T98 238Z" />
<glyph unicode="&#xf1;" glyph-name="ntilde" horiz-adv-x="564" d="M87 654Q100 687 129 713T202 740Q238 740 284 705T353 670Q405 670 435 737L467 719Q427 634 355 634Q318 634 273 669T202 704Q147 704 119 636L87 654ZM91 0V513H135V407H136Q145 448 194
489T315 530Q345 530 371 522T423 493T464 432T479 332V0H433V323Q433 492 306 492Q240 492 188 439T136 312V0H91Z" />
<glyph unicode="&#xf2;" glyph-name="ograve" horiz-adv-x="553" d="M98 257Q98 152 147 86T277 20Q356 20 406 86T456 257Q456 363 405 427T277 492Q200 492 149 428T98 257ZM52 257Q52 376 112 453T277 530Q380 530 441 453T502 257Q502 204 488 156T448 69T377
6T277 -18Q168 -18 110 63T52 257ZM156 788H225L337 618H293L156 788Z" />
<glyph unicode="&#xf3;" glyph-name="oacute" horiz-adv-x="553" d="M98 257Q98 152 147 86T277 20Q356 20 406 86T456 257Q456 363 405 427T277 492Q200 492 149 428T98 257ZM52 257Q52 376 112 453T277 530Q380 530 441 453T502 257Q502 204 488 156T448 69T377
6T277 -18Q168 -18 110 63T52 257ZM217 618L329 788H398L261 618H217Z" />
<glyph unicode="&#xf4;" glyph-name="ocircumflex" horiz-adv-x="553" d="M97 618L255 775H299L458 618H406L277 744L150 618H97ZM98 257Q98 152 147 86T277 20Q356 20 406 86T456 257Q456 363 405 427T277 492Q200 492 149 428T98 257ZM52 257Q52 376 112 453T277
530Q380 530 441 453T502 257Q502 204 488 156T448 69T377 6T277 -18Q168 -18 110 63T52 257Z" />
<glyph unicode="&#xf5;" glyph-name="otilde" horiz-adv-x="553" d="M336 654Q349 687 378 713T451 740Q487 740 533 705T602 670Q654 670 684 737L716 719Q676 634 604 634Q567 634 522 669T451 704Q396 704 368 636L336 654ZM98 257Q98 152 147 86T277 20Q356
20 406 86T456 257Q456 363 405 427T277 492Q200 492 149 428T98 257ZM52 257Q52 376 112 453T277 530Q380 530 441 453T502 257Q502 204 488 156T448 69T377 6T277 -18Q168 -18 110 63T52 257Z" />
<glyph unicode="&#xf6;" glyph-name="odieresis" horiz-adv-x="553" d="M136 656V735H218V656H136ZM333 656V735H414V656H333ZM98 257Q98 152 147 86T277 20Q356 20 406 86T456 257Q456 363 405 427T277 492Q200 492 149 428T98 257ZM52 257Q52 376 112 453T277
530Q380 530 441 453T502 257Q502 204 488 156T448 69T377 6T277 -18Q168 -18 110 63T52 257Z" />
<glyph unicode="&#xf7;" glyph-name="divide" horiz-adv-x="551" d="M232 493V577H320V493H232ZM32 336V376H519V336H32ZM232 136V220H320V136H232Z" />
<glyph unicode="&#xf8;" glyph-name="oslash" horiz-adv-x="553" d="M52 256Q52 375 112 452T277 530Q342 530 389 500L425 571H464L417 477Q502 400 502 256Q502 184 479 124T403 23T277 -18Q220 -18 176 6L142 -63H102L146 26Q100 62 76 123T52 256ZM396 437L195
42Q230 20 277 20Q356 20 406 86T456 256Q456 371 396 437ZM370 462Q329 492 277 492Q200 492 149 428T98 256Q98 133 167 66L370 462Z" />
<glyph unicode="&#xf9;" glyph-name="ugrave" horiz-adv-x="560" d="M85 176V513H130V191Q130 20 261 20Q341 20 383 78T425 218V513H469V0H426V101Q417 59 373 21T251 -18Q173 -18 129 34T85 176ZM156 788H225L337 618H293L156 788Z" />
<glyph unicode="&#xfa;" glyph-name="uacute" horiz-adv-x="560" d="M85 176V513H130V191Q130 20 261 20Q341 20 383 78T425 218V513H469V0H426V101Q417 59 373 21T251 -18Q173 -18 129 34T85 176ZM220 618L332 788H401L264 618H220Z" />
<glyph unicode="&#xfb;" glyph-name="ucircumflex" horiz-adv-x="560" d="M85 176V513H130V191Q130 20 261 20Q341 20 383 78T425 218V513H469V0H426V101Q417 59 373 21T251 -18Q173 -18 129 34T85 176ZM111 618L269 775H313L472 618H420L291 744L164 618H111Z" />
<glyph unicode="&#xfc;" glyph-name="udieresis" horiz-adv-x="560" d="M146 656V735H228V656H146ZM343 656V735H424V656H343ZM85 176V513H130V191Q130 20 261 20Q341 20 383 78T425 218V513H469V0H426V101Q417 59 373 21T251 -18Q173 -18 129 34T85 176Z" />
<glyph unicode="&#xfd;" glyph-name="yacute" horiz-adv-x="466" d="M11 513H64L190 164Q198 140 213 97T234 36H237Q277 151 282 166L403 513H455L230 -99Q203 -173 170 -204T90 -235H65V-197H83Q153 -197 191 -87L213 -20L11 513ZM159 618L271 788H340L203 618H159Z" />
<glyph unicode="&#xfe;" glyph-name="thorn" horiz-adv-x="577" d="M141 258Q142 151 189 86T307 20Q384 20 432 83T480 257Q480 362 435 427T308 492Q239 492 190 427T141 258ZM97 -235V751H142V394Q160 454 208 492T312 530Q410 530 467 457T525 257Q525 124
464 53T311 -18Q250 -18 206 20T142 115V-235H97Z" />
<glyph unicode="&#xff;" glyph-name="ydieresis" horiz-adv-x="466" d="M89 656V735H171V656H89ZM286 656V735H367V656H286ZM11 513H64L190 164Q198 140 213 97T234 36H237Q277 151 282 166L403 513H455L230 -99Q203 -173 170 -204T90 -235H65V-197H83Q153 -197
191 -87L213 -20L11 513Z" />
<glyph unicode="&#x2013;" glyph-name="endash" horiz-adv-x="523" d="M49 327V365H474V327H49Z" />
<glyph unicode="&#x2014;" glyph-name="emdash" horiz-adv-x="964" d="M0 327V365H965V327H0Z" />
<glyph unicode="&#x2018;" glyph-name="quoteleft" horiz-adv-x="339" d="M122 552V620Q122 697 140 753T209 854L236 830Q199 791 185 749T171 643H225V552H122Z" />
<glyph unicode="&#x2019;" glyph-name="quoteright" horiz-adv-x="339" d="M115 719V809H218V742Q218 664 199 608T131 507L103 531Q140 570 154 613T169 719H115Z" />
<glyph unicode="&#x201a;" glyph-name="quotesinglbase" horiz-adv-x="339" d="M115 3V94H218V26Q218 -51 200 -107T131 -208L103 -185Q140 -146 154 -103T169 3H115Z" />
<glyph unicode="&#x201c;" glyph-name="quotedblleft" horiz-adv-x="474" d="M290 552V617Q290 695 309 752T377 854L405 831Q368 792 354 749T340 642H393V552H290ZM83 552V617Q83 782 170 862L197 838Q132 771 132 642H186V552H83Z" />
<glyph unicode="&#x201d;" glyph-name="quotedblright" horiz-adv-x="474" d="M71 530Q108 569 122 612T136 719H81V809H185V743Q185 665 166 608T98 506L71 530ZM278 523Q316 562 329 608T343 719H289V809H393V743Q393 579 305 499L278 523Z" />
<glyph unicode="&#x201e;" glyph-name="quotedblbase" horiz-adv-x="474" d="M71 -186Q108 -147 122 -103T136 4H81V94H185V28Q185 -50 166 -106T98 -208L71 -186ZM278 -193Q316 -154 329 -108T343 4H289V94H392V28Q392 -136 305 -216L278 -193Z" />
<glyph unicode="&#x2022;" glyph-name="bullet" horiz-adv-x="507" d="M149 242V448H359V242H149Z" />
<glyph unicode="&#x2039;" glyph-name="guilsinglleft" horiz-adv-x="355" d="M86 243L247 466L281 443L138 244L281 46L247 22L86 243Z" />
<glyph unicode="&#x203a;" glyph-name="guilsinglright" horiz-adv-x="355" d="M75 45L218 244L75 443L109 466L270 244L109 22L75 45Z" />
</font>
</defs>
</svg>
