<?xml version="1.0" standalone="no"?>
<!DOCTYPE svg PUBLIC "-//W3C//DTD SVG 1.1//EN" "http://www.w3.org/Graphics/SVG/1.1/DTD/svg11.dtd">
<svg xmlns="http://www.w3.org/2000/svg">
<defs >
<font id="CrimsonText" horiz-adv-x="545" ><font-face
    font-family="Crimson Text"
    units-per-em="1024"
    panose-1="2 0 5 3 0 0 0 0 0 0"
    ascent="1026"
    descent="-297"
    alphabetic="0" />
<glyph unicode=" " glyph-name="space" horiz-adv-x="229" />
<glyph unicode="!" glyph-name="exclam" horiz-adv-x="280" d="M142 642Q164 642 175 624T187 579Q187 569 183 526T171 389T156 181Q155 166 151 161T132 148Q127 146 124 153T119 170Q111 300 104 395T93 524T90 579Q90 604 104 623T142 642ZM82 21T82 45T99
85T140 102T180 86T197 45T181 4T140 -14T99 3Z" />
<glyph unicode="&quot;" glyph-name="quotedbl" horiz-adv-x="348" d="M97 698H111Q126 698 133 686T141 633Q141 603 127 541T110 449Q108 434 94 434Q78 434 76 447Q71 494 57 555T42 635Q42 650 60 674T97 698ZM260 698H275Q289 698 296 686T304 633Q304 603
289 542T271 449Q270 434 255 434Q242 434 240 447Q235 494 221 555T206 635Q206 651 224 674T260 698Z" />
<glyph unicode="#" glyph-name="numbersign" horiz-adv-x="476" d="M301 24Q301 24 298 20Q292 15 271 15H258Q252 15 249 17T245 22V24L267 175H173L151 24Q151 23 150 22Q149 21 149 20T147 19T143 18T137 17T130 16T120 15H107Q101 15 98 17T94 22L93 24L116
175H30Q24 175 24 185Q24 199 32 226Q33 229 34 230T38 231H39H125L137 317H30Q24 318 24 328Q24 342 32 369Q33 372 34 373T38 374H39H146L170 530Q179 539 217 539Q223 539 225 537T228 532L227 530L204 374H298L322 530Q331 539 369 539Q375 539 377 537T380
532L379 530L355 374H437Q438 374 439 374T442 373T444 367Q444 353 435 324L429 317H346L333 231H437Q438 231 439 231T442 230T444 224Q444 210 435 181Q434 178 433 177T430 175H429H325L301 24ZM277 231L289 317H195L182 231H277Z" />
<glyph unicode="$" glyph-name="dollar" horiz-adv-x="491" d="M284 683Q319 683 319 676L199 -52Q164 -52 164 -43L284 683ZM245 644Q268 644 297 640T355 629T390 621Q401 531 401 484Q401 476 394 476Q369 478 368 487Q363 522 329 562T240 602Q131 602 131
505Q131 459 160 430T252 366Q257 363 284 348T319 328T350 308T382 285T406 262T428 234T439 205T445 170Q445 93 384 43T241 -8Q201 -8 73 15Q49 79 45 166Q45 174 63 174Q77 174 85 166Q121 31 243 31Q292 31 327 60T362 141Q362 162 355 180T341 208T316 232T291
249T262 264Q256 267 253 269Q151 322 103 365T55 473Q55 546 112 595T245 644Z" />
<glyph unicode="%" glyph-name="percent" horiz-adv-x="680" d="M195 621Q154 621 134 584T113 496Q113 442 141 396T205 350Q245 350 262 387T280 476Q280 531 257 576T195 621ZM199 645Q263 645 304 598T346 484Q346 421 305 373T199 325Q137 325 93 371T49
484Q49 552 91 598T199 645ZM484 289Q443 289 422 252T401 164Q401 111 429 65T494 18Q534 18 551 55T568 144Q568 199 545 244T484 289ZM488 313Q552 313 593 266T634 152Q634 88 594 41T487 -7Q425 -7 381 39T337 152Q337 220 379 266T488 313ZM607 624L124 0Q114
-12 91 -12Q78 -12 73 -1L555 624Q565 636 575 636Q586 636 591 635T598 634T602 630T607 624Z" />
<glyph unicode="&amp;" glyph-name="ampersand" horiz-adv-x="671" d="M407 95Q378 124 337 179T270 274L243 314Q207 289 190 276T157 234T140 172Q140 106 181 73T282 40Q313 40 348 55T407 95ZM314 620Q281 620 258 599T235 543Q235 479 287 385Q339 415 362
445T386 530Q386 566 366 593T314 620ZM309 656Q376 656 415 627T454 544Q454 483 415 440T305 353Q363 255 453 154Q478 192 494 227T510 271T501 283T479 287T465 289Q463 293 463 301T466 312H545Q560 312 576 313T615 315T655 317Q660 314 660 304Q660 289
654 289Q641 289 617 283T585 272Q584 271 571 250T533 191T481 123Q504 99 513 90T537 68T561 50T579 45Q593 45 609 62T631 91Q639 91 646 85T654 73Q650 65 645 57T628 34T594 10T545 0Q519 0 490 18T446 54L430 72Q344 -3 248 -3Q159 -3 107 40T54 158Q54 223
98 266T220 350Q201 382 192 401T172 454T162 519Q162 576 204 616T309 656Z" />
<glyph unicode="&apos;" glyph-name="quotesingle" horiz-adv-x="186" d="M96 698H111Q126 698 133 686T141 633Q141 603 126 542T107 449Q106 434 91 434Q78 434 76 447Q71 494 57 555T42 635Q42 651 60 674T96 698Z" />
<glyph unicode="(" glyph-name="parenleft" horiz-adv-x="323" d="M136 305Q136 164 186 44T275 -95Q277 -96 277 -100Q277 -106 273 -113T263 -121Q242 -121 210 -87T147 1T93 138T71 305Q71 394 91 479T141 621T204 713T263 748Q268 748 272 739T276 724Q276
721 275 721Q225 697 181 574T136 305Z" />
<glyph unicode=")" glyph-name="parenright" horiz-adv-x="322" d="M186 305Q186 450 142 573T47 721Q46 721 46 724Q46 730 50 739T59 748Q85 748 118 713T180 621T230 479T251 305Q251 221 229 139T176 2T112 -87T59 -121Q54 -121 50 -114T45 -100Q45 -96 47
-95Q85 -76 135 44T186 305Z" />
<glyph unicode="*" glyph-name="asterisk" horiz-adv-x="444" d="M307 613Q320 628 335 632T363 625Q375 613 373 598T357 569Q339 553 307 536T260 505L255 491Q256 484 265 481Q281 473 315 467T372 451Q390 443 399 430T401 402Q394 387 378 384T346 390Q324
402 298 427T255 462L241 465Q237 463 235 452Q233 434 237 400T239 341Q237 321 227 309T201 299Q185 301 177 314T173 347Q178 372 194 405T214 457Q215 466 211 470Q207 475 198 473Q181 469 150 454T93 434Q74 430 59 436T41 457Q38 473 49 485T79 499Q104
502 140 497T195 494Q204 497 206 502Q209 508 204 516Q195 531 172 556T135 604Q113 644 141 660Q173 676 192 637Q202 614 208 578T223 525Q228 515 233 514Q239 513 246 520Q258 533 274 563T307 613Z" />
<glyph unicode="+" glyph-name="plus" horiz-adv-x="582" d="M319 215V23Q319 13 274 7Q272 7 271 7T268 6Q263 6 263 14V213Q263 218 257 218H58Q52 218 52 228Q52 242 60 269Q61 272 62 273T66 274H67H258Q263 274 263 280V470Q262 475 268 477Q295 485 309
485L319 479V279Q319 274 323 274H523Q531 274 531 269Q531 261 521 224Q520 221 519 220T516 218H514H323Q319 218 319 215Z" />
<glyph unicode="," glyph-name="comma" horiz-adv-x="239" d="M118 -14Q118 4 103 35T88 76Q88 98 110 113T160 129Q173 129 184 125Q197 106 197 61Q197 42 195 35Q181 -30 156 -70T68 -163H67Q63 -163 54 -155T44 -141Q44 -139 55 -129T81 -104T106 -65T118 -14Z" />
<glyph unicode="-" glyph-name="hyphen" horiz-adv-x="375" d="M58 210Q58 261 70 261H71L312 273H313Q319 273 319 264Q319 242 316 229T309 212L306 210L65 199Q64 199 63 199T60 202T58 210Z" />
<glyph unicode="." glyph-name="period" horiz-adv-x="233" d="M59 21T59 45T76 85T118 102T158 86T175 45T159 4T118 -14T77 3Z" />
<glyph unicode="/" glyph-name="slash" horiz-adv-x="424" d="M391 755L95 -12Q93 -19 80 -27T43 -35Q36 -35 32 -34T26 -30L25 -28L321 739Q331 761 370 761Q379 761 391 755Z" />
<glyph unicode="0" glyph-name="zero" horiz-adv-x="484" d="M112 320Q112 200 147 118T237 35Q301 35 336 118T372 325Q372 444 337 523T247 603Q186 603 149 522T112 320ZM24 319Q24 455 83 548T242 641Q343 641 401 549T460 319Q460 183 401 90T242 -3Q143
-3 84 90T24 319Z" />
<glyph unicode="1" glyph-name="one" horiz-adv-x="484" d="M131 496Q125 499 119 507T113 521Q113 525 115 527Q284 642 288 642H290Q298 642 302 623Q292 590 292 529V135Q292 77 300 46Q302 39 329 33T367 26Q371 26 371 8Q371 -1 370 -3Q270 2 249 2Q233 2
133 -3Q129 1 129 13T133 26Q146 26 173 32T203 46Q209 70 209 103V463Q209 492 207 507T203 525T195 529Q189 529 178 523T151 508T131 496Z" />
<glyph unicode="2" glyph-name="two" horiz-adv-x="484" d="M256 642Q323 642 361 592T400 479Q400 442 388 403T349 322T301 251T241 180T189 125T142 79Q139 74 144 72H337Q365 72 377 88T403 149Q407 160 417 160Q430 160 435 156Q411 36 408 16Q406 0 388
0H60Q56 0 53 11T49 30Q158 140 236 258T314 459Q314 513 287 542T216 572Q133 572 83 489Q77 489 71 495T64 505Q67 517 80 537T116 582T176 624T256 642Z" />
<glyph unicode="3" glyph-name="three" horiz-adv-x="485" d="M250 642Q293 642 332 607T372 514Q372 470 351 440T289 379Q342 360 385 316T429 206Q429 111 362 53T196 -5Q111 -5 66 25Q56 32 56 54Q56 101 93 101Q102 101 111 94T132 74T152 56Q181 35 228
35Q272 35 307 69T343 180Q343 239 305 280T216 321Q179 321 151 314Q144 323 144 340Q144 347 146 350Q215 362 256 398T297 496Q297 530 271 556T210 583Q188 583 170 576T142 560T123 543T113 532Q109 532 105 541T101 558Q128 598 162 620T250 642Z" />
<glyph unicode="4" glyph-name="four" horiz-adv-x="482" d="M359 645Q372 645 372 635V232H434Q450 232 450 184Q450 178 444 174Q444 174 372 174V-1Q369 -6 330 -6Q293 -6 293 2V174H40Q33 183 33 205L336 633Q345 645 359 645ZM293 232V498Q293 507 288 507Q288
506 287 505L105 244Q104 243 104 241Q104 232 111 232H293Z" />
<glyph unicode="5" glyph-name="five" horiz-adv-x="485" d="M139 623Q336 629 374 637Q379 630 379 616Q379 591 373 561Q347 553 260 550L173 546Q168 545 166 538Q155 483 137 378Q170 391 231 391Q311 391 369 336T428 206Q428 114 364 55T201 -5Q112 -5 67
25Q57 32 57 54Q57 101 94 101Q103 101 112 94T133 74T153 56Q182 35 233 35Q275 35 308 70T342 180Q342 206 335 229T313 274T267 310T196 323Q144 323 109 312Q101 316 91 326L139 623Z" />
<glyph unicode="6" glyph-name="six" horiz-adv-x="484" d="M130 210Q130 140 163 87T247 33Q291 33 324 71T357 174Q357 242 325 286T229 330Q202 330 177 316T145 285Q131 253 130 210ZM235 -6Q152 -6 98 58T44 208Q44 286 75 358T158 484T271 579T400 647Q406
647 414 636T423 620Q322 576 252 514T154 352Q152 342 155 342Q157 343 158 344Q172 355 208 368T275 381Q345 381 392 323T440 195Q440 112 378 53T235 -6Z" />
<glyph unicode="7" glyph-name="seven" horiz-adv-x="483" d="M133 553Q116 553 103 539T83 511T70 474Q69 470 56 469T36 471Q38 480 50 537T67 621Q68 633 83 633H372Q388 633 413 634T439 636Q446 636 446 627Q446 621 442 612T430 585T417 560L154 -3Q151
-6 143 -6Q132 -6 120 4T108 22L374 553H133Z" />
<glyph unicode="8" glyph-name="eight" horiz-adv-x="484" d="M241 27Q291 27 320 57T349 138Q349 167 332 195T289 246T249 278T221 295Q217 297 215 297Q212 297 211 296Q169 270 151 238T132 157Q132 99 165 63T241 27ZM241 608Q204 608 180 576T155 492Q155
424 259 364Q263 362 265 362Q268 362 271 364Q339 409 339 486Q339 533 312 570T241 608ZM247 643Q316 643 363 602T411 491Q411 415 299 344Q292 342 299 338Q351 308 390 263T430 167Q430 93 373 42T239 -9Q156 -9 105 36T53 154Q53 167 56 179T62 202T74 223T87
242T104 260T120 274T138 288T154 299T170 310L183 318Q188 321 183 324Q144 347 113 388T81 480Q81 544 131 593T247 643Z" />
<glyph unicode="9" glyph-name="nine" horiz-adv-x="484" d="M353 431Q353 502 320 555T233 608Q190 608 159 568T128 463T161 355T255 311Q282 311 307 325T339 356Q352 386 353 431ZM249 647Q331 647 385 583T439 433Q439 355 407 281T325 151T218 55T105 -6Q99
-6 91 6T83 23Q160 53 231 121T329 289Q331 299 328 299Q326 298 325 297Q314 284 279 273T217 262Q145 262 95 316T45 445Q45 528 106 587T249 647Z" />
<glyph unicode=":" glyph-name="colon" horiz-adv-x="236" d="M179 396T179 371T162 328T120 310T78 328T60 371T77 413T120 430T162 413ZM179 71T179 46T162 4T120 -14T78 3T60 46T77 88T120 106T162 89Z" />
<glyph unicode=";" glyph-name="semicolon" horiz-adv-x="244" d="M196 39Q196 -3 186 -33Q175 -66 150 -94T73 -165Q69 -167 66 -167Q59 -167 52 -156T45 -140Q45 -138 63 -123T100 -79T118 -14Q118 15 105 39T91 68Q91 88 112 106T161 124Q170 124 179 117Q196
101 196 39ZM82 346T82 371T100 413T143 430T185 413T202 371T185 328T143 310T100 328Z" />
<glyph unicode="&lt;" glyph-name="less" horiz-adv-x="535" d="M475 35Q475 28 469 7T459 -15Q458 -15 454 -13L79 177Q61 187 61 217Q61 232 79 241L448 428Q452 430 453 430Q461 430 470 383L467 374L141 209L472 41Q475 40 475 35Z" />
<glyph unicode="=" glyph-name="equal" horiz-adv-x="571" d="M520 168Q520 160 510 123Q509 120 508 119T505 117H504H59Q52 117 52 127T61 168Q62 171 63 172T66 173H68H512Q520 173 520 168ZM52 269Q57 315 67 315H516Q520 315 520 310Q520 302 510 265Q509
262 508 261T505 259H504H59Q52 259 52 269Z" />
<glyph unicode="&gt;" glyph-name="greater" horiz-adv-x="535" d="M67 382Q67 395 73 412T83 430Q84 430 88 428L458 241Q475 232 475 217Q475 186 458 177L83 -13Q79 -15 78 -15Q74 -15 68 6T61 35L64 41L395 209L70 374Q67 375 67 382Z" />
<glyph unicode="?" glyph-name="question" horiz-adv-x="366" d="M112 558Q96 558 81 567T65 598Q65 621 72 632Q92 642 122 642Q182 642 250 589T319 457Q319 405 297 371T218 304Q197 292 171 271T140 242Q130 224 130 173Q130 160 110 160Q97 160 97 168Q97
181 97 214T96 262Q96 274 97 284T103 304T109 321T120 336T130 348T143 359T156 368T169 377T182 385Q207 401 217 408T243 427T263 451T269 476Q269 519 245 542T188 565Q158 565 140 562T112 558ZM59 21T59 45T76 85T117 102T158 86T175 45T158 4T117 -14T76
3Z" />
<glyph unicode="@" glyph-name="at" horiz-adv-x="819" d="M730 214Q730 343 651 435T446 528Q308 528 210 441T111 223Q111 66 200 -30T469 -126Q477 -126 486 -124T505 -119T521 -112T534 -106L540 -104Q542 -113 542 -114Q542 -134 508 -152T414 -171Q336 -171
267 -138T152 -54T79 61T52 185Q52 365 168 471T457 577Q529 577 591 546T693 464T756 354T779 233Q779 164 762 114T717 37T659 -1T597 -13Q549 -13 517 22T485 92Q485 93 483 92T480 90Q464 63 417 28T335 -7Q283 -7 255 38T226 141Q226 248 300 329T501 410L590
401L583 348L558 125Q556 105 556 97Q556 27 606 27Q641 27 667 48T706 101T724 161T730 214ZM506 334Q506 342 504 346T490 355T455 359Q391 359 348 302T304 143Q304 96 322 75T363 53Q402 53 445 99T490 170L505 322Q506 328 506 334Z" />
<glyph unicode="A" glyph-name="A" horiz-adv-x="684" d="M365 660L565 132Q583 85 594 60Q600 45 625 36T662 26Q666 26 666 7Q666 3 664 -3Q564 2 554 2Q553 2 438 -3Q434 1 434 13T439 26Q451 26 469 31T490 44Q492 52 492 60Q492 73 489 90T482 118L478 129L437
242Q434 246 431 246Q392 249 355 249Q303 249 228 244L223 241L180 131Q163 81 163 62Q163 48 171 42Q180 35 200 31T229 26Q232 26 232 14T231 -3Q131 2 128 2Q108 2 93 1T60 -1T24 -3Q20 1 20 12Q20 26 24 26Q36 26 55 31T81 45Q102 72 128 139L302 586Q304
591 307 602T313 618T319 632T326 645T333 654T343 661T356 663L365 660ZM249 299Q301 297 320 297Q364 297 411 300L414 305L333 526L247 303Q247 299 249 299Z" />
<glyph unicode="B" glyph-name="B" horiz-adv-x="592" d="M457 176Q457 240 414 285T279 331Q257 331 207 327Q203 315 203 294V148Q203 72 219 59Q234 45 273 45Q298 45 322 49T381 64T436 104T457 176ZM116 143V521Q116 580 109 607Q106 615 80 622T40 629Q36
629 36 641Q36 654 40 658Q92 656 159 656Q210 656 242 656T300 657Q326 657 353 653T408 636T459 606T495 559T509 493T486 426T444 383T410 366Q402 363 405 360Q444 353 498 304T552 187Q552 101 483 51T298 0H161L40 -3Q37 0 37 13T40 26Q53 26 78 33T109 49Q116
61 116 143ZM325 376Q366 380 393 404T421 470Q421 539 387 577T284 616Q238 616 213 609Q207 608 207 600L203 499V380Q203 373 269 373Q301 373 325 376Z" />
<glyph unicode="C" glyph-name="C" horiz-adv-x="656" d="M634 183Q634 172 620 107T600 38Q527 -6 361 -6Q229 -6 137 91T44 322Q44 464 139 565T372 667Q490 667 615 642Q613 508 613 498Q613 483 592 483Q582 483 579 488Q576 501 572 514T553 549T518 586T460
613T375 625Q277 625 208 539T139 343Q139 262 167 194T255 82T399 37Q498 37 552 95Q566 110 576 134T592 175T601 192Q607 192 615 190T629 186L634 183Z" />
<glyph unicode="D" glyph-name="D" horiz-adv-x="722" d="M157 656Q195 656 253 657T331 658Q494 658 585 562T676 336Q676 191 584 94T330 -3Q318 -3 259 -1T159 0L38 -3Q35 0 35 12Q35 26 38 26Q51 26 76 33T107 49Q114 61 114 143V521Q114 580 107 607Q104
615 78 622T38 629Q34 629 34 641Q34 654 38 658Q90 656 157 656ZM201 535V139Q201 97 216 63Q220 53 269 48T346 43Q576 43 576 340Q576 454 516 534T339 614H334Q226 614 214 598Q201 580 201 535Z" />
<glyph unicode="E" glyph-name="E" horiz-adv-x="571" d="M152 656Q197 656 308 660T475 664Q479 635 490 588T504 528Q499 523 486 523T472 530Q457 585 430 600T356 616H289Q203 616 201 603Q196 579 196 519V359Q196 353 239 353H292Q320 353 332 353T359 357T377
362T387 375T395 392T402 421Q403 428 417 428Q429 428 434 423V234Q430 230 418 230Q405 230 402 238Q395 265 390 278T383 294T374 301Q361 309 268 309Q196 309 196 300V145Q196 80 205 54Q208 44 273 44H321Q414 44 447 61Q462 69 480 96T510 162Q512 168 524
168Q543 168 549 162Q544 149 534 121T517 75T504 34T495 -4Q444 -4 334 -2T154 0L33 -3Q30 0 30 13T33 26Q46 26 71 33T102 49Q109 61 109 143V521Q109 580 102 607Q99 615 73 622T33 629Q29 629 29 641Q29 654 33 658Q85 656 152 656Z" />
<glyph unicode="F" glyph-name="F" horiz-adv-x="551" d="M163 656Q208 656 319 660T486 664Q490 635 501 588T515 528Q510 523 497 523T483 530Q468 585 441 600T367 616H300Q214 616 212 603Q207 579 207 519V356Q207 350 249 350H302Q369 350 384 359T410 414Q411
420 412 423Q413 430 427 430Q439 430 444 425V231Q440 227 428 227Q415 227 412 235Q405 262 400 275T393 291T384 298Q371 306 278 306Q207 306 207 297V139Q207 81 216 46Q218 39 244 33T280 26Q284 26 284 11Q284 3 282 -3Q182 2 166 2Q161 2 46 -3Q42 1 42
12Q42 26 46 26Q59 26 84 32T113 46Q120 73 120 136V521Q120 580 113 607Q110 615 84 622T44 629Q40 629 40 641Q40 654 44 658Q96 656 163 656Z" />
<glyph unicode="G" glyph-name="G" horiz-adv-x="715" d="M44 322Q44 464 139 565T372 667Q443 667 609 622Q613 508 613 498Q613 483 592 483Q582 483 579 488Q552 625 375 625Q275 625 208 540T141 335Q141 224 214 131T399 37Q487 37 529 59Q536 62 536 74L535
156V163Q535 228 527 249Q523 259 495 265T450 271Q446 271 446 283T450 300Q578 295 581 295Q589 295 689 300Q691 294 691 286Q691 271 687 271Q681 271 660 265T629 253Q619 246 619 186Q619 165 620 141T622 114Q622 96 629 79T636 59Q636 51 611 41Q609 40
592 34T569 25T547 18T519 10T489 4T452 -1T411 -4T361 -6Q229 -6 137 91T44 322Z" />
<glyph unicode="H" glyph-name="H" horiz-adv-x="707" d="M507 135V311Q507 311 505 315Q411 317 357 317Q203 317 203 312V139Q203 81 212 46Q214 39 240 33T276 26Q279 26 279 14T278 -3Q178 2 162 2Q157 2 42 -3Q38 1 38 12Q38 26 42 26Q55 26 80 32T109 46Q116
73 116 135V523Q116 585 109 612Q106 620 81 626T42 633Q38 633 38 646Q38 658 42 662Q55 661 95 659T162 656Q182 656 201 657T242 659T278 662Q280 658 280 646T276 633Q266 633 240 626T212 612Q203 577 203 519V370L205 367Q303 365 357 365Q415 365 505 367Q507
369 507 371V523Q507 585 500 612Q497 620 472 626T433 633Q429 633 429 645T433 662Q445 661 486 659T554 656Q573 656 592 657T632 659T668 662Q670 656 670 647Q670 633 666 633Q656 633 630 626T602 612Q594 581 594 519V139Q594 77 602 46Q604 39 630 33T666
26Q670 26 670 11Q670 3 668 -3Q568 2 554 2Q548 2 433 -3Q429 1 429 13T433 26Q446 26 471 32T500 46Q507 73 507 135Z" />
<glyph unicode="I" glyph-name="I" horiz-adv-x="318" d="M116 523Q116 585 109 612Q106 620 81 626T42 633Q38 633 38 646Q38 658 42 662Q157 657 162 657Q178 657 278 662Q280 656 280 647Q280 633 276 633Q266 633 240 626T212 612Q203 577 203 519V139Q203
81 212 46Q214 39 240 33T276 26Q280 26 280 11Q280 3 278 -3Q178 2 162 2Q157 2 42 -3Q38 1 38 12Q38 26 42 26Q55 26 80 32T109 46Q116 73 116 135V523Z" />
<glyph unicode="J" glyph-name="J" horiz-adv-x="322" d="M178 656Q198 656 217 657T258 659T294 662Q296 656 296 647Q296 633 292 633Q282 633 256 626T228 612Q219 577 219 519V85Q219 -41 149 -134T-31 -227Q-42 -227 -55 -223T-76 -215L-83 -211Q-95 -197
-95 -174Q-95 -152 -77 -138T-33 -124Q-15 -124 7 -145T43 -167Q57 -167 71 -153T100 -112T123 -36T132 77V523Q132 585 125 612Q122 620 97 626T58 633Q54 633 54 646Q54 658 58 662Q71 661 111 659T178 656Z" />
<glyph unicode="K" glyph-name="K" horiz-adv-x="693" d="M165 656Q185 656 204 657T245 659T281 662Q283 658 283 646T279 633Q269 633 243 626T215 612Q206 577 206 519V356L213 350H220Q252 350 278 379Q395 510 450 582Q474 611 474 620Q474 637 417 637Q413
637 413 646T415 662Q428 661 449 660T488 657T522 656Q547 656 579 658T623 662Q625 658 625 648T621 637Q560 630 529 595L328 361Q320 352 335 334L576 69Q592 52 618 41T658 28T682 26Q687 26 687 8Q687 1 685 -3Q585 2 561 2Q536 2 516 1T471 -1T426 -3Q422
1 422 13T426 26Q438 26 453 30T469 42Q469 74 242 307Q238 311 213 311Q206 311 206 303V139Q206 81 215 46Q217 39 243 33T279 26Q282 26 282 14T281 -3Q181 2 165 2Q160 2 45 -3Q41 1 41 12Q41 26 45 26Q58 26 83 32T112 46Q119 73 119 135V523Q119 585 112
612Q109 620 84 626T45 633Q41 633 41 646Q41 658 45 662Q58 661 98 659T165 656Z" />
<glyph unicode="L" glyph-name="L" horiz-adv-x="568" d="M161 656Q181 656 200 657T241 659T277 662Q279 656 279 647Q279 633 275 633Q265 633 239 626T211 612Q202 577 202 519V142Q202 89 211 54Q214 44 279 44H327Q420 44 453 61Q468 69 486 96T516 162Q518
168 530 168Q549 168 555 162Q550 149 540 121T523 75T510 34T501 -4Q449 -4 339 -1T160 2L39 -1Q36 2 36 15T39 28Q53 28 78 34T108 49Q115 61 115 143V521Q115 585 108 612Q105 620 80 626T41 633Q37 633 37 646Q37 658 41 662Q54 661 94 659T161 656Z" />
<glyph unicode="M" glyph-name="M" horiz-adv-x="910" d="M167 657Q204 657 259 662Q266 639 457 161Q458 159 461 159Q465 159 466 163Q564 393 622 542Q622 542 662 662Q726 658 745 658Q807 658 857 662Q860 653 860 647Q860 633 855 633H853Q842 633 824 627T797
613Q785 604 785 546Q785 530 794 140Q795 83 809 48Q813 39 839 33T876 26Q880 26 880 12Q880 3 878 -3Q778 2 759 2Q754 2 639 -3Q635 1 635 13Q635 26 639 26Q649 26 669 31T699 41Q711 48 711 84V137L699 489Q698 505 694 526T684 548Q682 548 679 541L470
41Q451 -2 433 -2Q430 -2 424 0L195 582Q193 486 189 362T182 158T179 75Q179 57 185 49T221 34T262 26Q266 26 266 11Q266 3 264 -3Q164 2 148 2Q146 2 31 -3Q26 2 26 12Q26 26 31 26Q45 26 72 32T109 48Q125 66 127 135Q129 239 131 340T136 498T138 572Q138
597 134 612Q131 620 100 626T55 633Q51 633 51 647Q51 658 55 662Q72 661 92 660T130 658T167 657Z" />
<glyph unicode="N" glyph-name="N" horiz-adv-x="721" d="M551 524Q551 585 544 612Q541 620 510 627T465 635Q461 635 461 646T465 662Q478 661 517 659T583 656Q609 656 648 659T695 662Q697 656 697 647Q697 635 693 635Q683 635 650 627T614 612Q606 581 606
519V139Q606 77 609 -1Q605 -5 590 -5Q573 -5 557 18L169 568V141Q169 75 176 48Q178 41 209 34T251 26Q254 26 254 14T253 -3Q153 2 138 2L23 -3Q20 0 20 12Q20 26 23 26Q37 26 68 33T103 50Q113 76 113 144V537Q113 586 106 612Q103 620 72 626T27 633Q23 633
23 645T27 662Q105 660 129 660Q181 660 209 662Q246 594 548 172Q551 189 551 213V524Z" />
<glyph unicode="O" glyph-name="O" horiz-adv-x="728" d="M348 625Q253 625 198 542T143 350Q143 270 169 199T250 81T379 33Q443 33 491 74T561 177T584 309Q584 389 558 459T477 577T348 625ZM44 188T44 328T137 567T363 667T589 568T683 328T589 89T363 -10T138 89Z" />
<glyph unicode="P" glyph-name="P" d="M164 656Q194 656 235 658T305 660Q338 660 371 650T436 620T488 563T508 477Q508 448 496 415T459 350T395 298T304 277Q248 277 227 305Q221 312 224 328Q225 332 227 331Q257 320 294 320Q344 320 380 362T416 462Q416
533 385 574T289 616Q244 616 219 609Q214 608 212 602T209 571T207 499V142Q207 75 215 55Q220 42 250 34T294 26Q298 26 298 12Q298 3 296 -3Q196 2 166 2L44 -3Q41 0 41 15Q41 28 44 28Q58 28 83 34T113 49Q120 61 120 143V521Q120 580 113 607Q110 615 84 622T44
629Q40 629 40 641Q40 654 44 658L164 656Z" />
<glyph unicode="Q" glyph-name="Q" horiz-adv-x="724" d="M348 625Q253 625 196 542T139 350Q139 225 204 129T379 33Q475 33 531 116T588 309Q588 434 523 529T348 625ZM692 -84Q710 -84 725 -82T749 -78T760 -76Q772 -76 772 -96V-101Q706 -136 604 -136Q556
-136 500 -110T381 -49T277 0Q241 11 203 37T128 103T68 202T44 328Q44 468 137 567T363 667T589 568T683 328Q683 200 610 110T459 5Q486 -8 533 -36T613 -74T692 -84Z" />
<glyph unicode="R" glyph-name="R" horiz-adv-x="660" d="M287 616Q242 616 217 609Q213 608 211 602T207 572T205 499V378Q205 349 292 349H317Q352 349 389 384T427 477Q427 616 287 616ZM303 660Q337 660 372 650T441 620T497 563T519 477Q519 435 488 389T402
318Q392 314 396 308Q446 203 511 132Q607 27 667 27Q670 21 670 13Q670 4 667 -2Q656 -5 640 -5Q500 -5 397 139Q381 161 361 191T331 235T309 265T287 289T266 302Q255 306 229 306Q221 306 217 306T209 301T205 289V142Q205 75 213 55Q218 42 248 34T292 26Q296
26 296 12Q296 3 294 -3Q194 2 164 2L42 -3Q39 0 39 15Q39 28 42 28Q56 28 81 34T111 49Q118 61 118 143V521Q118 580 111 607Q108 615 82 622T42 629Q38 629 38 641Q38 654 42 658L162 656Q192 656 233 658T303 660Z" />
<glyph unicode="S" glyph-name="S" horiz-adv-x="491" d="M61 490Q61 567 120 616T257 666Q279 666 298 664T330 658T366 649T408 638Q420 585 420 495Q420 488 410 488Q386 488 384 498Q379 542 342 583T250 625Q190 625 166 595T141 521Q141 502 148 485T162
456T187 429T214 408T248 386T281 366Q286 363 316 345T357 319T391 292T425 257T445 220T455 173Q455 93 393 42T246 -10Q222 -10 195 -7T150 0T105 10T66 19Q41 142 41 178Q41 184 57 184Q75 184 82 175Q116 31 248 31Q298 31 333 61T368 146Q368 166 362 183T350
211T327 234T301 253T268 272T235 290Q206 307 195 314T157 338T118 369T90 402T68 444T61 490Z" />
<glyph unicode="T" glyph-name="T" horiz-adv-x="669" d="M291 656T335 656T448 658T555 660Q580 660 624 671L643 528Q636 521 619 521Q610 521 609 526Q595 582 575 598T497 615Q391 615 387 600Q378 568 378 500V139Q378 81 387 46Q389 39 415 33T451 26Q455
26 455 11Q455 3 453 -3Q353 2 337 2Q332 2 217 -3Q213 1 213 12Q213 26 217 26Q230 26 255 32T284 46Q291 73 291 135V497Q291 584 282 600Q274 615 174 615Q117 615 97 599T62 526Q61 521 52 521Q35 521 28 528L47 671Q91 660 116 660Q154 660 222 658Z" />
<glyph unicode="U" glyph-name="U" horiz-adv-x="719" d="M157 657Q173 657 273 662Q275 656 275 648Q275 633 271 633Q261 633 235 626T207 612Q198 577 198 519V296Q198 183 246 116T382 49Q553 49 553 274V524Q553 585 546 612Q543 620 512 627T467 635Q463
635 463 646T467 662Q480 661 519 659T585 656Q611 656 650 659T697 662Q699 656 699 647Q699 635 695 635Q685 635 652 627T616 612Q608 581 608 519V276Q608 121 543 61T358 0Q239 0 175 70T111 296V523Q111 585 104 612Q101 620 76 626T37 633Q33 633 33 646Q33
658 37 662Q152 657 157 657Z" />
<glyph unicode="V" glyph-name="V" horiz-adv-x="709" d="M136 657Q160 657 260 662Q262 658 262 646T258 633Q251 633 239 631T213 621T199 600Q199 571 325 263Q352 195 368 157Q371 152 376 154T384 162L534 524Q553 573 553 594Q553 608 537 618T507 630T483
633Q479 633 479 645T483 662Q576 657 590 657Q591 657 691 662Q693 656 693 647Q693 633 689 633Q644 633 629 605Q606 563 580 502L380 24Q367 -9 345 -9Q338 -9 335 -3L130 514Q105 580 85 610Q78 621 56 627T21 633Q17 633 17 646Q17 658 21 662Q37 661 59
660T98 658T136 657Z" />
<glyph unicode="W" glyph-name="W" horiz-adv-x="1076" d="M146 657Q151 657 251 662Q253 658 253 646T249 633Q242 633 232 632T211 623T199 604Q199 574 222 530L429 120Q432 115 437 117T444 125L527 298L422 514Q393 573 364 610Q356 620 337 626T306 633Q302
633 302 648Q302 658 306 662Q421 657 432 657Q436 657 536 662Q538 658 538 646T534 633Q527 633 518 632T497 623T485 604Q485 578 508 530L574 395L644 542Q658 573 658 600Q658 617 637 625T599 633Q595 633 595 645T599 662Q679 657 700 657Q704 657 804 662Q806
658 806 646T802 633Q792 633 768 625T733 605Q715 583 675 502L598 344L707 120Q713 109 719 125L898 536Q915 577 915 599Q915 616 895 624T858 633Q854 633 854 645T858 662Q938 657 960 657Q983 657 998 658T1029 660T1059 662Q1061 656 1061 647Q1061 633
1057 633Q1047 633 1025 626T992 605Q963 571 934 504L722 24Q707 -8 683 -8Q677 -8 674 -3L552 247L444 24Q429 -8 405 -8Q399 -8 396 -3L136 514Q107 573 78 610Q70 620 51 626T20 633Q16 633 16 646Q16 658 20 662Q135 657 146 657Z" />
<glyph unicode="X" glyph-name="X" horiz-adv-x="688" d="M176 657Q204 657 304 662Q306 658 306 646T302 633Q284 633 263 626T242 601Q242 589 254 571L369 396Q373 402 392 426T420 462T446 496T472 531T491 560T506 586T511 602Q511 613 491 623T441 633Q437
633 437 645T441 662Q534 657 568 657Q580 657 680 662Q682 658 682 646T678 633Q664 633 628 625T582 604L394 358L586 66Q599 46 627 36T684 26Q689 26 689 10Q689 1 687 -3Q587 2 582 2Q576 2 436 -3Q432 1 432 13T436 26Q450 26 472 34T494 54Q494 58 489 66L339
295Q175 75 175 55Q175 51 179 45T201 33T243 26Q247 26 247 10Q247 0 245 -3Q152 2 132 2Q109 2 9 -3Q7 3 7 10Q7 26 11 26Q19 26 32 27T67 36T99 54L313 334L173 548Q142 597 107 617Q80 633 51 633Q47 633 47 645T51 662Q174 657 176 657Z" />
<glyph unicode="Y" glyph-name="Y" horiz-adv-x="649" d="M139 656Q151 656 271 662Q273 658 273 647T269 635Q252 635 231 627T209 601Q209 590 220 571L332 359Q337 354 342 361Q478 567 478 602Q478 613 458 624T409 635Q405 635 405 646T409 662Q520 656 527
656Q558 656 591 659T633 662Q635 656 635 647Q635 635 631 635Q619 635 589 626T549 604Q511 545 439 425T366 291V139Q366 77 374 46Q376 39 401 32T435 24Q439 24 439 11Q439 3 437 -3Q337 2 325 2Q322 2 207 -3Q203 1 203 11Q203 24 207 24Q219 24 243 31T271
46Q279 77 279 142V267Q279 281 258 322T133 549Q117 579 109 590T84 613Q73 621 51 628T19 635Q15 635 15 646Q15 658 19 662Q35 661 73 659T139 656Z" />
<glyph unicode="Z" glyph-name="Z" horiz-adv-x="600" d="M214 656H323Q393 656 533 666Q536 665 539 653T543 633L169 76Q162 66 162 61Q162 51 176 51H402Q438 51 464 61T506 94T530 130T548 172Q550 175 562 175Q577 175 586 166Q554 62 542 0H46Q38 9 38 26Q38
38 42 43L425 608H213Q147 608 119 581T71 484Q70 480 61 480Q38 480 29 489Q56 613 62 665Q72 662 134 659T214 656Z" />
<glyph unicode="[" glyph-name="bracketleft" horiz-adv-x="361" d="M140 740Q176 740 212 742T271 746T300 749Q306 749 306 737Q306 715 288 706Q241 695 187 695Q184 695 183 693T180 689V687V-49Q181 -57 187 -57Q239 -57 289 -74Q301 -78 301 -96Q301 -101
300 -105T296 -112L295 -114Q222 -102 140 -102Q121 -102 121 -79V717Q121 740 140 740Z" />
<glyph unicode="\" glyph-name="backslash" horiz-adv-x="430" d="M396 -7Q396 -34 373 -39Q373 -39 349 -37L36 755Q43 761 57 761Q96 761 106 739L393 13Q396 7 396 -7Z" />
<glyph unicode="]" glyph-name="bracketright" horiz-adv-x="361" d="M183 -49V687Q182 695 176 695Q152 695 127 697T88 703L75 706L74 707Q72 708 70 709T66 713T62 719T59 727T57 737Q57 749 62 749H63Q141 740 223 740Q241 740 241 717V-79Q241 -102 223 -102Q187
-102 148 -105T88 -111L67 -114Q61 -113 61 -102Q61 -92 67 -82L76 -74Q122 -57 176 -57Q179 -57 180 -55T182 -51L183 -49Z" />
<glyph unicode="^" glyph-name="asciicircum" horiz-adv-x="445" d="M362 475Q350 475 304 515T222 597Q190 556 144 516T84 475Q80 475 77 481T72 493L71 499Q72 502 96 524T153 588T208 677Q214 690 218 690Q227 690 232 685T242 670T260 637T293 588Q303 575
323 554T358 518T375 500Q375 495 371 485T362 475Z" />
<glyph unicode="_" glyph-name="underscore" horiz-adv-x="468" d="M0 -33Q5 13 15 13H464Q468 13 468 8Q468 0 458 -37Q457 -40 456 -41T453 -43H452H7Q0 -43 0 -33Z" />
<glyph unicode="`" glyph-name="grave" horiz-adv-x="327" d="M104 663Q104 667 106 671T119 681T145 687Q170 687 179 678Q196 658 219 625T257 568T272 540Q272 527 260 527Q247 527 176 582T104 663Z" />
<glyph unicode="a" glyph-name="a" horiz-adv-x="423" d="M157 50T184 50T236 66T261 100V203Q253 199 222 189T174 172T140 147T123 106Q123 79 140 65ZM234 436Q289 436 313 410T337 324V93Q337 72 348 58T378 44Q392 44 413 58Q417 58 417 50Q417 37 412 29Q371
-6 342 -6Q319 -6 298 13T269 53Q268 53 262 47T244 32T219 14T185 -1T145 -7Q99 -7 69 17T39 91Q39 113 50 132T76 164T117 190T161 209T210 226T252 241Q261 244 261 256V331Q261 363 241 380T193 398Q163 398 143 378T123 324Q123 289 82 289Q54 289 43 308Q43
351 106 393T234 436Z" />
<glyph unicode="b" glyph-name="b" horiz-adv-x="499" d="M256 438Q352 438 406 373T461 233Q461 138 391 66T235 -6Q198 -6 165 0T126 7Q117 7 104 2T88 -4Q84 -4 76 -1T67 6Q67 7 70 22T76 68T79 135V549Q79 583 73 613Q68 629 22 629H13Q7 629 7 640Q7 656
13 656Q43 659 68 664T108 674T133 683T148 691L152 694H154Q158 694 162 689T167 678Q156 646 156 591V416Q156 405 159 405Q160 405 162 406Q176 416 205 427T256 438ZM224 389Q196 389 176 374T156 329V96Q156 65 185 51T254 36Q311 36 343 90T375 212Q375 291
334 340T224 389Z" />
<glyph unicode="c" glyph-name="c" horiz-adv-x="405" d="M231 436Q341 436 383 385Q383 318 346 318Q329 318 320 325T297 353Q266 399 223 399Q182 399 149 360T115 244Q115 164 154 111T264 58Q285 58 304 62T336 71T359 82T376 93L383 98Q389 98 389 85Q389
77 383 67Q363 39 324 17T239 -6Q156 -6 97 56T37 209Q37 301 87 368T231 436Z" />
<glyph unicode="d" glyph-name="d" horiz-adv-x="497" d="M248 398Q190 398 157 346T124 225Q124 152 163 99T271 45Q305 45 324 60T343 102V340Q343 361 321 379T248 398ZM261 440Q304 440 336 423Q343 423 343 441V549Q343 583 337 613Q332 629 286 629H277Q271
629 271 640Q271 656 277 656Q307 659 332 664T372 674T397 683T412 691L416 694H418Q422 694 426 689T431 678Q420 646 420 591V141Q420 93 426 65Q428 58 437 54T455 49T474 48L483 47Q486 46 486 35Q486 20 480 20Q465 19 447 16T412 10T381 3T358 -4L349 -6Q343
-6 343 11V23Q343 29 339 27Q283 -4 233 -4Q150 -4 94 55T38 196Q38 293 106 366T261 440Z" />
<glyph unicode="e" glyph-name="e" horiz-adv-x="430" d="M225 399Q173 399 146 355T118 281Q118 274 124 274H319Q324 274 324 284Q324 316 297 357T225 399ZM235 436Q281 436 316 419T369 374T396 318T405 261Q405 241 399 237T376 232H124Q116 232 116 227Q116
164 154 111T264 58Q285 58 304 62T336 71T359 82T376 93L383 98Q389 98 389 85Q389 77 383 67Q363 39 324 17T239 -6Q156 -6 97 56T37 209Q37 314 93 375T235 436Z" />
<glyph unicode="f" glyph-name="f" horiz-adv-x="301" d="M297 695Q369 695 392 656Q392 593 356 593Q343 593 331 608T304 640T266 656Q222 656 198 602T174 475V424Q174 419 179 419H290Q295 419 295 412Q295 396 283 372H180Q174 372 174 366V135Q174 81 183
46Q185 39 207 33T239 26Q242 26 243 14T242 -3Q142 2 135 2Q132 2 30 -3Q28 -1 27 6T27 20T30 26Q42 26 64 32T88 46Q98 85 98 135V365Q98 372 93 372H40Q37 372 37 378Q37 387 53 403T87 419H93Q98 419 98 425V438Q98 543 160 619T297 695Z" />
<glyph unicode="g" glyph-name="g" horiz-adv-x="474" d="M379 -85Q379 -43 338 -29T175 -14Q173 -14 169 -16Q168 -17 160 -20T150 -25T141 -30T132 -36T123 -42T115 -50T109 -59T104 -69T101 -80T99 -94Q99 -137 143 -163T242 -190Q302 -190 340 -158T379 -85ZM123
296Q123 250 151 218T218 186Q257 186 282 216T308 288Q308 334 280 366T213 398Q174 398 149 368T123 296ZM217 432Q254 432 302 419T381 406H439Q445 404 445 381Q445 367 439 367H368Q364 367 364 364L374 340Q385 316 385 292Q385 238 337 195T219 152Q187
152 163 156Q150 149 136 131T121 99T129 77T152 65T181 60T214 58Q219 58 221 58Q345 56 395 33T445 -38Q445 -115 380 -170T213 -227Q142 -228 86 -200T29 -116Q29 -54 127 -10Q100 -6 77 15T54 66Q54 92 76 120T127 166Q97 177 72 213T46 292Q46 351 95 391T217
432Z" />
<glyph unicode="h" glyph-name="h" horiz-adv-x="530" d="M312 438Q379 438 408 390T437 242V134Q437 77 445 46Q447 39 471 33T505 26Q508 26 509 14T508 -3Q408 2 401 2Q398 2 296 -3Q292 1 292 13T296 26Q308 26 329 32T353 46Q360 75 360 116V222Q360 314
335 345T256 377Q226 377 197 354T167 312V135Q167 77 175 46Q177 39 201 33T235 26Q238 26 239 14T238 -3Q138 2 131 2Q125 2 22 -3Q18 1 18 13T22 26Q34 26 57 32T83 46Q90 75 90 115V549Q90 583 84 613Q79 629 33 629H24Q18 629 18 640Q18 656 24 656Q54 659
79 664T119 674T144 683T158 691L163 694H165Q169 694 173 689T178 678Q167 646 167 591V372Q167 368 169 368Q170 368 172 370Q194 394 234 416T312 438Z" />
<glyph unicode="i" glyph-name="i" horiz-adv-x="269" d="M85 572T85 593T99 628T135 643T170 629T185 593T171 558T135 543T100 557ZM181 135Q181 77 189 46Q191 39 215 33T249 26Q252 26 253 14T252 -3Q152 2 145 2T36 -3Q32 1 32 13T36 26Q48 26 71 32T97 46Q104
75 104 116V305Q104 344 90 359Q80 371 66 375T42 380T32 382Q32 406 38 407Q144 423 176 433L178 434Q180 434 181 434Q185 434 186 426T186 413Q181 373 181 341V135Z" />
<glyph unicode="j" glyph-name="j" horiz-adv-x="238" d="M85 305Q85 344 71 359Q61 371 47 375T23 380T13 382Q13 406 19 407Q125 423 157 433Q158 433 160 433T162 434Q166 434 167 426T167 413Q162 373 162 341V68Q162 -59 123 -120Q98 -159 60 -189T-11 -231Q-20
-225 -24 -216Q-26 -211 -24 -209L-12 -203Q0 -197 15 -182T47 -142T74 -68T85 45V305ZM59 572T59 593T73 628T109 643T144 629T159 593T145 558T109 543T74 557Z" />
<glyph unicode="k" glyph-name="k" horiz-adv-x="496" d="M387 368Q370 358 322 321T239 247Q268 216 310 169T379 92T416 53Q433 39 459 32T496 24Q500 24 500 8Q500 -1 499 -3Q399 2 390 2Q388 2 286 -3Q282 1 282 12T286 24Q296 24 309 28T322 37Q322 39 321
40L175 198L163 195V135Q165 69 171 46Q173 39 197 33T231 26Q234 26 235 14T234 -3Q134 2 127 2Q121 2 18 -3Q14 1 14 13T18 26Q30 26 53 32T79 46Q86 75 86 116V549Q86 583 80 613Q75 629 29 629H20Q14 629 14 640Q14 656 20 656Q50 659 75 664T115 674T140 683T154
691L159 694H161Q165 694 169 689T174 678Q163 646 163 591V241Q184 246 188 250Q210 269 234 289T270 319T293 339T308 355T312 367Q312 379 290 381T267 385Q260 405 268 408H347Q362 408 378 409T417 411T457 413Q461 411 461 404T460 391T456 385Q443 385 419
379T387 368Z" />
<glyph unicode="l" glyph-name="l" horiz-adv-x="251" d="M87 116V549Q87 583 81 613Q76 629 30 629H21Q15 629 15 640Q15 656 21 656Q51 659 76 664T116 674T141 683T156 691L160 694H162Q166 694 170 689T175 678Q164 646 164 591V135Q164 77 172 46Q174 39
198 33T232 26Q235 26 236 14T235 -3Q135 2 128 2Q122 2 19 -3Q15 1 15 13T19 26Q31 26 54 32T80 46Q87 75 87 116Z" />
<glyph unicode="m" glyph-name="m" horiz-adv-x="800" d="M320 438Q360 438 386 417T423 367Q498 438 578 438Q704 438 704 246V135Q704 77 712 46Q714 39 738 33T772 26Q775 26 776 14T775 -3Q675 2 668 2Q662 2 559 -3Q555 1 555 13T559 26Q571 26 594 32T620
46Q627 75 627 110V223Q627 377 526 377Q489 377 462 356T435 320L436 316Q436 312 436 311Q440 286 440 239V126Q440 77 448 46Q450 39 474 33T508 26Q511 26 512 14T511 -3Q411 2 404 2Q398 2 295 -3Q291 1 291 13T295 26Q307 26 330 32T356 46Q363 75 363 116V218Q363
377 267 377Q237 377 207 355T176 311V135Q176 77 184 46Q186 39 210 33T244 26Q247 26 248 14T247 -3Q147 2 140 2Q134 2 31 -3Q27 1 27 13T31 26Q43 26 66 32T92 46Q99 75 99 116V305Q99 344 85 359Q75 371 61 375T37 380T27 382Q27 406 33 407Q139 423 171 433Q172
433 174 433T176 434Q180 434 181 426T181 413Q177 385 177 373Q177 369 179 369Q180 369 182 371Q205 395 244 416T320 438Z" />
<glyph unicode="n" glyph-name="n" horiz-adv-x="543" d="M322 438Q392 438 420 388T448 226V135Q448 77 456 46Q458 39 482 33T516 26Q519 26 520 14T519 -3Q419 2 412 2Q410 2 307 -3Q303 1 303 13T307 26Q319 26 340 32T364 46Q371 75 371 116V216Q371 309
347 343T269 377Q237 377 208 354T178 311V135Q178 77 186 46Q188 39 212 33T246 26Q249 26 250 14T249 -3Q149 2 142 2Q136 2 33 -3Q29 1 29 13T33 26Q45 26 68 32T94 46Q101 75 101 116V305Q101 344 87 359Q77 371 63 375T39 380T29 382Q29 406 35 407Q141 423
173 433Q174 433 176 433T178 434Q182 434 183 426T183 413Q179 385 179 373Q179 369 181 369Q182 369 184 371Q207 395 246 416T322 438Z" />
<glyph unicode="o" glyph-name="o" horiz-adv-x="510" d="M243 398Q190 398 157 350T123 231Q123 149 165 91T265 32Q318 32 352 82T386 202Q386 283 343 340T243 398ZM254 437Q344 437 408 372T472 216Q472 124 410 59T256 -7T101 58T37 216Q37 309 99 373T254 437Z" />
<glyph unicode="p" glyph-name="p" horiz-adv-x="511" d="M269 436Q365 436 419 372T473 234Q473 138 406 65T254 -8Q239 -8 228 -7T207 -4T193 1T180 6T170 11Q166 6 166 -2V-88Q166 -146 174 -177Q176 -184 200 -190T234 -197Q237 -197 238 -209T237 -226Q137
-221 130 -221Q124 -221 21 -226Q17 -222 17 -210T21 -197Q33 -197 56 -191T82 -177Q89 -148 89 -107V306Q89 345 75 360Q65 372 51 376T27 381T17 383Q17 407 23 408Q129 424 161 434Q162 434 164 434T166 435Q169 435 169 430T168 416T167 407V401Q181 411 213
423T269 436ZM237 387Q206 387 186 371T166 323V98Q166 71 195 53T258 34Q317 34 352 87T387 206Q387 290 343 338T237 387Z" />
<glyph unicode="q" glyph-name="q" horiz-adv-x="489" d="M265 440Q302 440 337 435T377 429Q386 429 399 433T415 437Q418 437 427 434T436 427Q436 426 432 409T424 361T420 293V-101Q420 -147 428 -178Q430 -185 454 -191T488 -198Q491 -198 492 -210T491 -227Q391
-222 384 -222Q378 -222 275 -227Q271 -223 271 -211T275 -198Q287 -198 310 -192T336 -178Q343 -149 343 -108V16Q343 21 342 24T336 26Q276 -4 240 -4Q153 -4 96 59T38 203Q38 291 106 365T265 440ZM248 398Q204 398 175 367T135 300T124 226Q124 137 168 91T275
45Q298 45 320 58T343 105V337Q343 364 318 381T248 398Z" />
<glyph unicode="r" glyph-name="r" horiz-adv-x="380" d="M293 437Q352 437 371 408Q371 373 360 357T333 341Q315 341 300 358T259 375Q228 375 205 346T182 285V135Q182 77 190 46Q192 39 216 33T251 26Q254 26 255 14T254 -3Q154 2 146 2Q140 2 37 -3Q33 1
33 13T37 26Q49 26 72 32T98 46Q105 75 105 116V305Q105 344 91 359Q81 371 67 375T43 380T33 382Q33 406 39 407Q145 423 177 433Q178 433 180 433T182 434Q186 434 187 426T187 413L181 363Q199 390 230 413T293 437Z" />
<glyph unicode="s" glyph-name="s" horiz-adv-x="359" d="M191 437Q213 437 246 432T293 424Q303 378 305 322Q305 317 292 317Q278 317 277 324Q272 352 249 377T195 402Q123 402 123 343Q123 328 127 317T142 295T160 280T186 264T212 249Q216 247 235 236T263
219T286 202T309 181T322 157T329 127Q329 68 283 29T175 -11Q154 -11 137 -9T95 0T58 8Q52 24 47 58T41 112Q49 118 53 118Q68 118 69 112Q75 82 106 54T175 25Q207 25 227 42T248 93Q248 110 242 124T221 150T194 169T158 189T124 208Q46 253 46 315Q46 369 89
403T191 437Z" />
<glyph unicode="t" glyph-name="t" horiz-adv-x="314" d="M80 374H22Q17 374 17 395Q17 401 18 402Q47 415 81 455Q92 468 102 484T120 513T127 526Q157 526 157 521V422Q183 422 236 422T292 421Q300 421 300 412Q300 394 290 374H157V129Q157 89 177 65T231
41Q261 41 293 60Q296 62 302 52T307 40Q292 24 261 9T197 -7Q147 -7 114 26T80 120V374Z" />
<glyph unicode="u" glyph-name="u" horiz-adv-x="517" d="M435 341V141Q435 98 442 65Q444 58 453 54T472 49T492 48L501 47Q504 46 504 36Q504 33 502 27T496 20Q481 19 463 16T428 9T398 1T376 -6L367 -8Q359 -8 359 8V59L357 64Q291 -7 226 -7Q189 -7 163 11T124
60T106 119T101 179V305Q101 344 87 359Q77 371 63 375T39 380T29 382Q29 406 35 407Q141 423 173 433Q174 433 176 433T178 434Q182 434 183 426T183 413Q177 365 177 339V204Q177 127 200 91T275 54Q305 54 332 77T359 118V305Q359 344 345 359Q335 371 321 375T297
380T287 382Q287 406 293 407Q399 423 431 433Q432 433 434 433T436 434Q440 434 441 426T441 413Q435 365 435 341Z" />
<glyph unicode="v" glyph-name="v" horiz-adv-x="493" d="M383 373Q383 405 311 405Q307 405 307 417T311 434Q322 433 352 431T406 429L506 434Q508 428 508 419Q508 405 501 405Q487 405 464 397T433 371L274 12Q272 5 262 -3T245 -11T236 -7Q219 30 162 165T61
385Q51 405 2 405Q-2 405 -2 418Q-2 430 2 434Q105 429 106 429L206 434Q208 430 207 418T202 405Q153 405 153 388Q153 386 154 384L274 113L375 343Q383 362 383 373Z" />
<glyph unicode="w" glyph-name="w" horiz-adv-x="734" d="M623 370Q623 405 557 405H553Q549 405 549 417T553 434Q568 433 586 432T620 430T654 429Q671 429 683 430T712 432T743 434Q745 428 745 419Q745 405 740 405Q727 405 705 397T676 369L545 11Q537 -11
517 -11Q507 -11 505 -7L382 287L281 11Q280 8 277 4T268 -6T254 -11Q244 -11 242 -7Q218 47 188 122T130 258T67 383Q54 405 13 405Q9 405 9 418Q9 430 13 434Q28 433 46 432T79 430T112 429L212 434Q214 430 214 418T210 405Q160 405 160 382Q160 379 172 352T216
259T279 120Q296 169 317 228T346 312T355 341Q355 346 351 357T341 376L336 385Q330 394 317 400Q307 405 285 405Q281 405 281 417T285 434Q300 433 317 432T349 430T382 429Q399 429 413 430T447 432T480 434Q482 428 482 417T479 405Q431 405 431 366Q431 345
541 120Q556 166 579 231T612 327T623 370Z" />
<glyph unicode="x" glyph-name="x" horiz-adv-x="467" d="M13 420Q15 430 17 434Q114 429 117 429Q119 429 222 434Q223 430 223 422Q223 405 220 405Q180 405 180 388Q180 384 185 376L250 275Q257 286 271 306T293 339T309 366T316 387Q316 396 305 399T279
403T262 405Q259 406 259 421Q259 430 262 434Q364 429 367 429T458 434Q460 424 460 420Q460 405 457 405Q391 397 370 371L274 246Q272 243 272 239Q272 234 275 228L382 70Q409 30 466 26Q469 26 469 12Q469 2 465 -3Q372 2 371 2Q368 2 260 -3Q258 7 258 10Q258
26 261 26Q303 29 303 44Q303 46 301 50L225 170L156 67Q149 56 149 48Q149 30 199 26Q202 26 204 26Q207 26 207 11Q207 1 203 -3Q106 2 103 2Q101 2 6 -3Q4 5 4 11Q4 26 8 26Q75 36 98 68L202 207Q202 208 202 210T203 213Q203 215 201 219L98 370Q89 383 61
394T16 405L13 420Z" />
<glyph unicode="y" glyph-name="y" horiz-adv-x="454" d="M114 429Q131 429 145 430T178 432T211 434Q213 428 213 419Q213 405 209 405Q201 405 183 398T162 384V382Q162 364 269 121L345 340Q352 361 352 371Q352 386 337 395T295 405Q291 405 291 418Q291 430
295 434Q308 433 334 431T384 429Q406 429 432 431T471 434Q473 428 473 419Q473 405 469 405Q456 405 434 396T404 367L225 -116Q202 -178 173 -202T120 -227Q99 -227 89 -214T79 -188Q79 -166 93 -156Q176 -156 203 -70Q208 -55 215 -34T226 0L83 350Q72 374
63 384Q54 393 36 399T6 405Q2 405 2 418Q2 430 6 434Q109 429 114 429Z" />
<glyph unicode="z" glyph-name="z" horiz-adv-x="414" d="M135 47Q135 40 147 40H278Q320 40 339 61T370 120Q372 131 378 131Q400 131 407 119L386 0H49Q29 12 29 23Q29 26 30 27L287 384L138 385Q118 385 105 376T88 356T79 331T73 312Q70 306 49 306Q38 306
38 309Q38 313 45 356T54 430Q113 424 149 424H271Q327 424 393 432Q396 427 396 408L142 61Q135 51 135 47Z" />
<glyph unicode="{" glyph-name="braceleft" horiz-adv-x="324" d="M66 292Q63 298 63 310T67 329Q96 336 111 342T142 364T157 406T132 487T107 575Q107 657 153 703T266 750Q270 750 270 742Q270 723 259 721Q230 719 195 688T160 613Q160 578 185 522T210 423Q210
377 183 343T126 308Q156 307 183 275T211 197Q211 154 186 104T160 18Q160 -26 195 -60T259 -96Q270 -98 270 -118Q270 -125 266 -125Q201 -125 155 -74T109 55Q109 85 133 139T157 219Q157 232 153 242T144 258T127 270T109 279T87 286T66 292Z" />
<glyph unicode="|" glyph-name="bar" horiz-adv-x="264" d="M164 -106Q164 -111 138 -117T105 -123Q100 -123 100 -115V757Q99 763 105 765Q129 772 155 772Q159 772 161 771T163 768V766L164 -106Z" />
<glyph unicode="}" glyph-name="braceright" horiz-adv-x="325" d="M258 292Q254 291 241 287T222 281T205 275T189 266T178 255T170 239T167 219Q167 194 191 140T215 55Q215 -22 169 -73T58 -125Q54 -125 54 -118Q54 -98 65 -96Q93 -94 128 -60T164 18Q164 53
139 103T113 197Q113 243 140 275T198 308Q169 309 142 343T114 423Q114 466 139 522T164 613Q164 657 129 688T65 721Q54 723 54 742Q54 750 58 750Q125 750 171 704T217 575Q217 543 192 487T167 406T182 365T212 342T257 329Q261 322 261 310T258 292Z" />
<glyph unicode="~" glyph-name="asciitilde" horiz-adv-x="576" d="M65 259Q56 264 56 276Q56 297 80 315Q111 338 132 346T186 354Q233 354 304 328T422 301Q429 301 436 302T448 304T460 309T470 314T481 321T491 328T501 336T512 345Q521 340 521 328Q521 306
498 289Q467 266 447 258T393 250Q346 250 275 276T156 303Q138 303 120 295T95 282T65 259Z" />
<glyph unicode="&#xa0;" glyph-name="uni00A0" horiz-adv-x="162" />
<glyph unicode="&#xa1;" glyph-name="exclamdown" horiz-adv-x="166" d="M80 -224Q58 -224 47 -206T35 -161Q35 -151 39 -108T51 29T66 237Q67 252 71 257T90 270Q95 272 98 265T103 248Q111 118 118 23T129 -106T132 -161Q132 -186 118 -205T80 -224ZM25 349T25
373T41 414T82 432T123 415T140 373T123 333T82 316T42 332Z" />
<glyph unicode="&#xa2;" glyph-name="cent" horiz-adv-x="464" d="M279 474Q314 474 314 466L231 -45Q196 -45 196 -36L279 474ZM254 435Q169 435 115 367T60 211Q60 107 116 50T258 -8Q337 -8 406 67Q412 73 412 85Q412 88 411 91T408 97T406 99T400 94T384 83T361
69T329 57T289 52Q214 52 175 107T136 245Q136 325 169 362T244 400Q265 400 282 392T308 376T331 350Q333 348 336 344T341 337T346 332T351 327T355 323T360 320T364 319T370 318Q406 318 406 381Q391 408 348 421T254 435Z" />
<glyph unicode="&#xa3;" glyph-name="sterling" horiz-adv-x="473" d="M51 319Q51 319 318 319Q323 319 323 309Q323 289 308 279Q308 279 50 279Q45 279 45 292Q45 310 51 319ZM282 635Q334 635 359 598Q359 539 329 539Q308 539 286 566T243 593Q219 593 203
580T181 543T172 497T170 444Q170 424 174 343T178 258Q178 160 133 84Q156 93 205 93Q234 93 289 77T362 61Q375 61 386 70T404 88T419 115T430 135Q436 135 442 130T449 117T448 108Q404 -8 331 -8Q297 -8 230 10T140 29Q105 29 65 -9Q56 -9 51 -3T46 10Q55 27
71 50T93 82Q97 90 100 100T104 124T107 148T108 175T109 200T109 226T109 249Q109 258 105 332T100 423Q100 517 150 576T282 635Z" />
<glyph unicode="&#xa4;" glyph-name="currency" horiz-adv-x="468" d="M240 152Q284 152 312 194T341 294Q341 363 306 413T223 463Q179 463 150 420T121 319Q121 251 156 202T240 152ZM344 455L403 510Q407 514 415 508T432 490T444 466L384 410Q413 362 413
307Q413 248 380 199L434 141Q438 137 432 129T414 112T390 100L338 155Q290 120 232 120Q168 120 118 160L65 110Q61 106 53 112T36 130T24 154L78 205Q48 252 48 307Q48 372 86 423L34 479Q30 483 36 491T54 508T78 520L130 465Q175 496 232 496Q295 496 344
455Z" />
<glyph unicode="&#xa5;" glyph-name="yen" horiz-adv-x="658" d="M143 636Q151 636 268 642Q270 638 270 627T266 615Q249 615 229 607T208 583Q208 572 218 554L327 348Q332 343 337 350Q469 550 469 584Q469 595 450 605T402 615Q398 615 398 626T402 642Q413
641 443 639T494 636T632 642Q634 636 634 627Q634 615 630 615Q617 615 582 607T537 586Q495 521 428 408T360 282V254H452Q457 254 457 241Q457 225 451 216H360V176H452Q457 176 457 163Q457 147 451 138H360Q360 73 367 46Q369 39 393 32T426 24Q430 24 430
12Q430 3 428 -3Q330 2 320 2Q316 2 206 -3Q202 1 202 10Q202 24 206 24Q218 24 241 31T268 46Q276 77 276 138H184Q179 138 179 151Q179 167 185 176H276V216H184Q179 216 179 229Q179 245 185 254H276Q276 268 275 270Q271 288 134 532Q116 567 91 594Q82 603
61 609T27 615Q23 615 23 626Q23 638 27 642Q43 641 79 639T143 636Z" />
<glyph unicode="&#xa6;" glyph-name="brokenbar" horiz-adv-x="137" d="M37 389V753Q36 759 42 761Q66 768 91 768Q95 768 97 767T99 764V762L100 397Q99 397 98 395T95 392T88 390T73 386T48 382Q42 381 40 381T37 383T37 387Q37 388 37 389ZM37 -115V249Q36
255 42 257Q66 264 91 264Q95 264 97 263T99 260V258L100 -106L98 -108Q95 -111 92 -112T78 -117T48 -122Q46 -122 45 -122T42 -123Q37 -123 37 -115Z" />
<glyph unicode="&#xa7;" glyph-name="section" horiz-adv-x="382" d="M354 263Q354 181 295 140Q309 109 309 90Q309 52 295 25T257 -15T211 -35T163 -41Q97 -41 74 -7Q74 -5 74 0T73 7Q73 52 105 52Q118 52 145 26T196 -1Q224 -1 240 15T257 62Q257 99 233 123T176
162T108 196T50 251T26 345Q26 427 85 469Q71 493 71 518Q71 582 113 616T217 651Q281 651 305 615Q305 613 305 609T306 602Q306 557 275 557Q262 557 235 584T184 611T142 595T123 547Q123 511 147 487T204 448T272 414T330 357T354 263ZM282 173Q283 174 286
177T290 181T294 185T298 190T301 195T304 201T306 208T307 216T308 225Q308 264 283 292T224 336T154 378T98 435Q72 414 72 383Q72 344 97 316T155 272T226 231T282 173Z" />
<glyph unicode="&#xa8;" glyph-name="dieresis" horiz-adv-x="333" d="M241 566T261 566T295 551T310 516T295 482T260 468T225 482T210 517T225 551ZM58 566T78 566T112 551T127 516T112 482T77 468T42 482T27 517T42 551Z" />
<glyph unicode="&#xa9;" glyph-name="copyright" horiz-adv-x="603" d="M428 276Q428 271 420 244T408 214Q361 195 302 195Q241 195 200 236T159 336Q159 397 199 440T300 483Q362 483 412 464Q428 407 428 403Q428 394 412 394Q409 394 405 396Q403 406 396
416T367 437T312 449Q272 449 244 418T216 345Q216 289 249 258T321 227Q372 227 393 246Q398 251 401 259T406 273T408 279Q426 279 428 276ZM28 229T28 342T108 535T301 615T494 535T575 342T495 149T301 69T108 149ZM61 442T61 342T131 171T302 100T473 171T544
342T473 513T302 584T132 513Z" />
<glyph unicode="&#xaa;" glyph-name="ordfeminine" horiz-adv-x="316" d="M181 324V392Q174 389 154 383T122 372T99 356T88 328Q88 309 99 299T128 289Q146 289 163 301T181 324ZM236 318Q236 304 243 294T262 283Q268 283 274 286T284 291L287 293Q290 292 290
290Q288 283 286 273Q254 250 238 250T208 263T188 291L180 284Q171 277 161 270T135 256T102 249Q70 249 49 266T28 317Q28 333 36 346T54 368T82 386T113 400T146 411T175 421Q181 422 181 431V489Q181 507 168 518T134 529Q113 529 100 515T86 478Q86 456 52
456Q31 456 31 467Q31 497 73 526T160 556Q202 556 219 539T236 484V318Z" />
<glyph unicode="&#xab;" glyph-name="guillemotleft" horiz-adv-x="469" d="M294 247L381 157Q391 147 401 138T416 123T427 112T434 105T439 100T441 95T442 91Q442 87 439 84T433 79T425 76T419 73Q418 75 400 91T330 146T213 227Q206 230 206 241Q206 259 214
268Q342 345 420 423Q443 417 443 404Q443 398 434 389T382 338Q369 325 335 290T294 247ZM115 247L202 157Q212 147 222 138T237 123T248 112T255 105T260 100T262 95T263 91Q263 87 260 84T254 79T246 76T240 73Q239 75 221 91T151 146T34 227Q27 230 27 241Q27
259 35 268Q163 345 241 423Q264 417 264 404Q264 398 255 389T203 338Q190 325 156 290T115 247Z" />
<glyph unicode="&#xac;" glyph-name="logicalnot" horiz-adv-x="538" d="M29 374Q34 420 44 420H488Q500 420 500 409V169Q490 159 451 154H447Q443 154 441 156T440 160V161V354Q440 364 429 364H35Q29 364 29 374Z" />
<glyph unicode="&#xae;" glyph-name="registered" horiz-adv-x="604" d="M29 294T29 407T109 600T302 680T495 600T576 407T496 214T302 133T109 213ZM62 507T62 407T132 236T303 165T474 236T545 407T474 577T303 648T133 578ZM456 280Q456 272 441 272Q394 272
369 293T293 398Q288 406 279 406Q272 407 261 406Q259 406 259 399V335Q260 305 263 294Q264 291 274 288T289 285Q290 285 290 280T290 273Q273 274 227 274Q197 274 177 273Q175 275 175 280T177 285Q182 285 193 288T205 294Q208 303 208 319L207 335V490Q208
498 208 506Q208 522 205 531Q204 534 194 537T178 541Q177 541 177 546Q177 552 178 553Q197 550 226 550Q239 550 263 552T300 554Q333 554 363 535T394 477Q394 435 346 414Q345 414 345 412Q345 400 415 307Q431 286 455 286Q456 284 456 280ZM306 428Q320
428 332 441T344 474Q344 529 294 529Q272 529 263 526Q260 526 260 523L259 486V441Q259 428 306 428Z" />
<glyph unicode="&#xaf;" glyph-name="overscore" horiz-adv-x="460" d="M540 559Q540 596 552 596H760Q765 596 765 589Q765 579 759 557Q758 554 757 553T754 550H752H546Q546 550 542 552Q540 555 540 559Z" />
<glyph unicode="&#xb0;" glyph-name="degree" horiz-adv-x="233" d="M18 496T18 536T47 605T117 634T186 605T215 536Q215 495 186 466T117 437Q76 437 47 466ZM55 536Q55 510 73 492T117 474T160 492T178 536T160 579T117 597Q91 597 73 579T55 536Z" />
<glyph unicode="&#xb1;" glyph-name="plusminus" horiz-adv-x="533" d="M491 62Q492 62 493 62T497 59T499 51Q497 37 495 28T491 15T488 10T485 7L483 6H35Q34 6 33 6T30 9T29 19Q32 41 37 57Q38 60 39 61T42 62H44H491ZM295 301V109Q295 99 250 93Q248 93 247
93T244 92Q239 92 239 100V299Q239 304 233 304H34Q28 304 28 314Q28 328 36 355Q37 358 38 359T42 360H43H234Q239 360 239 366V556Q238 561 244 563Q271 571 285 571L295 565V365Q295 360 299 360H499Q507 360 507 355Q507 347 497 310Q496 307 495 306T492 304H490H299Q295
304 295 301Z" />
<glyph unicode="&#xb2;" glyph-name="uni00B2" horiz-adv-x="338" d="M149 594Q110 594 76 553Q74 551 69 555T59 567T54 578T55 583Q75 609 110 628T178 647Q224 647 256 616T288 542Q288 515 279 491T247 441T209 400T159 356T112 317Q111 316 111 313T113 310H250Q268
310 277 315T290 334L293 346Q294 348 298 349Q308 349 312 343Q308 333 291 254L166 255L39 254Q27 260 27 275Q27 279 31 287Q39 296 61 320T97 358T130 395T162 434T186 469T205 504T211 532Q211 555 195 574T149 594Z" />
<glyph unicode="&#xb3;" glyph-name="uni00B3" horiz-adv-x="316" d="M174 647Q202 647 230 626T258 569Q258 548 248 532T226 507T192 484Q219 484 253 457T288 385Q288 322 234 285T110 247Q81 247 57 255T27 273V280Q27 295 35 306T55 317Q70 317 91 300T129
283Q164 283 190 305T217 371Q217 406 199 425T152 444Q146 444 100 438Q91 447 91 457Q91 465 100 468Q140 476 166 497T192 554Q192 573 177 584T140 596Q121 596 106 587T81 568T67 558Q62 558 57 575T53 593Q97 647 174 647Z" />
<glyph unicode="&#xb4;" glyph-name="acute" horiz-adv-x="460" d="M633 687Q649 687 659 682T671 672T674 663Q674 638 603 583T518 527Q506 527 506 540Q506 543 521 568T559 626T599 678Q608 687 633 687Z" />
<glyph unicode="&#xb5;" glyph-name="uni00B5" horiz-adv-x="509" d="M192 -9Q185 -9 179 -8T168 -2T159 5T151 15T144 26T138 39T133 51T128 64T124 76Q124 75 125 23T131 -92T146 -207Q134 -227 122 -227Q113 -227 91 -213T69 -190Q69 -158 75 -10T90 204Q90
216 88 251T86 298V417Q98 437 110 437Q119 437 141 423T163 400Q163 354 140 246L135 223Q135 157 148 111T186 64Q232 64 268 113T328 227V298V417Q340 437 352 437Q361 437 383 423T405 400Q405 354 382 246L377 223Q375 67 435 67Q452 67 468 77T492 97Q496
97 502 87Q505 81 505 76Q495 43 469 20T412 -4Q390 -4 375 18T354 64T342 128Q283 -9 192 -9Z" />
<glyph unicode="&#xb6;" glyph-name="paragraph" horiz-adv-x="496" d="M284 286L286 49Q286 36 310 36Q317 36 323 40T330 50Q334 95 334 295Q334 299 330 299Q329 299 325 298T311 296T291 293Q284 292 284 286ZM217 652Q246 652 272 650T328 648L441 653Q445
649 445 637T441 624Q428 624 406 618T380 604Q377 594 377 500Q377 464 377 409T378 350Q378 344 383 346L426 354Q430 346 430 341Q428 321 410 316L384 309Q379 306 379 304Q379 71 386 45Q389 37 413 30T450 23Q454 23 454 11Q454 0 450 -4Q431 -3 378 -1T289
2Q269 2 249 1T206 -1T170 -4Q168 0 168 11T172 23Q181 23 206 30T233 45Q238 66 238 183V284Q238 291 218 291Q139 291 93 349T46 469Q46 547 99 599T217 652ZM286 599Q284 440 284 338Q284 332 292 332L329 338Q334 338 334 344Q334 574 332 600Q332 603 324
607T309 611Q286 611 286 599Z" />
<glyph unicode="&#xb7;" glyph-name="middot" horiz-adv-x="203" d="M47 240T47 264T64 305T105 322T146 305T163 264T146 223T105 205T64 222Z" />
<glyph unicode="&#xb8;" glyph-name="cedilla" horiz-adv-x="460" d="M680 -27H705Q724 -27 736 -41T749 -76Q749 -110 722 -131T655 -152Q634 -152 621 -143Q621 -142 620 -138T618 -129Q618 -124 622 -120T632 -115Q638 -115 649 -121T669 -128Q689 -128 700
-119T712 -95Q712 -79 702 -70T681 -61Q672 -61 655 -68Q653 -68 649 -63T645 -55Q649 -49 661 -31T677 -4H698L680 -27Z" />
<glyph unicode="&#xb9;" glyph-name="uni00B9" horiz-adv-x="272" d="M38 554Q37 554 35 555T31 557T28 560T25 564T24 570Q24 576 27 578Q74 597 111 616T162 644L177 652H179Q183 652 191 629Q182 587 182 548V340Q182 311 190 293Q192 288 212 284T241 279Q245
279 245 263Q245 255 244 253Q232 253 200 254T146 256Q123 256 90 255T46 253Q42 255 42 266T46 278Q57 278 78 282T102 292Q108 308 108 323V518Q108 550 104 559T89 569Q81 569 38 554Z" />
<glyph unicode="&#xba;" glyph-name="ordmasculine" horiz-adv-x="370" d="M180 529Q141 529 120 494T98 411Q98 356 123 314T195 271Q233 271 252 307T272 391Q272 446 249 487T180 529ZM187 554Q251 554 296 508T341 399T297 292T187 247T76 292T29 399Q29 463
75 508T187 554Z" />
<glyph unicode="&#xbb;" glyph-name="guillemotright" horiz-adv-x="471" d="M51 73Q28 79 28 91Q28 93 28 95T31 100T35 105T43 113T54 124T69 138T88 157L175 247Q168 254 134 289T87 338Q43 381 35 389T27 404Q27 408 30 411T36 416T44 420T50 423Q128 345
255 268Q264 258 264 241Q264 230 256 227Q198 190 150 154T81 100T51 73ZM230 73Q207 79 207 91Q207 94 208 97T214 105T224 115T242 132T268 157L355 247Q348 254 314 289T267 338Q208 395 207 400Q206 402 206 404Q206 408 209 411T215 416T223 420T229 423Q305
347 435 268Q443 259 443 241Q443 230 436 227Q378 190 330 154T260 100T230 73Z" />
<glyph unicode="&#xbc;" glyph-name="onequarter" horiz-adv-x="670" d="M573 -5Q554 -5 546 -4T536 -2T533 4V112Q532 115 528 115H379Q367 130 366 141L562 390Q568 398 585 398T602 390V163Q602 159 607 159H634Q641 159 643 152T646 121Q646 119 645 118T642
116L640 115L605 114Q602 114 602 109V0Q597 -5 573 -5ZM533 163V292Q532 296 528 296Q503 266 473 227T425 166Q422 163 427 159Q428 158 429 158H527Q533 158 533 163ZM556 617L208 -14Q208 -16 204 -16Q185 -16 170 3L169 10L517 642Q519 645 523 645Q537 645
553 628Q555 626 556 623T556 618V617ZM37 540Q36 540 34 541T30 543T27 546T24 550T23 556Q23 562 32 565T80 587T167 638H170Q173 638 181 614Q172 573 172 534V338Q172 309 180 291Q182 286 202 281T231 276Q236 276 236 261Q236 253 235 251Q222 251 192 252T140
254T88 253T44 251Q40 253 40 264T44 275Q55 275 74 280T96 290Q102 306 102 321V504Q102 526 100 537T94 552T85 555Q80 555 37 540Z" />
<glyph unicode="&#xbd;" glyph-name="onehalf" horiz-adv-x="721" d="M630 56Q648 56 658 66T672 87T677 98Q691 98 697 90Q694 80 677 0H425Q414 6 414 22Q414 27 417 33Q422 39 447 66T483 104T515 141T547 181T571 216T590 251T596 279Q596 302 580 321T535
340Q517 340 496 329T462 300Q460 297 454 299T447 304Q439 327 441 329Q461 355 495 374T563 393Q609 393 641 362T673 288Q673 261 664 237T632 187T594 147T544 103T498 63Q497 62 497 59T499 56H630ZM556 618L208 -14Q208 -16 204 -16Q185 -16 170 3Q168 5
168 7T168 10L169 11L517 643Q518 645 522 645T541 637T557 622Q557 620 556 619V618ZM167 638H170Q173 638 181 614Q172 573 172 534V338Q172 309 180 291Q182 286 202 281T231 276Q236 276 236 261Q236 253 235 251Q222 251 192 252T140 254T88 253T44 251Q40
253 40 264T44 275Q55 275 74 280T96 290Q102 306 102 321V504Q102 526 100 537T94 552T85 555Q80 555 37 540Q36 540 34 541T30 543T27 546T24 550T23 556Q23 562 32 565T80 587T167 638Z" />
<glyph unicode="&#xbe;" glyph-name="threequarters" horiz-adv-x="694" d="M173 647Q201 647 229 626T257 569Q257 548 246 532T225 507T190 484Q217 484 251 457T286 385Q286 322 232 285T108 247Q79 247 55 255T25 273V280Q25 295 33 306T54 317Q68 317 89
300T127 283Q162 283 189 305T216 371Q216 406 198 425T150 444Q146 444 99 438Q90 447 90 457Q90 465 99 468Q139 476 164 497T190 554Q190 573 175 584T139 596Q120 596 104 587T79 568T65 558Q60 558 56 574T52 593Q96 647 173 647ZM597 -5Q578 -5 570 -4T560
-2T557 4V112Q556 115 552 115H403Q391 130 390 141L586 390Q592 398 609 398T626 390V163Q626 159 631 159H658Q665 159 667 152T670 121Q670 119 669 118T666 116L664 115L629 114Q626 114 626 109V0Q621 -5 597 -5ZM557 163V292Q556 296 552 296Q527 266 497
227T449 166Q446 163 451 159Q452 158 453 158H551Q557 158 557 163ZM228 -16Q218 -16 205 -7T192 7L193 10L541 642Q542 645 546 645Q561 645 577 628Q579 626 580 623T580 618V617L232 -14Q232 -16 228 -16Z" />
<glyph unicode="&#xbf;" glyph-name="questiondown" horiz-adv-x="310" d="M231 -142Q247 -142 262 -151T278 -182Q278 -203 270 -216Q250 -226 220 -226Q184 -226 140 -205T60 -140T24 -41Q24 11 46 45T125 112Q146 124 172 145T203 174Q213 192 213 243Q213
256 233 256Q246 256 246 248Q246 235 246 202T247 154Q247 142 246 132T240 112T234 95T223 80T213 68T200 57T187 48T174 39T161 31Q136 15 126 8T100 -11T80 -35T74 -60Q74 -103 98 -126T154 -149Q184 -149 202 -146T231 -142ZM284 395T284 371T267 331T226
314T185 330T168 371T185 412T226 430T267 413Z" />
<glyph unicode="&#xc0;" glyph-name="Agrave" horiz-adv-x="684" d="M365 660L565 132Q583 85 594 60Q600 45 625 36T662 26Q666 26 666 7Q666 3 664 -3Q564 2 554 2Q553 2 438 -3Q434 1 434 13T439 26Q451 26 469 31T490 44Q492 52 492 60Q492 73 489 90T482
118L478 129L437 242Q434 246 431 246Q392 249 355 249Q303 249 228 244L223 241L180 131Q163 81 163 62Q163 48 171 42Q180 35 200 31T229 26Q232 26 232 14T231 -3Q131 2 128 2Q108 2 93 1T60 -1T24 -3Q20 1 20 12Q20 26 24 26Q36 26 55 31T81 45Q102 72 128
139L302 586Q304 591 307 602T313 618T319 632T326 645T333 654T343 661T356 663L365 660ZM249 299Q301 297 320 297Q364 297 411 300L414 305L333 526L247 303Q247 299 249 299ZM391 741Q391 728 381 728Q362 728 282 768T202 831Q202 842 215 851T254 861Q266
861 272 858Q299 838 345 793T391 741Z" />
<glyph unicode="&#xc1;" glyph-name="Aacute" horiz-adv-x="684" d="M365 660L565 132Q583 85 594 60Q600 45 625 36T662 26Q666 26 666 7Q666 3 664 -3Q564 2 554 2Q553 2 438 -3Q434 1 434 13T439 26Q451 26 469 31T490 44Q492 52 492 60Q492 73 489 90T482
118L478 129L437 242Q434 246 431 246Q392 249 355 249Q303 249 228 244L223 241L180 131Q163 81 163 62Q163 48 171 42Q180 35 200 31T229 26Q232 26 232 14T231 -3Q131 2 128 2Q108 2 93 1T60 -1T24 -3Q20 1 20 12Q20 26 24 26Q36 26 55 31T81 45Q102 72 128
139L302 586Q304 591 307 602T313 618T319 632T326 645T333 654T343 661T356 663L365 660ZM249 299Q301 297 320 297Q364 297 411 300L414 305L333 526L247 303Q247 299 249 299ZM301 741Q301 748 347 793T420 858Q426 861 438 861Q464 861 477 852T490 831Q490
808 410 768T311 728Q301 728 301 741Z" />
<glyph unicode="&#xc2;" glyph-name="Acircumflex" horiz-adv-x="684" d="M365 660L565 132Q583 85 594 60Q600 45 625 36T662 26Q666 26 666 7Q666 3 664 -3Q564 2 554 2Q553 2 438 -3Q434 1 434 13T439 26Q451 26 469 31T490 44Q492 52 492 60Q492 73 489 90T482
118L478 129L437 242Q434 246 431 246Q392 249 355 249Q303 249 228 244L223 241L180 131Q163 81 163 62Q163 48 171 42Q180 35 200 31T229 26Q232 26 232 14T231 -3Q131 2 128 2Q108 2 93 1T60 -1T24 -3Q20 1 20 12Q20 26 24 26Q36 26 55 31T81 45Q102 72 128
139L302 586Q304 591 307 602T313 618T319 632T326 645T333 654T343 661T356 663L365 660ZM249 299Q301 297 320 297Q364 297 411 300L414 305L333 526L247 303Q247 299 249 299ZM460 698Q441 698 355 756Q331 738 296 718T252 698Q242 698 242 718Q246 722 267
741T303 774Q331 800 345 820Q352 828 355 828Q361 828 366 820Q387 792 407 772Q420 760 435 747T460 726T469 718Q469 698 460 698Z" />
<glyph unicode="&#xc3;" glyph-name="Atilde" horiz-adv-x="684" d="M434 766Q470 766 485 800Q487 801 491 801Q500 801 500 785Q500 757 473 736T422 715Q393 715 351 736T282 758Q249 758 233 723Q231 722 227 722Q218 722 218 738Q218 766 245 787T296 808Q324
808 365 787T434 766ZM365 660L565 132Q583 85 594 60Q600 45 625 36T662 26Q666 26 666 7Q666 3 664 -3Q564 2 554 2Q553 2 438 -3Q434 1 434 13T439 26Q451 26 469 31T490 44Q492 52 492 60Q492 73 489 90T482 118L478 129L437 242Q434 246 431 246Q392 249 355
249Q303 249 228 244L223 241L180 131Q163 81 163 62Q163 48 171 42Q180 35 200 31T229 26Q232 26 232 14T231 -3Q131 2 128 2Q108 2 93 1T60 -1T24 -3Q20 1 20 12Q20 26 24 26Q36 26 55 31T81 45Q102 72 128 139L302 586Q304 591 307 602T313 618T319 632T326
645T333 654T343 661T356 663L365 660ZM249 299Q301 297 320 297Q364 297 411 300L414 305L333 526L247 303Q247 299 249 299Z" />
<glyph unicode="&#xc4;" glyph-name="Adieresis" horiz-adv-x="684" d="M365 660L565 132Q583 85 594 60Q600 45 625 36T662 26Q666 26 666 7Q666 3 664 -3Q564 2 554 2Q553 2 438 -3Q434 1 434 13T439 26Q451 26 469 31T490 44Q492 52 492 60Q492 73 489 90T482
118L478 129L437 242Q434 246 431 246Q392 249 355 249Q303 249 228 244L223 241L180 131Q163 81 163 62Q163 48 171 42Q180 35 200 31T229 26Q232 26 232 14T231 -3Q131 2 128 2Q108 2 93 1T60 -1T24 -3Q20 1 20 12Q20 26 24 26Q36 26 55 31T81 45Q102 72 128
139L302 586Q304 591 307 602T313 618T319 632T326 645T333 654T343 661T356 663L365 660ZM249 299Q301 297 320 297Q364 297 411 300L414 305L333 526L247 303Q247 299 249 299ZM398 757T398 778T412 813T448 828T483 814T498 778T484 743T448 728T413 742ZM217
757T217 778T231 813T267 828T302 814T317 778T303 743T267 728T232 742Z" />
<glyph unicode="&#xc5;" glyph-name="Aring" horiz-adv-x="684" d="M403 660L603 132Q621 85 632 60Q638 45 663 36T700 26Q704 26 704 7Q704 3 702 -3Q602 2 592 2Q591 2 476 -3Q472 1 472 13T477 26Q489 26 507 31T528 44Q530 52 530 60Q530 73 527 90T520 118L516
129L475 242Q472 246 469 246Q430 249 393 249Q341 249 266 244L261 241L218 131Q201 81 201 62Q201 48 209 42Q218 35 238 31T267 26Q270 26 270 14T269 -3Q169 2 166 2Q146 2 131 1T98 -1T62 -3Q58 1 58 12Q58 26 62 26Q74 26 93 31T119 45Q140 72 166 139L340
586Q342 591 345 602T351 618T357 632T364 645T371 654T381 661T394 663L403 660ZM287 299Q339 297 358 297Q402 297 449 300L452 305L371 526L285 303Q285 299 287 299ZM337 775T337 752T353 713T393 696Q415 696 431 712T447 752T432 791T393 807T354 791ZM304
715T304 752T330 815T393 841T454 815T480 752T455 689T393 662T331 688Z" />
<glyph unicode="&#xc6;" glyph-name="AE" horiz-adv-x="982" d="M485 297Q497 297 497 308V523Q497 531 488 531Q484 531 479 524Q479 524 342 301Q341 297 343 297Q395 295 413 295Q433 295 485 297ZM408 247Q386 247 309 242Q309 242 304 239L235 129Q206 79
202 60Q199 47 206 40Q220 26 260 26Q262 26 260 14T255 -3Q195 0 153 0Q117 0 48 -3Q46 -1 48 10Q51 26 55 26Q99 26 116 43Q143 68 185 137L462 584Q469 596 469 604Q469 616 453 622T424 629Q420 629 420 643Q420 654 424 658Q473 656 540 656Q584 656 695 660T863
664Q867 635 878 588T892 528Q887 523 874 523T860 530Q845 585 818 600T744 616H677Q591 616 589 603Q584 579 584 519V359Q584 353 627 353H680Q708 353 720 353T747 357T765 362T775 375T783 392T790 421Q791 428 805 428Q817 428 822 423V234Q818 230 806 230Q793
230 790 238Q783 265 778 278T771 294T762 301Q749 309 656 309Q584 309 584 300V145Q584 80 593 54Q596 44 661 44H709Q802 44 835 61Q850 69 868 96T898 162Q900 168 912 168Q931 168 937 162Q932 149 922 121T905 75T892 34T883 -4Q826 -4 706 -1T542 2L424
-3Q420 1 420 12Q420 26 424 26Q436 26 461 33T490 49Q497 76 497 135V233Q497 241 484 244Q463 247 408 247Z" />
<glyph unicode="&#xc7;" glyph-name="Ccedilla" horiz-adv-x="656" d="M634 183Q634 172 620 107T600 38Q527 -6 361 -6Q229 -6 137 91T44 322Q44 464 139 565T372 667Q490 667 615 642Q613 508 613 498Q613 483 592 483Q582 483 579 488Q576 501 572 514T553
549T518 586T460 613T375 625Q277 625 208 539T139 343Q139 262 167 194T255 82T399 37Q498 37 552 95Q566 110 576 134T592 175T601 192Q607 192 615 190T629 186L634 183ZM371 -27H401Q424 -27 438 -44T453 -85Q453 -125 421 -149T342 -174Q316 -174 302 -164Q302
-162 300 -157T298 -147Q298 -141 303 -136T315 -131T334 -138T358 -146Q382 -146 395 -135T409 -107Q409 -88 398 -78T373 -67Q361 -67 342 -75Q340 -75 335 -69T330 -60Q333 -55 348 -33T368 0H393L371 -27Z" />
<glyph unicode="&#xc8;" glyph-name="Egrave" horiz-adv-x="571" d="M152 656Q197 656 308 660T475 664Q479 635 490 588T504 528Q499 523 486 523T472 530Q457 585 430 600T356 616H289Q203 616 201 603Q196 579 196 519V359Q196 353 239 353H292Q320 353 332
353T359 357T377 362T387 375T395 392T402 421Q403 428 417 428Q429 428 434 423V234Q430 230 418 230Q405 230 402 238Q395 265 390 278T383 294T374 301Q361 309 268 309Q196 309 196 300V145Q196 80 205 54Q208 44 273 44H321Q414 44 447 61Q462 69 480 96T510
162Q512 168 524 168Q543 168 549 162Q544 149 534 121T517 75T504 34T495 -4Q444 -4 334 -2T154 0L33 -3Q30 0 30 13T33 26Q46 26 71 33T102 49Q109 61 109 143V521Q109 580 102 607Q99 615 73 622T33 629Q29 629 29 641Q29 654 33 658Q85 656 152 656ZM335 741Q335
728 325 728Q306 728 226 768T146 831Q146 842 159 851T198 861Q210 861 216 858Q243 838 289 793T335 741Z" />
<glyph unicode="&#xc9;" glyph-name="Eacute" horiz-adv-x="571" d="M152 656Q197 656 308 660T475 664Q479 635 490 588T504 528Q499 523 486 523T472 530Q457 585 430 600T356 616H289Q203 616 201 603Q196 579 196 519V359Q196 353 239 353H292Q320 353 332
353T359 357T377 362T387 375T395 392T402 421Q403 428 417 428Q429 428 434 423V234Q430 230 418 230Q405 230 402 238Q395 265 390 278T383 294T374 301Q361 309 268 309Q196 309 196 300V145Q196 80 205 54Q208 44 273 44H321Q414 44 447 61Q462 69 480 96T510
162Q512 168 524 168Q543 168 549 162Q544 149 534 121T517 75T504 34T495 -4Q444 -4 334 -2T154 0L33 -3Q30 0 30 13T33 26Q46 26 71 33T102 49Q109 61 109 143V521Q109 580 102 607Q99 615 73 622T33 629Q29 629 29 641Q29 654 33 658Q85 656 152 656ZM244 741Q244
748 290 793T363 858Q369 861 381 861Q407 861 420 852T433 831Q433 808 353 768T254 728Q244 728 244 741Z" />
<glyph unicode="&#xca;" glyph-name="Ecircumflex" horiz-adv-x="571" d="M152 656Q197 656 308 660T475 664Q479 635 490 588T504 528Q499 523 486 523T472 530Q457 585 430 600T356 616H289Q203 616 201 603Q196 579 196 519V359Q196 353 239 353H292Q320 353
332 353T359 357T377 362T387 375T395 392T402 421Q403 428 417 428Q429 428 434 423V234Q430 230 418 230Q405 230 402 238Q395 265 390 278T383 294T374 301Q361 309 268 309Q196 309 196 300V145Q196 80 205 54Q208 44 273 44H321Q414 44 447 61Q462 69 480
96T510 162Q512 168 524 168Q543 168 549 162Q544 149 534 121T517 75T504 34T495 -4Q444 -4 334 -2T154 0L33 -3Q30 0 30 13T33 26Q46 26 71 33T102 49Q109 61 109 143V521Q109 580 102 607Q99 615 73 622T33 629Q29 629 29 641Q29 654 33 658Q85 656 152 656ZM388
698Q369 698 283 756Q259 738 224 718T180 698Q170 698 170 718Q174 722 195 741T231 774Q259 800 273 820Q280 828 283 828Q289 828 294 820Q315 792 335 772Q348 760 363 747T388 726T397 718Q397 698 388 698Z" />
<glyph unicode="&#xcb;" glyph-name="Edieresis" horiz-adv-x="571" d="M152 656Q197 656 308 660T475 664Q479 635 490 588T504 528Q499 523 486 523T472 530Q457 585 430 600T356 616H289Q203 616 201 603Q196 579 196 519V359Q196 353 239 353H292Q320 353
332 353T359 357T377 362T387 375T395 392T402 421Q403 428 417 428Q429 428 434 423V234Q430 230 418 230Q405 230 402 238Q395 265 390 278T383 294T374 301Q361 309 268 309Q196 309 196 300V145Q196 80 205 54Q208 44 273 44H321Q414 44 447 61Q462 69 480
96T510 162Q512 168 524 168Q543 168 549 162Q544 149 534 121T517 75T504 34T495 -4Q444 -4 334 -2T154 0L33 -3Q30 0 30 13T33 26Q46 26 71 33T102 49Q109 61 109 143V521Q109 580 102 607Q99 615 73 622T33 629Q29 629 29 641Q29 654 33 658Q85 656 152 656ZM325
757T325 778T339 813T375 828T410 814T425 778T411 743T375 728T340 742ZM144 757T144 778T158 813T194 828T229 814T244 778T230 743T194 728T159 742Z" />
<glyph unicode="&#xcc;" glyph-name="Igrave" horiz-adv-x="318" d="M116 523Q116 585 109 612Q106 620 81 626T42 633Q38 633 38 646Q38 658 42 662Q157 657 162 657Q178 657 278 662Q280 656 280 647Q280 633 276 633Q266 633 240 626T212 612Q203 577 203 519V139Q203
81 212 46Q214 39 240 33T276 26Q280 26 280 11Q280 3 278 -3Q178 2 162 2Q157 2 42 -3Q38 1 38 12Q38 26 42 26Q55 26 80 32T109 46Q116 73 116 135V523ZM225 741Q225 728 215 728Q196 728 116 768T36 831Q36 842 49 851T88 861Q100 861 106 858Q133 838 179 793T225
741Z" />
<glyph unicode="&#xcd;" glyph-name="Iacute" horiz-adv-x="318" d="M116 523Q116 585 109 612Q106 620 81 626T42 633Q38 633 38 646Q38 658 42 662Q157 657 162 657Q178 657 278 662Q280 656 280 647Q280 633 276 633Q266 633 240 626T212 612Q203 577 203 519V139Q203
81 212 46Q214 39 240 33T276 26Q280 26 280 11Q280 3 278 -3Q178 2 162 2Q157 2 42 -3Q38 1 38 12Q38 26 42 26Q55 26 80 32T109 46Q116 73 116 135V523ZM111 741Q111 748 157 793T230 858Q236 861 248 861Q274 861 287 852T300 831Q300 808 220 768T121 728Q111
728 111 741Z" />
<glyph unicode="&#xce;" glyph-name="Icircumflex" horiz-adv-x="318" d="M116 523Q116 585 109 612Q106 620 81 626T42 633Q38 633 38 646Q38 658 42 662Q157 657 162 657Q178 657 278 662Q280 656 280 647Q280 633 276 633Q266 633 240 626T212 612Q203 577
203 519V139Q203 81 212 46Q214 39 240 33T276 26Q280 26 280 11Q280 3 278 -3Q178 2 162 2Q157 2 42 -3Q38 1 38 12Q38 26 42 26Q55 26 80 32T109 46Q116 73 116 135V523ZM270 961Q251 961 165 1019Q141 1001 106 981T62 961Q52 961 52 981Q56 985 77 1004T113
1037Q141 1063 155 1083Q162 1091 165 1091Q171 1091 176 1083Q197 1055 217 1035Q230 1023 245 1010T270 989T279 981Q279 961 270 961Z" />
<glyph unicode="&#xcf;" glyph-name="Idieresis" horiz-adv-x="318" d="M116 523Q116 585 109 612Q106 620 81 626T42 633Q38 633 38 646Q38 658 42 662Q157 657 162 657Q178 657 278 662Q280 656 280 647Q280 633 276 633Q266 633 240 626T212 612Q203 577 203
519V139Q203 81 212 46Q214 39 240 33T276 26Q280 26 280 11Q280 3 278 -3Q178 2 162 2Q157 2 42 -3Q38 1 38 12Q38 26 42 26Q55 26 80 32T109 46Q116 73 116 135V523ZM461 757T461 778T475 813T511 828T546 814T561 778T547 743T511 728T476 742ZM280 757T280
778T294 813T330 828T365 814T380 778T366 743T330 728T295 742Z" />
<glyph unicode="&#xd0;" glyph-name="Eth" horiz-adv-x="731" d="M71 348Q71 348 416 348Q422 348 422 338Q422 322 416 308Q416 308 70 308Q65 308 65 321Q65 339 71 348ZM174 656Q210 656 269 657T348 658Q511 658 602 562T693 336Q693 191 601 94T347 -3Q335
-3 275 -1T176 0L55 -3Q52 0 52 12Q52 26 55 26Q68 26 93 33T124 49Q131 61 131 143V521Q131 580 124 607Q121 615 95 622T55 629Q51 629 51 641Q51 654 55 658Q107 656 174 656ZM218 535V139Q218 97 233 63Q237 53 286 48T363 43Q478 43 537 118T597 340Q597 453
535 533T356 614H351Q243 614 231 598Q218 580 218 535Z" />
<glyph unicode="&#xd1;" glyph-name="Ntilde" horiz-adv-x="721" d="M434 766Q470 766 485 800Q487 801 491 801Q500 801 500 785Q500 757 473 736T422 715Q393 715 351 736T282 758Q249 758 233 723Q231 722 227 722Q218 722 218 738Q218 766 245 787T296 808Q324
808 365 787T434 766ZM551 524Q551 585 544 612Q541 620 510 627T465 635Q461 635 461 646T465 662Q478 661 517 659T583 656Q609 656 648 659T695 662Q697 656 697 647Q697 635 693 635Q683 635 650 627T614 612Q606 581 606 519V139Q606 77 609 -1Q605 -5 590
-5Q573 -5 557 18L169 568V141Q169 75 176 48Q178 41 209 34T251 26Q254 26 254 14T253 -3Q153 2 138 2L23 -3Q20 0 20 12Q20 26 23 26Q37 26 68 33T103 50Q113 76 113 144V537Q113 586 106 612Q103 620 72 626T27 633Q23 633 23 645T27 662Q105 660 129 660Q181
660 209 662Q246 594 548 172Q551 189 551 213V524Z" />
<glyph unicode="&#xd2;" glyph-name="Ograve" horiz-adv-x="728" d="M348 625Q253 625 198 542T143 350Q143 270 169 199T250 81T379 33Q443 33 491 74T561 177T584 309Q584 389 558 459T477 577T348 625ZM44 188T44 328T137 567T363 667T589 568T683 328T589
89T363 -10T138 89ZM416 741Q416 728 406 728Q387 728 307 768T227 831Q227 842 240 851T279 861Q291 861 297 858Q324 838 370 793T416 741Z" />
<glyph unicode="&#xd3;" glyph-name="Oacute" horiz-adv-x="728" d="M348 625Q253 625 198 542T143 350Q143 270 169 199T250 81T379 33Q443 33 491 74T561 177T584 309Q584 389 558 459T477 577T348 625ZM44 188T44 328T137 567T363 667T589 568T683 328T589
89T363 -10T138 89ZM306 741Q306 748 352 793T425 858Q431 861 443 861Q469 861 482 852T495 831Q495 808 415 768T316 728Q306 728 306 741Z" />
<glyph unicode="&#xd4;" glyph-name="Ocircumflex" horiz-adv-x="728" d="M348 625Q253 625 198 542T143 350Q143 270 169 199T250 81T379 33Q443 33 491 74T561 177T584 309Q584 389 558 459T477 577T348 625ZM44 188T44 328T137 567T363 667T589 568T683 328T589
89T363 -10T138 89ZM473 698Q454 698 368 756Q344 738 309 718T265 698Q255 698 255 718Q259 722 280 741T316 774Q344 800 358 820Q365 828 368 828Q374 828 379 820Q400 792 420 772Q433 760 448 747T473 726T482 718Q482 698 473 698Z" />
<glyph unicode="&#xd5;" glyph-name="Otilde" horiz-adv-x="728" d="M348 625Q253 625 198 542T143 350Q143 270 169 199T250 81T379 33Q443 33 491 74T561 177T584 309Q584 389 558 459T477 577T348 625ZM44 188T44 328T137 567T363 667T589 568T683 328T589
89T363 -10T138 89ZM434 766Q470 766 485 800Q487 801 491 801Q500 801 500 785Q500 757 473 736T422 715Q393 715 351 736T282 758Q249 758 233 723Q231 722 227 722Q218 722 218 738Q218 766 245 787T296 808Q324 808 365 787T434 766Z" />
<glyph unicode="&#xd6;" glyph-name="Odieresis" horiz-adv-x="728" d="M348 625Q253 625 198 542T143 350Q143 270 169 199T250 81T379 33Q443 33 491 74T561 177T584 309Q584 389 558 459T477 577T348 625ZM44 188T44 328T137 567T363 667T589 568T683 328T589
89T363 -10T138 89ZM409 757T409 778T423 813T459 828T494 814T509 778T495 743T459 728T424 742ZM228 757T228 778T242 813T278 828T313 814T328 778T314 743T278 728T243 742Z" />
<glyph unicode="&#xd7;" glyph-name="multiply" horiz-adv-x="414" d="M56 60Q51 60 39 80T27 108L165 243Q166 244 166 246Q166 249 164 251L27 388Q27 398 40 416T58 435Q59 435 63 431L205 290Q207 288 209 288L211 289L352 430Q355 433 357 433Q362 433 374
413T386 384L251 249Q250 248 250 246V244L386 108Q386 97 376 79T360 60Q355 60 352 63L212 203Q210 205 208 205T204 203L61 63Q58 60 56 60Z" />
<glyph unicode="&#xd8;" glyph-name="Oslash" horiz-adv-x="696" d="M332 625Q237 625 182 542T127 350Q127 270 153 199T234 81T363 33Q427 33 475 74T545 177T568 309Q568 389 542 459T461 577T332 625ZM540 667Q548 665 560 657T569 645L151 -13Q142 -10 131
-2T122 10L540 667ZM215 667T347 667T573 568T667 328T573 89T347 -10T122 89T28 328T121 567Z" />
<glyph unicode="&#xd9;" glyph-name="Ugrave" horiz-adv-x="719" d="M157 657Q173 657 273 662Q275 656 275 648Q275 633 271 633Q261 633 235 626T207 612Q198 577 198 519V296Q198 183 246 116T382 49Q553 49 553 274V524Q553 585 546 612Q543 620 512 627T467
635Q463 635 463 646T467 662Q480 661 519 659T585 656Q611 656 650 659T697 662Q699 656 699 647Q699 635 695 635Q685 635 652 627T616 612Q608 581 608 519V276Q608 121 543 61T358 0Q239 0 175 70T111 296V523Q111 585 104 612Q101 620 76 626T37 633Q33 633
33 646Q33 658 37 662Q152 657 157 657ZM423 741Q423 728 413 728Q394 728 314 768T234 831Q234 842 247 851T286 861Q298 861 304 858Q331 838 377 793T423 741Z" />
<glyph unicode="&#xda;" glyph-name="Uacute" horiz-adv-x="719" d="M157 657Q173 657 273 662Q275 656 275 648Q275 633 271 633Q261 633 235 626T207 612Q198 577 198 519V296Q198 183 246 116T382 49Q553 49 553 274V524Q553 585 546 612Q543 620 512 627T467
635Q463 635 463 646T467 662Q480 661 519 659T585 656Q611 656 650 659T697 662Q699 656 699 647Q699 635 695 635Q685 635 652 627T616 612Q608 581 608 519V276Q608 121 543 61T358 0Q239 0 175 70T111 296V523Q111 585 104 612Q101 620 76 626T37 633Q33 633
33 646Q33 658 37 662Q152 657 157 657ZM307 741Q307 748 353 793T426 858Q432 861 444 861Q470 861 483 852T496 831Q496 808 416 768T317 728Q307 728 307 741Z" />
<glyph unicode="&#xdb;" glyph-name="Ucircumflex" horiz-adv-x="719" d="M157 657Q173 657 273 662Q275 656 275 648Q275 633 271 633Q261 633 235 626T207 612Q198 577 198 519V296Q198 183 246 116T382 49Q553 49 553 274V524Q553 585 546 612Q543 620 512
627T467 635Q463 635 463 646T467 662Q480 661 519 659T585 656Q611 656 650 659T697 662Q699 656 699 647Q699 635 695 635Q685 635 652 627T616 612Q608 581 608 519V276Q608 121 543 61T358 0Q239 0 175 70T111 296V523Q111 585 104 612Q101 620 76 626T37 633Q33
633 33 646Q33 658 37 662Q152 657 157 657ZM477 698Q458 698 372 756Q348 738 313 718T269 698Q259 698 259 718Q263 722 284 741T320 774Q348 800 362 820Q369 828 372 828Q378 828 383 820Q404 792 424 772Q437 760 452 747T477 726T486 718Q486 698 477 698Z"
/>
<glyph unicode="&#xdc;" glyph-name="Udieresis" horiz-adv-x="719" d="M157 657Q173 657 273 662Q275 656 275 648Q275 633 271 633Q261 633 235 626T207 612Q198 577 198 519V296Q198 183 246 116T382 49Q553 49 553 274V524Q553 585 546 612Q543 620 512 627T467
635Q463 635 463 646T467 662Q480 661 519 659T585 656Q611 656 650 659T697 662Q699 656 699 647Q699 635 695 635Q685 635 652 627T616 612Q608 581 608 519V276Q608 121 543 61T358 0Q239 0 175 70T111 296V523Q111 585 104 612Q101 620 76 626T37 633Q33 633
33 646Q33 658 37 662Q152 657 157 657ZM412 757T412 778T426 813T462 828T497 814T512 778T498 743T462 728T427 742ZM231 757T231 778T245 813T281 828T316 814T331 778T317 743T281 728T246 742Z" />
<glyph unicode="&#xdd;" glyph-name="Yacute" horiz-adv-x="649" d="M139 656Q151 656 271 662Q273 658 273 647T269 635Q252 635 231 627T209 601Q209 590 220 571L332 359Q337 354 342 361Q478 567 478 602Q478 613 458 624T409 635Q405 635 405 646T409 662Q520
656 527 656Q558 656 591 659T633 662Q635 656 635 647Q635 635 631 635Q619 635 589 626T549 604Q511 545 439 425T366 291V139Q366 77 374 46Q376 39 401 32T435 24Q439 24 439 11Q439 3 437 -3Q337 2 325 2Q322 2 207 -3Q203 1 203 11Q203 24 207 24Q219 24
243 31T271 46Q279 77 279 142V267Q279 281 258 322T133 549Q117 579 109 590T84 613Q73 621 51 628T19 635Q15 635 15 646Q15 658 19 662Q35 661 73 659T139 656ZM307 741Q307 748 353 793T426 858Q432 861 444 861Q470 861 483 852T496 831Q496 808 416 768T317
728Q307 728 307 741Z" />
<glyph unicode="&#xde;" glyph-name="Thorn" horiz-adv-x="556" d="M174 657Q190 657 290 662Q292 656 292 647Q292 633 288 633Q278 633 252 626T224 612Q215 578 215 524V504Q215 497 219 497Q220 497 232 500T265 507T313 511Q346 511 379 501T444 471T496
414T516 328Q516 299 504 266T467 201T403 149T312 128Q256 128 235 156Q229 163 232 179Q233 183 235 182Q265 171 302 171Q352 171 388 213T424 313Q424 384 393 425T297 467Q247 467 227 460Q215 456 215 423V139Q215 81 224 46Q226 39 252 33T288 26Q292 26
292 11Q292 3 290 -3Q190 2 174 2Q169 2 54 -3Q50 1 50 12Q50 26 54 26Q67 26 92 32T121 46Q128 73 128 135V523Q128 585 121 612Q118 620 93 626T54 633Q50 633 50 646Q50 658 54 662Q169 657 174 657Z" />
<glyph unicode="&#xdf;" glyph-name="germandbls" horiz-adv-x="578" d="M463 561Q463 523 442 490T394 438T347 398T325 359Q325 332 350 311T423 265Q446 253 460 244T493 218T521 182T531 137Q531 77 493 34T399 -10Q357 -10 324 4T281 33Q281 91 315 91Q326
91 335 81T350 57T370 34T400 23Q428 23 445 44T463 102Q463 129 443 150T394 185T336 216T287 260T267 325Q267 351 279 371T310 407T345 440T375 485T388 549Q388 599 363 629T290 660Q258 660 238 644T208 597T196 540T193 475L194 135Q194 73 201 46Q203 39
224 33T254 26Q257 26 258 14T257 -3Q157 2 155 2Q154 2 51 -3Q47 1 47 12Q47 26 51 26Q63 26 83 32T106 46Q115 81 115 135Q116 273 116 361Q116 369 111 369H58Q55 369 55 375Q55 385 60 400T70 416H111Q116 416 116 422V438Q116 563 162 628T287 693Q367 693
415 661T463 561Z" />
<glyph unicode="&#xe0;" glyph-name="agrave" horiz-adv-x="423" d="M157 50T184 50T236 66T261 100V203Q253 199 222 189T174 172T140 147T123 106Q123 79 140 65ZM234 436Q289 436 313 410T337 324V93Q337 72 348 58T378 44Q392 44 413 58Q417 58 417 50Q417
37 412 29Q371 -6 342 -6Q319 -6 298 13T269 53Q268 53 262 47T244 32T219 14T185 -1T145 -7Q99 -7 69 17T39 91Q39 113 50 132T76 164T117 190T161 209T210 226T252 241Q261 244 261 256V331Q261 363 241 380T193 398Q163 398 143 378T123 324Q123 289 82 289Q54
289 43 308Q43 351 106 393T234 436ZM87 889Q87 893 89 897T102 907T128 913Q153 913 162 904Q179 884 202 851T240 794T255 766Q255 753 243 753Q230 753 159 808T87 889Z" />
<glyph unicode="&#xe1;" glyph-name="aacute" horiz-adv-x="423" d="M157 50T184 50T236 66T261 100V203Q253 199 222 189T174 172T140 147T123 106Q123 79 140 65ZM234 436Q289 436 313 410T337 324V93Q337 72 348 58T378 44Q392 44 413 58Q417 58 417 50Q417
37 412 29Q371 -6 342 -6Q319 -6 298 13T269 53Q268 53 262 47T244 32T219 14T185 -1T145 -7Q99 -7 69 17T39 91Q39 113 50 132T76 164T117 190T161 209T210 226T252 241Q261 244 261 256V331Q261 363 241 380T193 398Q163 398 143 378T123 324Q123 289 82 289Q54
289 43 308Q43 351 106 393T234 436ZM288 913Q304 913 314 908T326 898T329 889Q329 864 258 809T173 753Q161 753 161 766Q161 769 176 794T214 852T254 904Q263 913 288 913Z" />
<glyph unicode="&#xe2;" glyph-name="acircumflex" horiz-adv-x="423" d="M157 50T184 50T236 66T261 100V203Q253 199 222 189T174 172T140 147T123 106Q123 79 140 65ZM234 436Q289 436 313 410T337 324V93Q337 72 348 58T378 44Q392 44 413 58Q417 58 417 50Q417
37 412 29Q371 -6 342 -6Q319 -6 298 13T269 53Q268 53 262 47T244 32T219 14T185 -1T145 -7Q99 -7 69 17T39 91Q39 113 50 132T76 164T117 190T161 209T210 226T252 241Q261 244 261 256V331Q261 363 241 380T193 398Q163 398 143 378T123 324Q123 289 82 289Q54
289 43 308Q43 351 106 393T234 436ZM296 467Q288 467 257 489T203 533Q181 512 151 490T113 467Q104 467 104 490Q107 494 126 515T158 553Q180 580 195 606Q201 616 203 616Q208 616 213 606Q237 567 249 551Q260 537 273 522T295 499T303 490Q303 467 296 467Z"
/>
<glyph unicode="&#xe3;" glyph-name="atilde" horiz-adv-x="423" d="M157 50T184 50T236 66T261 100V203Q253 199 222 189T174 172T140 147T123 106Q123 79 140 65ZM234 436Q289 436 313 410T337 324V93Q337 72 348 58T378 44Q392 44 413 58Q417 58 417 50Q417
37 412 29Q371 -6 342 -6Q319 -6 298 13T269 53Q268 53 262 47T244 32T219 14T185 -1T145 -7Q99 -7 69 17T39 91Q39 113 50 132T76 164T117 190T161 209T210 226T252 241Q261 244 261 256V331Q261 363 241 380T193 398Q163 398 143 378T123 324Q123 289 82 289Q54
289 43 308Q43 351 106 393T234 436ZM264 548Q300 548 315 582Q317 583 321 583Q330 583 330 567Q330 539 303 518T252 497Q223 497 181 518T112 540Q79 540 63 505Q61 504 57 504Q48 504 48 520Q48 548 75 569T126 590Q154 590 195 569T264 548Z" />
<glyph unicode="&#xe4;" glyph-name="adieresis" horiz-adv-x="423" d="M157 50T184 50T236 66T261 100V203Q253 199 222 189T174 172T140 147T123 106Q123 79 140 65ZM234 436Q289 436 313 410T337 324V93Q337 72 348 58T378 44Q392 44 413 58Q417 58 417 50Q417
37 412 29Q371 -6 342 -6Q319 -6 298 13T269 53Q268 53 262 47T244 32T219 14T185 -1T145 -7Q99 -7 69 17T39 91Q39 113 50 132T76 164T117 190T161 209T210 226T252 241Q261 244 261 256V331Q261 363 241 380T193 398Q163 398 143 378T123 324Q123 289 82 289Q54
289 43 308Q43 351 106 393T234 436ZM270 595T290 595T324 580T339 545T324 511T289 497T254 511T239 546T254 580ZM87 595T107 595T141 580T156 545T141 511T106 497T71 511T56 546T71 580Z" />
<glyph unicode="&#xe5;" glyph-name="aring" horiz-adv-x="423" d="M157 50T184 50T236 66T261 100V203Q253 199 222 189T174 172T140 147T123 106Q123 79 140 65ZM234 436Q289 436 313 410T337 324V93Q337 72 348 58T378 44Q392 44 413 58Q417 58 417 50Q417
37 412 29Q371 -6 342 -6Q319 -6 298 13T269 53Q268 53 262 47T244 32T219 14T185 -1T145 -7Q99 -7 69 17T39 91Q39 113 50 132T76 164T117 190T161 209T210 226T252 241Q261 244 261 256V331Q261 363 241 380T193 398Q163 398 143 378T123 324Q123 289 82 289Q54
289 43 308Q43 351 106 393T234 436ZM150 610T150 587T166 548T205 531Q227 531 243 547T259 587T244 626T205 642T166 626ZM117 550T117 587T143 650T205 676T266 650T292 587T267 524T205 497T143 523Z" />
<glyph unicode="&#xe6;" glyph-name="ae" horiz-adv-x="675" d="M272 100V203Q134 177 134 106Q134 79 151 65T195 50T247 66T272 100ZM464 399Q415 399 386 354T356 267Q356 261 362 261Q403 263 473 269T549 278Q554 279 554 287Q554 314 527 356T464 399ZM245
436Q278 436 305 422T341 382Q395 436 468 436Q514 436 548 420T599 376T623 321T631 265Q631 260 631 257T629 250T628 245T625 242T622 240T617 239T613 238T608 237T602 237Q501 229 363 222Q355 222 355 214Q355 150 398 104T504 58Q527 58 549 63T584 75T609
89T623 98Q629 98 629 85T622 65Q562 -6 480 -6Q375 -6 318 78Q294 49 250 21T156 -7Q110 -7 80 17T50 91Q50 124 71 151T127 196T195 224T263 241Q272 242 272 256V340Q272 365 252 381T204 398Q174 398 154 378T134 324Q134 289 93 289Q65 289 54 308Q54 351
117 393T245 436Z" />
<glyph unicode="&#xe7;" glyph-name="ccedilla" horiz-adv-x="405" d="M231 436Q341 436 383 385Q383 318 346 318Q329 318 320 325T297 353Q266 399 223 399Q182 399 149 360T115 244Q115 164 154 111T264 58Q285 58 304 62T336 71T359 82T376 93L383 98Q389
98 389 85Q389 77 383 67Q363 39 324 17T239 -6Q156 -6 97 56T37 209Q37 301 87 368T231 436ZM219 -23H244Q263 -23 275 -37T288 -72Q288 -106 261 -127T194 -148Q173 -148 160 -139Q160 -138 159 -134T157 -125Q157 -120 161 -116T171 -111Q177 -111 188 -117T208
-124Q228 -124 239 -115T251 -91Q251 -75 241 -66T220 -57Q211 -57 194 -64Q192 -64 188 -59T184 -51Q188 -45 200 -27T216 0H237L219 -23Z" />
<glyph unicode="&#xe8;" glyph-name="egrave" horiz-adv-x="430" d="M225 399Q173 399 146 355T118 281Q118 274 124 274H319Q324 274 324 284Q324 316 297 357T225 399ZM235 436Q281 436 316 419T369 374T396 318T405 261Q405 241 399 237T376 232H124Q116 232
116 227Q116 164 154 111T264 58Q285 58 304 62T336 71T359 82T376 93L383 98Q389 98 389 85Q389 77 383 67Q363 39 324 17T239 -6Q156 -6 97 56T37 209Q37 314 93 375T235 436ZM105 889Q105 893 107 897T120 907T146 913Q171 913 180 904Q197 884 220 851T258
794T273 766Q273 753 261 753Q248 753 177 808T105 889Z" />
<glyph unicode="&#xe9;" glyph-name="eacute" horiz-adv-x="430" d="M225 399Q173 399 146 355T118 281Q118 274 124 274H319Q324 274 324 284Q324 316 297 357T225 399ZM235 436Q281 436 316 419T369 374T396 318T405 261Q405 241 399 237T376 232H124Q116 232
116 227Q116 164 154 111T264 58Q285 58 304 62T336 71T359 82T376 93L383 98Q389 98 389 85Q389 77 383 67Q363 39 324 17T239 -6Q156 -6 97 56T37 209Q37 314 93 375T235 436ZM300 913Q316 913 326 908T338 898T341 889Q341 864 270 809T185 753Q173 753 173
766Q173 769 188 794T226 852T266 904Q275 913 300 913Z" />
<glyph unicode="&#xea;" glyph-name="ecircumflex" horiz-adv-x="430" d="M318 467Q310 467 279 489T225 533Q203 512 173 490T135 467Q126 467 126 490Q129 494 148 515T180 553Q202 580 217 606Q223 616 225 616Q230 616 235 606Q259 567 271 551Q282 537 295
522T317 499T325 490Q325 467 318 467ZM225 399Q173 399 146 355T118 281Q118 274 124 274H319Q324 274 324 284Q324 316 297 357T225 399ZM235 436Q281 436 316 419T369 374T396 318T405 261Q405 241 399 237T376 232H124Q116 232 116 227Q116 164 154 111T264
58Q285 58 304 62T336 71T359 82T376 93L383 98Q389 98 389 85Q389 77 383 67Q363 39 324 17T239 -6Q156 -6 97 56T37 209Q37 314 93 375T235 436Z" />
<glyph unicode="&#xeb;" glyph-name="edieresis" horiz-adv-x="430" d="M225 399Q173 399 146 355T118 281Q118 274 124 274H319Q324 274 324 284Q324 316 297 357T225 399ZM235 436Q281 436 316 419T369 374T396 318T405 261Q405 241 399 237T376 232H124Q116
232 116 227Q116 164 154 111T264 58Q285 58 304 62T336 71T359 82T376 93L383 98Q389 98 389 85Q389 77 383 67Q363 39 324 17T239 -6Q156 -6 97 56T37 209Q37 314 93 375T235 436ZM300 595T320 595T354 580T369 545T354 511T319 497T284 511T269 546T284 580ZM117
595T137 595T171 580T186 545T171 511T136 497T101 511T86 546T101 580Z" />
<glyph unicode="&#xec;" glyph-name="igrave" horiz-adv-x="282" d="M178 135Q178 77 186 46Q188 39 212 33T246 26Q249 26 250 14T249 -3Q149 2 142 2Q136 2 33 -3Q29 1 29 13T33 26Q45 26 68 32T94 46Q101 75 101 116V305Q101 344 87 359Q77 371 63 375T39 380T29
382Q29 406 35 407Q141 423 173 433Q174 433 176 433T178 434Q182 434 183 426T183 413Q178 373 178 341V135ZM269 889Q269 893 271 897T284 907T310 913Q335 913 344 904Q361 884 384 851T422 794T437 766Q437 753 425 753Q412 753 341 808T269 889Z" />
<glyph unicode="&#xed;" glyph-name="iacute" horiz-adv-x="282" d="M178 135Q178 77 186 46Q188 39 212 33T246 26Q249 26 250 14T249 -3Q149 2 142 2Q136 2 33 -3Q29 1 29 13T33 26Q45 26 68 32T94 46Q101 75 101 116V305Q101 344 87 359Q77 371 63 375T39 380T29
382Q29 406 35 407Q141 423 173 433Q174 433 176 433T178 434Q182 434 183 426T183 413Q178 373 178 341V135ZM198 913Q214 913 224 908T236 898T239 889Q239 864 168 809T83 753Q71 753 71 766Q71 769 86 794T124 852T164 904Q173 913 198 913Z" />
<glyph unicode="&#xee;" glyph-name="icircumflex" horiz-adv-x="282" d="M223 467Q215 467 184 489T130 533Q108 512 78 490T40 467Q31 467 31 490Q34 494 53 515T85 553Q107 580 122 606Q128 616 130 616Q135 616 140 606Q164 567 176 551Q187 537 200 522T222
499T230 490Q230 467 223 467ZM178 135Q178 77 186 46Q188 39 212 33T246 26Q249 26 250 14T249 -3Q149 2 142 2Q136 2 33 -3Q29 1 29 13T33 26Q45 26 68 32T94 46Q101 75 101 116V305Q101 344 87 359Q77 371 63 375T39 380T29 382Q29 406 35 407Q141 423 173 433Q174
433 176 433T178 434Q182 434 183 426T183 413Q178 373 178 341V135Z" />
<glyph unicode="&#xef;" glyph-name="idieresis" horiz-adv-x="341" d="M221 135Q221 77 229 46Q231 39 255 33T289 26Q292 26 293 14T292 -3Q192 2 185 2Q179 2 76 -3Q72 1 72 13T76 26Q88 26 111 32T137 46Q144 75 144 116V305Q144 344 130 359Q120 371 106
375T82 380T72 382Q72 406 78 407Q184 423 216 433Q217 433 219 433T221 434Q225 434 226 426T226 413Q221 373 221 341V135ZM252 595T272 595T306 580T321 545T306 511T271 497T236 511T221 546T236 580ZM92 595T112 595T146 580T161 545T146 511T111 497T76 511T61
546T76 580Z" />
<glyph unicode="&#xf0;" glyph-name="eth" horiz-adv-x="514" d="M356 705Q378 678 374 674L119 509Q96 535 102 541L356 705ZM243 438Q272 438 302 429T344 408Q330 477 266 544T72 664Q72 670 76 679T86 688Q139 676 190 653T289 591T373 506T430 395T452 260Q452
148 396 71T255 -7Q155 -7 92 60T28 215Q28 299 91 368T243 438ZM230 398Q179 398 147 346T114 222Q114 147 153 90T246 32Q302 32 333 86T365 218Q365 313 346 338Q300 398 230 398Z" />
<glyph unicode="&#xf1;" glyph-name="ntilde" horiz-adv-x="543" d="M322 438Q392 438 420 388T448 226V135Q448 77 456 46Q458 39 482 33T516 26Q519 26 520 14T519 -3Q419 2 412 2Q410 2 307 -3Q303 1 303 13T307 26Q319 26 340 32T364 46Q371 75 371 116V216Q371
309 347 343T269 377Q237 377 208 354T178 311V135Q178 77 186 46Q188 39 212 33T246 26Q249 26 250 14T249 -3Q149 2 142 2Q136 2 33 -3Q29 1 29 13T33 26Q45 26 68 32T94 46Q101 75 101 116V305Q101 344 87 359Q77 371 63 375T39 380T29 382Q29 406 35 407Q141
423 173 433Q174 433 176 433T178 434Q182 434 183 426T183 413Q179 385 179 373Q179 369 181 369Q182 369 184 371Q207 395 246 416T322 438ZM324 550Q360 550 375 584Q377 585 381 585Q390 585 390 569Q390 541 363 520T312 499Q283 499 241 520T172 542Q139
542 123 507Q121 506 117 506Q108 506 108 522Q108 550 135 571T186 592Q214 592 255 571T324 550Z" />
<glyph unicode="&#xf2;" glyph-name="ograve" horiz-adv-x="510" d="M243 398Q190 398 157 350T123 231Q123 149 165 91T265 32Q318 32 352 82T386 202Q386 283 343 340T243 398ZM254 437Q344 437 408 372T472 216Q472 124 410 59T256 -7T101 58T37 216Q37 309
99 373T254 437ZM158 889Q158 893 160 897T173 907T199 913Q224 913 233 904Q250 884 273 851T311 794T326 766Q326 753 314 753Q301 753 230 808T158 889Z" />
<glyph unicode="&#xf3;" glyph-name="oacute" horiz-adv-x="510" d="M243 398Q190 398 157 350T123 231Q123 149 165 91T265 32Q318 32 352 82T386 202Q386 283 343 340T243 398ZM254 437Q344 437 408 372T472 216Q472 124 410 59T256 -7T101 58T37 216Q37 309
99 373T254 437ZM323 657Q339 657 349 652T361 642T364 633Q364 608 293 553T208 497Q196 497 196 510Q196 513 211 538T249 596T289 648Q298 657 323 657Z" />
<glyph unicode="&#xf4;" glyph-name="ocircumflex" horiz-adv-x="510" d="M344 467Q336 467 305 489T251 533Q229 512 199 490T161 467Q152 467 152 490Q155 494 174 515T206 553Q228 580 243 606Q249 616 251 616Q256 616 261 606Q285 567 297 551Q308 537 321
522T343 499T351 490Q351 467 344 467ZM243 398Q190 398 157 350T123 231Q123 149 165 91T265 32Q318 32 352 82T386 202Q386 283 343 340T243 398ZM254 437Q344 437 408 372T472 216Q472 124 410 59T256 -7T101 58T37 216Q37 309 99 373T254 437Z" />
<glyph unicode="&#xf5;" glyph-name="otilde" horiz-adv-x="510" d="M321 549Q357 549 372 583Q374 584 378 584Q387 584 387 568Q387 540 360 519T309 498Q280 498 238 519T169 541Q136 541 120 506Q118 505 114 505Q105 505 105 521Q105 549 132 570T183 591Q211
591 252 570T321 549ZM243 398Q190 398 157 350T123 231Q123 149 165 91T265 32Q318 32 352 82T386 202Q386 283 343 340T243 398ZM254 437Q344 437 408 372T472 216Q472 124 410 59T256 -7T101 58T37 216Q37 309 99 373T254 437Z" />
<glyph unicode="&#xf6;" glyph-name="odieresis" horiz-adv-x="510" d="M243 398Q190 398 157 350T123 231Q123 149 165 91T265 32Q318 32 352 82T386 202Q386 283 343 340T243 398ZM254 437Q344 437 408 372T472 216Q472 124 410 59T256 -7T101 58T37 216Q37
309 99 373T254 437ZM326 595T346 595T380 580T395 545T380 511T345 497T310 511T295 546T310 580ZM143 595T163 595T197 580T212 545T197 511T162 497T127 511T112 546T127 580Z" />
<glyph unicode="&#xf7;" glyph-name="divide" horiz-adv-x="528" d="M262 390Q242 390 229 402T213 435V439Q213 458 228 472T262 487Q282 487 295 475T311 443V438Q311 420 296 405T262 390ZM262 5Q242 5 229 18T213 52V56Q213 75 228 90T262 105Q282 105 295
92T311 57V55Q311 37 296 21T262 5ZM28 224Q28 234 31 256T42 278H491Q498 277 498 268Q498 254 490 222Q489 219 487 218T484 216L482 215H34Q34 215 30 217Q28 220 28 224Z" />
<glyph unicode="&#xf8;" glyph-name="oslash" horiz-adv-x="533" d="M128 -8Q98 7 101 13L371 437Q401 424 398 417L128 -8ZM256 32Q309 32 343 82T377 202Q377 283 334 340T234 398Q181 398 148 350T114 231Q114 149 156 91T256 32ZM245 437Q335 437 399 372T463
216Q463 124 401 59T247 -7T92 58T28 216Q28 309 90 373T245 437Z" />
<glyph unicode="&#xf9;" glyph-name="ugrave" horiz-adv-x="517" d="M435 341V141Q435 98 442 65Q444 58 453 54T472 49T492 48L501 47Q504 46 504 36Q504 33 502 27T496 20Q481 19 463 16T428 9T398 1T376 -6L367 -8Q359 -8 359 8V59L357 64Q291 -7 226 -7Q189
-7 163 11T124 60T106 119T101 179V305Q101 344 87 359Q77 371 63 375T39 380T29 382Q29 406 35 407Q141 423 173 433Q174 433 176 433T178 434Q182 434 183 426T183 413Q177 365 177 339V204Q177 127 200 91T275 54Q305 54 332 77T359 118V305Q359 344 345 359Q335
371 321 375T297 380T287 382Q287 406 293 407Q399 423 431 433Q432 433 434 433T436 434Q440 434 441 426T441 413Q435 365 435 341ZM153 889Q153 893 155 897T168 907T194 913Q219 913 228 904Q245 884 268 851T306 794T321 766Q321 753 309 753Q296 753 225
808T153 889Z" />
<glyph unicode="&#xfa;" glyph-name="uacute" horiz-adv-x="517" d="M435 341V141Q435 98 442 65Q444 58 453 54T472 49T492 48L501 47Q504 46 504 36Q504 33 502 27T496 20Q481 19 463 16T428 9T398 1T376 -6L367 -8Q359 -8 359 8V59L357 64Q291 -7 226 -7Q189
-7 163 11T124 60T106 119T101 179V305Q101 344 87 359Q77 371 63 375T39 380T29 382Q29 406 35 407Q141 423 173 433Q174 433 176 433T178 434Q182 434 183 426T183 413Q177 365 177 339V204Q177 127 200 91T275 54Q305 54 332 77T359 118V305Q359 344 345 359Q335
371 321 375T297 380T287 382Q287 406 293 407Q399 423 431 433Q432 433 434 433T436 434Q440 434 441 426T441 413Q435 365 435 341ZM356 657Q372 657 382 652T394 642T397 633Q397 608 326 553T241 497Q229 497 229 510Q229 513 244 538T282 596T322 648Q331
657 356 657Z" />
<glyph unicode="&#xfb;" glyph-name="ucircumflex" horiz-adv-x="517" d="M354 467Q346 467 315 489T261 533Q239 512 209 490T171 467Q162 467 162 490Q165 494 184 515T216 553Q238 580 253 606Q259 616 261 616Q266 616 271 606Q295 567 307 551Q318 537 331
522T353 499T361 490Q361 467 354 467ZM435 341V141Q435 98 442 65Q444 58 453 54T472 49T492 48L501 47Q504 46 504 36Q504 33 502 27T496 20Q481 19 463 16T428 9T398 1T376 -6L367 -8Q359 -8 359 8V59L357 64Q291 -7 226 -7Q189 -7 163 11T124 60T106 119T101
179V305Q101 344 87 359Q77 371 63 375T39 380T29 382Q29 406 35 407Q141 423 173 433Q174 433 176 433T178 434Q182 434 183 426T183 413Q177 365 177 339V204Q177 127 200 91T275 54Q305 54 332 77T359 118V305Q359 344 345 359Q335 371 321 375T297 380T287
382Q287 406 293 407Q399 423 431 433Q432 433 434 433T436 434Q440 434 441 426T441 413Q435 365 435 341Z" />
<glyph unicode="&#xfc;" glyph-name="udieresis" horiz-adv-x="517" d="M435 341V141Q435 98 442 65Q444 58 453 54T472 49T492 48L501 47Q504 46 504 36Q504 33 502 27T496 20Q481 19 463 16T428 9T398 1T376 -6L367 -8Q359 -8 359 8V59L357 64Q291 -7 226 -7Q189
-7 163 11T124 60T106 119T101 179V305Q101 344 87 359Q77 371 63 375T39 380T29 382Q29 406 35 407Q141 423 173 433Q174 433 176 433T178 434Q182 434 183 426T183 413Q177 365 177 339V204Q177 127 200 91T275 54Q305 54 332 77T359 118V305Q359 344 345 359Q335
371 321 375T297 380T287 382Q287 406 293 407Q399 423 431 433Q432 433 434 433T436 434Q440 434 441 426T441 413Q435 365 435 341ZM336 595T356 595T390 580T405 545T390 511T355 497T320 511T305 546T320 580ZM153 595T173 595T207 580T222 545T207 511T172
497T137 511T122 546T137 580Z" />
<glyph unicode="&#xfd;" glyph-name="yacute" horiz-adv-x="454" d="M114 429Q131 429 145 430T178 432T211 434Q213 428 213 419Q213 405 209 405Q201 405 183 398T162 384V382Q162 364 269 121L345 340Q352 361 352 371Q352 386 337 395T295 405Q291 405 291
418Q291 430 295 434Q308 433 334 431T384 429Q406 429 432 431T471 434Q473 428 473 419Q473 405 469 405Q456 405 434 396T404 367L225 -116Q202 -178 173 -202T120 -227Q99 -227 89 -214T79 -188Q79 -166 93 -156Q176 -156 203 -70Q208 -55 215 -34T226 0L83
350Q72 374 63 384Q54 393 36 399T6 405Q2 405 2 418Q2 430 6 434Q109 429 114 429ZM359 657Q375 657 385 652T397 642T400 633Q400 608 329 553T244 497Q232 497 232 510Q232 513 247 538T285 596T325 648Q334 657 359 657Z" />
<glyph unicode="&#xfe;" glyph-name="thorn" horiz-adv-x="513" d="M294 436Q390 436 444 372T498 234Q498 138 431 65T279 -8Q264 -8 253 -7T232 -4T218 1T205 6T195 11Q191 6 191 -2V-88Q191 -146 199 -177Q201 -184 225 -190T259 -197Q262 -197 263 -209T262
-226Q162 -221 155 -221T46 -226Q42 -222 42 -210T46 -197Q58 -197 81 -191T107 -177Q114 -148 114 -107V548Q114 583 108 613Q103 629 57 629H48Q42 629 42 640Q42 656 48 656Q78 659 103 664T143 674T168 683T182 691L187 694H189Q193 694 197 689T202 678Q191
646 191 591V407Q191 402 194 402Q208 412 239 424T294 436ZM262 387Q231 387 211 371T191 323V98Q191 71 220 53T283 34Q342 34 377 87T412 206Q412 290 368 338T262 387Z" />
<glyph unicode="&#xff;" glyph-name="ydieresis" horiz-adv-x="454" d="M114 429Q131 429 145 430T178 432T211 434Q213 428 213 419Q213 405 209 405Q201 405 183 398T162 384V382Q162 364 269 121L345 340Q352 361 352 371Q352 386 337 395T295 405Q291 405
291 418Q291 430 295 434Q308 433 334 431T384 429Q406 429 432 431T471 434Q473 428 473 419Q473 405 469 405Q456 405 434 396T404 367L225 -116Q202 -178 173 -202T120 -227Q99 -227 89 -214T79 -188Q79 -166 93 -156Q176 -156 203 -70Q208 -55 215 -34T226
0L83 350Q72 374 63 384Q54 393 36 399T6 405Q2 405 2 418Q2 430 6 434Q109 429 114 429ZM324 595T344 595T378 580T393 545T378 511T343 497T308 511T293 546T308 580ZM141 595T161 595T195 580T210 545T195 511T160 497T125 511T110 546T125 580Z" />
<glyph unicode="&#x2013;" glyph-name="endash" horiz-adv-x="499" d="M28 209Q28 219 31 240T42 262H467Q473 262 473 253Q473 243 464 207Q463 204 462 203T458 200H457H34Q34 200 30 202Q28 205 28 209Z" />
<glyph unicode="&#x2014;" glyph-name="emdash" horiz-adv-x="778" d="M22 219Q22 229 25 250T36 272H752Q758 272 758 263Q758 249 750 217Q749 214 747 213T744 210H742H28Q28 210 24 212Q22 215 22 219Z" />
<glyph unicode="&#x2018;" glyph-name="quoteleft" horiz-adv-x="160" d="M16 555Q16 581 26 606T52 649T83 679T111 699T126 706Q138 706 145 688Q118 672 101 651T80 617T75 597Q75 584 95 562T116 525Q116 507 96 495T51 482Q42 482 31 485Q16 507 16 555Z" />
<glyph unicode="&#x2019;" glyph-name="quoteright" horiz-adv-x="160" d="M147 635Q147 609 137 584T111 541T80 511T53 491T38 484Q25 484 18 502Q45 518 62 539T84 573T89 593Q89 606 69 628T48 665Q48 683 68 695T113 708Q122 708 133 705Q147 685 147 635Z" />
<glyph unicode="&#x201a;" glyph-name="quotesinglbase" horiz-adv-x="160" d="M147 53Q147 27 137 2T111 -41T80 -71T53 -90T38 -97Q24 -97 18 -80Q45 -64 62 -43T84 -9T89 11Q89 24 69 46T48 83Q48 101 68 113T113 126Q122 126 133 123Q147 103 147 53Z" />
<glyph unicode="&#x201c;" glyph-name="quotedblleft" horiz-adv-x="309" d="M160 555Q160 581 170 606T196 649T227 679T254 699T269 706Q282 706 289 688Q262 672 245 651T223 617T218 597Q218 584 238 562T259 525Q259 507 240 495T195 482Q184 482 174 485Q160
505 160 555ZM16 555Q16 581 26 606T52 649T83 679T111 699T126 706Q138 706 145 688Q118 672 101 651T80 617T75 597Q75 584 95 562T116 525Q116 507 96 495T51 482Q42 482 31 485Q16 507 16 555Z" />
<glyph unicode="&#x201d;" glyph-name="quotedblright" horiz-adv-x="310" d="M291 635Q291 609 281 584T255 541T224 511T196 491T181 484Q169 484 162 502Q189 518 206 539T227 573T232 593Q232 606 212 628T191 665Q191 683 211 695T256 708Q266 708 276 705Q291
683 291 635ZM147 635Q147 609 137 584T111 541T80 511T53 491T38 484Q25 484 18 502Q45 518 62 539T84 573T89 593Q89 606 69 628T48 665Q48 683 68 695T113 708Q122 708 133 705Q147 685 147 635Z" />
<glyph unicode="&#x201e;" glyph-name="quotedblbase" horiz-adv-x="309" d="M291 51Q291 25 281 0T255 -43T224 -73T196 -92T181 -99Q168 -99 162 -82Q189 -66 206 -45T227 -11T232 9Q232 22 212 44T191 81Q191 99 211 111T256 124Q266 124 276 121Q291 99 291
51ZM147 53Q147 27 137 2T111 -41T80 -71T53 -90T38 -97Q24 -97 18 -80Q45 -64 62 -43T84 -9T89 11Q89 24 69 46T48 83Q48 101 68 113T113 126Q122 126 133 123Q147 103 147 53Z" />
<glyph unicode="&#x2022;" glyph-name="bullet" horiz-adv-x="409" d="M95 219T95 263T127 339T203 371T278 339T310 263T279 187T203 155T127 187Z" />
<glyph unicode="&#x2039;" glyph-name="guilsinglleft" horiz-adv-x="290" d="M241 423Q264 417 264 404Q264 398 255 389T203 338Q190 325 156 290T115 247L202 157Q212 147 222 138T237 123T248 112T255 105T260 100T262 95T263 91Q263 87 260 84T254 79T246
76T240 73Q239 75 221 91T151 146T34 227Q27 230 27 241Q27 259 35 268Q163 345 241 423Z" />
<glyph unicode="&#x203a;" glyph-name="guilsinglright" horiz-adv-x="292" d="M51 73Q28 79 28 91Q28 93 28 95T31 100T35 105T43 113T54 124T69 138T88 157L175 247Q168 254 134 289T87 338Q43 381 35 389T27 404Q27 408 30 411T36 416T44 420T50 423Q128 345
255 268Q264 258 264 241Q264 230 256 227Q198 190 150 154T81 100T51 73Z" />
</font>
</defs>
</svg>
