<?xml version="1.0" standalone="no"?>
<!DOCTYPE svg PUBLIC "-//W3C//DTD SVG 1.1//EN" "http://www.w3.org/Graphics/SVG/1.1/DTD/svg11.dtd">
<svg xmlns="http://www.w3.org/2000/svg">
<defs >
<font id="CrimsonText" horiz-adv-x="451" ><font-face
    font-family="Crimson Text"
    units-per-em="1024"
    panose-1="2 0 5 3 0 0 0 0 0 0"
    ascent="907"
    descent="-269"
    alphabetic="0" />
<glyph unicode=" " glyph-name="space" horiz-adv-x="228" />
<glyph unicode="!" glyph-name="exclam" horiz-adv-x="187" d="M70 36Q70 64 89 83T136 102Q154 102 166 88T179 56Q179 27 161 7T114 -14Q95 -14 83 1T70 36ZM242 631Q257 631 265 618T273 588Q273 576 257 515T211 347T164 170Q162 161 152 155T136 148Q130
148 130 166Q130 168 138 238T160 409T183 577Q186 594 203 612T242 631Z" />
<glyph unicode="&quot;" glyph-name="quotedbl" horiz-adv-x="297" d="M112 698Q135 698 140 688T140 633Q134 602 112 539T81 449Q79 442 73 438T60 434T49 437T45 447Q49 487 49 522T47 590T45 636Q48 653 68 675T112 698ZM262 698Q285 698 290 688T290 633Q284
602 262 539T231 449Q229 442 223 438T210 434T199 437T195 447Q199 487 199 522T197 590T195 636Q198 653 218 675T262 698Z" />
<glyph unicode="#" glyph-name="numbersign" horiz-adv-x="419" d="M341 373H417Q424 373 424 368Q424 355 416 336T399 317H322L293 231H369Q376 231 376 225Q376 212 368 194T351 175H274L223 24Q220 16 190 16Q168 16 168 21Q169 23 169 24L221 175H134L83
24Q80 16 50 16Q28 16 28 21Q29 23 29 24L81 175H5Q-2 175 -2 181Q-2 194 6 212T23 231H100L129 317H53Q46 317 46 323Q46 336 54 354T71 373H148L199 524Q202 532 232 532Q254 532 254 526Q253 525 253 524L201 373H288L339 524Q342 532 372 532Q394 532 394 526Q393
525 393 524L341 373ZM269 317H182L153 231H240L269 317Z" />
<glyph unicode="$" glyph-name="dollar" horiz-adv-x="430" d="M156 -52Q124 -52 125 -43L378 683Q410 683 409 676L156 -52ZM203 -8Q167 -8 52 15Q43 80 55 166Q57 174 73 174Q87 174 92 166Q99 31 213 31Q259 31 297 60T345 141Q347 152 347 162T347 181T342
198T336 212T326 225T316 235T304 245T292 253T280 261T268 269Q226 295 203 313T155 356T124 409T124 473Q138 546 200 595T334 644Q355 644 381 640T433 629T464 621Q458 535 448 484Q446 476 440 476Q418 478 418 487Q420 522 396 562T321 602Q220 602 201 505Q192
459 213 430T286 366Q361 313 377 299Q442 240 428 170Q413 93 347 43T203 -8Z" />
<glyph unicode="%" glyph-name="percent" horiz-adv-x="618" d="M230 646Q185 646 153 593T121 478Q121 433 137 400T186 366Q231 366 259 421T288 541Q288 583 275 614T230 646ZM240 673Q295 673 324 635T353 541Q353 466 299 402T174 338Q120 338 89 376T58
469Q58 545 112 609T240 673ZM631 650L35 0Q23 -12 1 -12Q-11 -12 -14 -1L582 652Q593 663 604 663Q626 663 631 650ZM442 300Q397 300 365 247T333 132Q333 87 349 54T398 20Q443 20 471 75T500 195Q500 237 487 268T442 300ZM452 327Q507 327 536 289T565 195Q565
120 511 56T386 -8Q332 -8 301 30T270 123Q270 199 324 263T452 327Z" />
<glyph unicode="&amp;" glyph-name="ampersand" horiz-adv-x="644" d="M396 280Q396 266 407 259T430 249T454 239T465 217Q465 200 456 187T432 170Q408 170 382 195T355 258Q355 313 398 349T499 386Q514 386 537 385T575 384Q610 384 636 399T663 444Q663 459
654 469T631 480Q620 480 605 471T578 462Q566 462 558 472T549 495Q549 518 575 538Q631 538 665 513T700 444T670 373T588 346Q582 346 562 348Q617 299 617 224Q617 125 529 56T326 -14Q227 -14 153 45T78 196Q78 257 117 310T204 381Q166 424 166 479Q166 545
224 590T348 635Q394 635 428 610T463 543Q463 514 442 488T403 462Q394 462 394 469Q394 470 399 483T404 514Q404 546 381 568T326 590Q280 590 248 556T216 474Q216 424 249 395Q274 402 288 402Q316 402 339 391T363 360Q363 341 343 331T298 320Q260 320 236
341Q164 280 164 204Q164 131 214 80T338 29Q420 29 484 90T549 237Q549 276 526 305T466 335Q438 335 417 320T396 280Z" />
<glyph unicode="&apos;" glyph-name="quotesingle" horiz-adv-x="147" d="M112 698Q135 698 140 688T140 633Q134 602 112 539T81 449Q79 442 73 438T60 434T49 437T45 447Q49 487 49 522T47 590T45 636Q48 653 68 675T112 698Z" />
<glyph unicode="(" glyph-name="parenleft" horiz-adv-x="292" d="M21 174Q21 279 54 388T132 573T223 699T298 748Q307 748 307 728Q307 723 305 721Q265 702 214 620T121 411T80 164Q80 67 102 -7T147 -95Q148 -95 148 -98Q148 -104 142 -112T130 -121Q95 -121
58 -34T21 174Z" />
<glyph unicode=")" glyph-name="parenright" horiz-adv-x="276" d="M269 457Q269 362 246 269T187 108T113 -13T42 -94T-8 -121Q-17 -121 -17 -103Q-17 -96 -14 -95Q0 -88 25 -59T83 23T143 141T191 296T210 477Q210 570 192 637T145 721Q144 722 144 723Q144
728 150 738T161 748Q200 748 234 664T269 457Z" />
<glyph unicode="*" glyph-name="asterisk" horiz-adv-x="343" d="M201 514Q209 514 223 532T252 573T287 614T324 633Q347 633 347 609Q347 590 326 571T281 541T235 515T214 491Q214 482 233 476T276 465T318 449T338 419Q338 405 327 394T301 383Q283 383 263
403T227 445T200 466T187 448T180 397T170 341Q164 320 153 309T129 298Q119 298 113 305T106 326Q106 348 138 400T171 464Q171 473 162 473Q154 473 107 453T39 432Q9 432 9 456Q9 465 12 473T30 491T70 500Q86 500 112 497T148 493Q173 493 173 510Q173 520
148 559T122 623Q122 641 132 652T156 664Q167 664 174 657T184 637T188 611T189 580Q189 514 201 514Z" />
<glyph unicode="+" glyph-name="plus" horiz-adv-x="457" d="M234 470Q236 479 258 483T290 488Q296 488 298 486T300 479Q277 345 265 283Q263 278 268 278H449Q453 278 453 269Q453 245 432 222H253Q249 222 249 218L214 30Q213 22 196 17T164 12Q156 12 152
15T149 21Q174 161 185 217Q185 222 181 222H2Q-3 222 -3 231Q-3 250 19 278H197Q201 278 201 282Q207 311 217 372T234 470Z" />
<glyph unicode="," glyph-name="comma" horiz-adv-x="209" d="M-5 -143Q-5 -140 18 -120T66 -67T90 -5Q90 11 84 36T77 66Q77 91 102 110T156 129Q164 129 178 125Q181 118 181 102Q181 82 170 35Q162 2 144 -30T103 -86T61 -127T26 -154L13 -163Q9 -163 2 -157T-5 -143Z" />
<glyph unicode="-" glyph-name="hyphen" horiz-adv-x="295" d="M40 261L267 273Q273 273 273 261Q273 250 265 231T250 210L24 199Q19 199 19 214Q19 224 26 242T40 261Z" />
<glyph unicode="." glyph-name="period" horiz-adv-x="169" d="M170 57Q170 30 150 8T104 -14Q85 -14 73 -1T60 33Q60 60 81 81T127 102Q146 102 158 90T170 57Z" />
<glyph unicode="/" glyph-name="slash" horiz-adv-x="463" d="M478 755L54 -12Q41 -33 3 -33Q-10 -33 -15 -28L410 739Q423 761 454 761Q466 761 478 755Z" />
<glyph unicode="0" glyph-name="zero" horiz-adv-x="410" d="M147 320Q122 202 139 119T208 35Q267 35 316 118T390 325Q413 443 396 523T328 603Q270 603 220 522T147 320ZM65 319Q82 407 119 479T212 596T330 641Q377 641 411 615T461 545T480 443T470 319Q452
231 415 159T322 42T205 -3Q143 -3 105 42T58 158T65 319Z" />
<glyph unicode="1" glyph-name="one" horiz-adv-x="410" d="M198 496Q193 499 190 507T186 521Q186 524 189 527Q369 642 372 642H374Q382 642 382 623Q366 590 354 529L278 135Q267 74 268 46Q269 39 293 33T326 26Q329 26 326 8Q325 0 323 -3Q231 2 212 2Q198
2 103 -3Q100 1 103 13T109 26Q122 26 148 32T178 46Q186 63 194 103L264 463Q270 492 271 507T271 525T264 529Q259 529 247 523T220 508T198 496Z" />
<glyph unicode="2" glyph-name="two" horiz-adv-x="410" d="M415 156Q409 141 391 94T362 16Q356 0 340 0H35Q29 15 32 33Q155 144 249 260T360 459Q370 513 351 542T291 572Q213 572 151 489Q146 489 141 495T137 505Q142 517 158 537T200 582T264 624T342 642Q384
642 410 617T444 555T444 479Q438 447 421 412T384 347T332 280T279 220T221 163T171 117T127 79Q120 72 127 72H298Q309 72 318 73T335 80T347 88T358 101T366 115T375 132T384 150Q390 160 399 160Q413 160 415 156Z" />
<glyph unicode="3" glyph-name="three" horiz-adv-x="410" d="M337 642Q377 642 406 607T425 514Q416 470 391 440T322 379Q342 371 360 358T394 323T418 272T418 206Q400 111 327 53T161 -5Q82 -5 46 25Q43 28 42 38T42 54Q47 76 58 88T86 101Q95 101 102 94T117
74T132 56Q155 35 198 35Q216 35 235 42T273 65T309 110T333 180Q345 239 318 280T243 321Q209 321 181 314Q175 324 179 340Q181 346 183 350Q250 362 295 398T352 496Q359 530 340 556T288 583Q268 583 249 576T220 560T200 543T188 532Q184 532 183 541T182
558Q215 598 251 620T337 642Z" />
<glyph unicode="4" glyph-name="four" horiz-adv-x="410" d="M50 174Q46 182 50 205L415 633Q426 645 439 645Q452 645 449 635L370 232H437Q446 232 443 225Q437 192 427 174Q427 174 359 174L325 -1Q321 -6 285 -6Q267 -6 260 -5T252 2L286 174H50ZM349 498Q350
500 349 503T346 507L344 505L124 244Q123 243 123 241Q121 232 128 232H297L349 498Z" />
<glyph unicode="5" glyph-name="five" horiz-adv-x="410" d="M203 35Q242 35 280 70T333 180Q339 203 336 228T324 275T289 309T225 323Q177 323 142 312Q136 316 128 326L230 623Q414 629 451 637Q454 630 452 616Q447 589 436 561Q410 553 329 550T247 546Q242
545 239 538Q231 518 181 378Q213 391 271 391Q346 391 389 336T418 206Q400 114 329 55T166 -5Q83 -5 47 25Q43 28 42 38T43 54Q47 76 58 88T87 101Q95 101 102 94T118 74T133 56Q156 35 203 35Z" />
<glyph unicode="6" glyph-name="six" horiz-adv-x="410" d="M284 372Q348 372 389 330T430 226Q430 170 397 116T311 28T205 -6Q137 -6 98 37T58 162Q58 205 69 250T109 349T181 451T295 549T453 637Q461 637 461 612Q364 571 294 510T182 350Q138 246 138 152Q138
102 158 68T219 33Q264 33 307 86T350 217Q350 267 327 298T254 329Q246 329 237 327T223 323T210 318T201 314Q195 318 195 328Q195 345 229 358T284 372Z" />
<glyph unicode="7" glyph-name="seven" horiz-adv-x="410" d="M113 -6Q103 -6 94 4T86 22L436 553H212Q197 553 182 539T158 511T138 474Q136 470 124 469T106 471Q110 482 132 538T164 621Q169 633 181 633H450Q464 633 488 634T513 636Q519 636 517 627Q516
622 512 614T504 600T491 580T477 560L123 -3Q120 -6 113 -6Z" />
<glyph unicode="8" glyph-name="eight" horiz-adv-x="410" d="M335 643Q399 643 435 602T458 491Q443 416 325 344Q319 343 324 338Q367 308 394 262T413 167Q399 93 336 42T201 -9Q124 -9 85 36T60 154Q65 183 81 208T122 255T162 287T203 313Q209 316 212 318Q218
322 214 324Q182 347 161 388T149 480Q162 544 218 593T335 643ZM323 608Q288 608 259 576T220 492Q207 424 292 364Q296 362 297 362Q300 362 303 364Q374 409 390 486Q399 533 381 570T323 608ZM210 27Q256 27 289 57T332 138Q336 161 329 185T311 226T283 260T259
283T243 295Q239 297 238 297Q235 297 234 296Q190 269 167 237T134 157Q122 99 146 63T210 27Z" />
<glyph unicode="9" glyph-name="nine" horiz-adv-x="410" d="M245 260Q182 260 143 300T104 402Q104 489 172 561T323 633Q391 633 430 590T470 465Q470 421 461 376T424 277T356 175T244 79T84 -6Q69 -2 67 15Q165 56 236 117T348 277Q388 371 388 475Q388 526
369 560T309 594Q265 594 225 542T185 411Q185 305 280 305Q290 305 297 305T309 307T316 308T322 310T327 313Q333 308 333 299Q333 282 301 271T245 260Z" />
<glyph unicode=":" glyph-name="colon" horiz-adv-x="180" d="M124 367Q124 395 145 416T193 438Q213 438 225 425T238 391Q238 363 217 341T170 318Q150 318 137 332T124 367ZM60 34Q60 62 81 84T128 106Q148 106 160 93T173 58Q173 30 152 8T105 -14Q85 -14
73 -1T60 34Z" />
<glyph unicode=";" glyph-name="semicolon" horiz-adv-x="239" d="M125 367Q125 395 146 416T194 438Q214 438 226 425T239 391Q239 363 218 341T171 318Q151 318 138 332T125 367ZM79 11Q79 31 74 45T68 62Q68 82 92 103T144 124Q167 124 167 90Q167 77 159 34Q147
-28 115 -68T6 -165Q2 -167 -1 -167Q-15 -167 -15 -143Q-15 -137 -4 -128T23 -109T54 -73T77 -14Q79 -2 79 11Z" />
<glyph unicode="&lt;" glyph-name="less" horiz-adv-x="406" d="M74 209L348 41Q350 40 350 36Q350 27 340 7T325 -14Q323 -14 321 -13L9 177Q-1 184 -1 203Q-1 229 22 241L403 428Q405 429 407 429Q414 429 414 394Q414 376 409 374L74 209Z" />
<glyph unicode="=" glyph-name="equal" horiz-adv-x="503" d="M20 117Q15 117 15 123Q15 128 23 150T38 173H454Q460 173 460 168Q460 166 442 123L435 117H20ZM48 259Q44 259 44 265Q44 269 52 292T66 315H481Q487 315 487 310T470 265Q469 262 467 261T464 259H462H48Z" />
<glyph unicode="&gt;" glyph-name="greater" horiz-adv-x="419" d="M337 209L65 374Q63 375 63 378Q63 384 74 407T89 430L93 428L400 241Q412 234 412 221Q412 189 388 177L3 -13Q-1 -15 -3 -15Q-9 -15 -9 33Q-9 33 -4 41L337 209Z" />
<glyph unicode="?" glyph-name="question" horiz-adv-x="294" d="M64 32Q64 60 84 81T129 102Q148 102 161 89T174 56Q174 29 153 8T106 -14Q87 -14 76 -1T64 32ZM199 197Q199 187 189 181Q165 181 128 211T91 279Q91 333 133 362L252 446Q299 479 299 517Q299
546 285 561T245 577Q222 577 204 554T167 530Q133 530 133 582Q138 596 160 613T207 631Q267 631 309 591T352 502Q352 478 348 461T338 431T316 405T288 383T245 356T193 321Q160 299 160 261Q160 242 173 224T199 197Z" />
<glyph unicode="@" glyph-name="at" horiz-adv-x="723" d="M324 -168Q267 -170 218 -157T133 -119T70 -60T29 15T10 98T15 185Q38 305 106 395T268 531T467 577Q521 577 565 557T638 502T684 423T705 330T700 233Q687 164 661 114T604 37T543 -1T483 -13Q438 -13
415 22T399 92Q399 93 397 92T394 90Q374 63 323 28T240 -7Q207 -7 188 16T166 72T168 141Q178 192 204 239T269 325T362 387T476 410L557 401Q541 354 539 348L474 125Q444 27 499 27Q532 27 560 48T607 101T636 161T651 214Q668 298 650 369T578 484T448 528Q364
528 285 489T150 380T76 223Q66 163 67 111T86 15T137 -60T221 -108T342 -126Q374 -126 409 -113V-122Q407 -136 384 -149T324 -168ZM419 170L462 322Q462 323 464 328T466 336T467 343T466 349T461 352Q394 376 329 320T240 143Q231 96 244 75T278 53Q314 53 363
99T419 170Z" />
<glyph unicode="A" glyph-name="A" horiz-adv-x="606" d="M436 239Q436 241 436 241T435 243T431 245T424 246T412 247T394 248T369 249T335 249Q314 249 242 244Q239 244 215 204T168 117T145 55Q145 44 159 36T184 26T200 24Q202 24 202 18Q202 7 197 -3Q104
2 102 2Q83 2 69 1T37 -1T4 -3Q2 -1 2 5Q2 24 9 24Q20 24 39 30T67 45Q89 69 128 139L404 635Q419 662 443 662Q447 662 451 660L534 132Q544 69 546 60Q549 45 571 35T604 24Q606 24 606 19Q606 7 601 -3Q508 2 497 2Q478 2 462 1T425 -1T390 -3Q389 -2 389 3Q389
24 396 24Q406 24 424 30T447 44Q454 59 454 91Q454 108 436 239ZM348 298Q394 298 423 300Q427 300 427 304Q427 309 421 351T406 449T394 526Q271 303 271 301T272 299Q295 298 348 298Z" />
<glyph unicode="B" glyph-name="B" horiz-adv-x="528" d="M448 211Q448 264 415 297T309 331Q238 331 235 316L197 116Q192 86 192 68T206 46T252 41Q322 41 349 54Q390 73 419 115T448 211ZM538 215Q538 133 464 67T262 0H135L25 -3Q24 -2 24 6Q24 26 31 26Q43
26 67 33T96 49Q110 78 122 142L194 514Q205 571 205 607Q205 614 183 622T149 631Q147 631 147 635Q147 651 154 658Q200 656 261 656Q308 656 338 656T392 657Q420 657 447 651T500 630T542 590T558 528Q558 504 551 482T533 443T508 413T481 390T457 374T438
364L432 361Q462 356 500 314T538 215ZM473 516Q473 616 370 616Q297 616 295 603L250 386Q249 382 253 380T267 376T286 374T309 373Q341 373 364 377T415 394T458 438T473 516Z" />
<glyph unicode="C" glyph-name="C" horiz-adv-x="580" d="M437 667Q505 667 650 622Q632 508 630 498Q627 483 606 483Q598 483 595 486Q595 501 594 513T584 548T560 586T511 613T432 625Q329 625 240 515T151 259Q151 163 203 100T350 37Q424 37 476 70Q501
85 519 106T546 140T556 153Q559 153 568 143T576 128Q531 42 526 37Q511 20 448 7T321 -6Q202 -6 131 75T60 267Q60 333 89 404T168 533T288 629T437 667Z" />
<glyph unicode="D" glyph-name="D" horiz-adv-x="668" d="M424 658Q554 658 621 586T688 405Q688 354 673 299T626 190T548 93T437 24T294 -3Q276 -3 223 -1T136 2L25 -3Q24 -2 24 5Q24 24 29 24Q40 24 66 32T96 49Q110 78 122 142L194 514Q207 585 205 607Q204
615 182 623T149 631Q147 631 147 635Q147 651 154 658Q200 656 261 656Q296 656 351 657T424 658ZM422 614Q315 614 302 598Q286 578 275 519L202 139Q199 125 199 97T201 63Q210 43 317 43Q401 43 467 97T566 236T600 414Q600 502 556 558T422 614Z" />
<glyph unicode="E" glyph-name="E" horiz-adv-x="519" d="M261 656Q302 656 402 660T554 664Q553 650 553 625Q553 608 554 576T555 528Q550 523 537 523Q525 523 525 530Q522 586 499 601T426 616H372Q301 616 296 603Q285 573 278 536L246 361Q246 358 248 357T257
355T269 354T283 353H328Q394 353 410 362T449 424Q452 431 463 431Q475 431 478 426L441 234Q435 230 427 230Q414 230 413 238Q412 265 409 278T405 294T398 301Q388 309 301 309Q235 309 233 300L204 152Q193 99 193 65Q193 50 201 47T254 44H299Q386 44 420
61Q436 69 457 96T498 162Q501 168 513 168Q530 168 534 162Q464 32 452 -4Q399 -4 288 -1T136 2L25 -3Q24 -2 24 5Q24 24 29 24Q40 24 66 32T96 49Q110 78 122 142L194 514Q207 585 205 607Q204 615 182 623T149 631Q147 631 147 635Q147 651 154 658Q200 656
261 656Z" />
<glyph unicode="F" glyph-name="F" horiz-adv-x="503" d="M136 2Q136 2 25 -3Q24 -2 24 5Q24 24 29 24Q40 24 66 32T96 49Q110 78 122 142L194 514Q207 585 205 607Q204 615 182 623T149 631Q147 631 147 635Q147 651 154 658Q200 656 261 656Q301 656 400 660T552
664Q551 650 551 625Q551 608 552 576T553 528Q548 523 535 523Q523 523 523 530Q520 586 497 601T424 616H370Q299 616 294 603Q283 573 276 536L244 361Q244 358 246 357T255 355T267 354T281 353H326Q392 353 408 362T447 424Q450 431 461 431Q473 431 476 426L439
234Q433 230 425 230Q412 230 411 238Q410 265 407 278T403 294T396 301Q386 309 299 309Q233 309 231 300L197 128Q189 88 189 49Q189 41 206 35T240 26L257 24Q259 24 259 16Q259 3 253 -3Q160 2 136 2Z" />
<glyph unicode="G" glyph-name="G" horiz-adv-x="616" d="M439 667Q507 667 652 622Q637 523 631 492Q630 483 608 483Q599 483 597 488Q597 503 596 514T586 548T562 586T513 613T434 625Q361 625 296 571T193 435T155 273Q155 177 205 107T343 37Q425 37 468
59Q476 63 479 76L507 218L508 222Q509 227 510 234T511 248Q511 257 483 265T442 274Q440 274 440 279Q440 293 448 301Q556 296 557 296Q571 296 666 301Q666 274 660 274Q643 274 616 265T586 236L562 97Q562 96 562 94T561 90Q561 83 562 75T563 63Q563 58
562 56T556 49T540 41Q538 40 521 34T498 25T476 18T448 10T419 4T384 -1T346 -4T299 -6Q193 -6 127 68T60 254Q60 351 111 446T251 604T439 667Z" />
<glyph unicode="H" glyph-name="H" horiz-adv-x="627" d="M397 365Q527 365 528 373L555 512Q566 567 566 604Q566 615 545 623T510 631Q508 631 508 636Q508 650 516 658Q528 657 563 655T624 652Q648 652 686 655T731 658V655Q731 631 724 631Q716 631 691 623T663
608Q648 575 637 515L564 139Q553 84 553 49Q553 41 566 35T594 26L607 24Q609 24 609 20Q609 9 603 -3Q510 2 499 2Q496 2 389 -3Q387 -1 387 5Q387 24 394 24Q406 24 430 30T458 46Q473 80 484 142L516 307V308Q516 313 493 314T379 316Q235 316 233 304L201
139Q190 84 190 49Q190 41 203 35T230 26L244 24Q246 24 246 20Q246 9 240 -3Q148 2 136 2Q134 2 26 -3Q24 -1 24 5Q24 24 31 24Q43 24 67 30T95 46Q110 80 121 142L192 512Q203 567 203 604Q203 615 182 623T147 631Q145 631 145 636Q145 650 153 658Q165 657
200 655T261 652Q285 652 322 655T367 658V655Q367 631 360 631Q352 631 327 623T298 608Q282 571 272 515L247 374V373Q247 368 273 367T397 365Z" />
<glyph unicode="I" glyph-name="I" horiz-adv-x="263" d="M272 515L201 139Q190 84 190 49Q190 41 203 35T230 26L244 24Q246 24 246 20Q246 9 240 -3Q148 2 136 2Q134 2 26 -3Q24 -1 24 5Q24 24 31 24Q43 24 67 30T95 46Q110 80 121 142L192 512Q203 567 203
604Q203 615 182 623T147 631Q145 631 145 636Q145 650 153 658Q165 657 200 655T261 652Q285 652 322 655T367 658V655Q367 631 360 631Q352 631 327 623T298 608Q285 580 272 515Z" />
<glyph unicode="J" glyph-name="J" horiz-adv-x="254" d="M115 109L190 512Q201 576 201 604Q201 615 176 623T138 631Q136 631 136 636Q136 650 144 658Q156 657 191 655T252 652Q276 652 313 655T358 658V655Q358 631 351 631Q343 631 321 623T296 608Q280 571
270 515L195 116Q181 40 156 -21T102 -121T41 -186T-20 -222T-74 -233Q-80 -226 -80 -215L-79 -209Q3 -183 45 -111T115 109Z" />
<glyph unicode="K" glyph-name="K" horiz-adv-x="642" d="M272 515L201 139Q190 84 190 49Q190 41 203 35T230 26L244 24Q246 24 246 20Q246 9 240 -3Q148 2 136 2Q134 2 26 -3Q24 -1 24 5Q24 24 31 24Q43 24 67 30T95 46Q110 80 121 142L192 512Q203 567 203
604Q203 615 182 623T147 631Q145 631 145 636Q145 650 153 658Q165 657 200 655T261 652Q285 652 322 655T367 658V655Q367 631 360 631Q352 631 327 623T298 608Q285 580 272 515ZM237 326Q283 354 360 427T508 578Q509 579 515 585T525 597T534 608T538 618Q538
627 521 631T490 635Q487 635 487 641Q487 650 492 658Q504 657 523 656T559 653T590 652Q614 652 652 655T697 658Q697 635 691 635Q621 627 585 591L341 347Q336 342 336 335Q336 327 342 319L546 72Q563 51 600 40T651 28Q653 28 653 22Q653 11 648 1Q597 -2
573 -2Q541 -2 514 8T475 27T457 44Q258 297 237 326Z" />
<glyph unicode="L" glyph-name="L" horiz-adv-x="498" d="M202 139Q192 81 192 65Q192 50 200 47T254 44H299Q386 44 420 61Q436 69 457 96T498 162Q501 168 513 168Q530 168 534 162Q464 32 452 -4Q400 -4 288 -1T136 2L25 -3Q24 -2 24 5Q24 29 31 29Q44 29 68
35T96 49Q110 78 122 142L193 512Q204 567 204 604Q204 615 183 623T148 631Q146 631 146 636Q146 650 154 658Q166 657 201 655T262 652Q286 652 323 655T368 658V655Q368 631 361 631Q353 631 328 623T299 608Q286 580 273 515L202 139Z" />
<glyph unicode="M" glyph-name="M" horiz-adv-x="814" d="M634 523L697 658Q724 655 776 655Q811 655 863 659Q865 654 863 642T858 630Q845 630 831 623T809 606Q800 594 796 577T786 517L747 135Q741 83 741 56Q741 46 745 39T756 30T770 26T786 25T799 24Q801
24 801 15Q801 3 795 -3Q702 2 686 2Q683 2 581 -3Q579 1 579 2Q579 8 581 16T586 24Q599 24 622 29T649 42Q652 49 655 56T659 69T663 84T665 98T667 115T669 132L709 522Q712 552 712 561Q712 567 706 567Q705 567 703 563L442 31Q437 22 423 10T397 -2Q393 -2
389 0L304 567Q303 569 302 569Q299 569 299 567L182 136Q163 68 163 53Q163 46 180 39T213 28T231 24Q233 24 233 18Q233 7 228 -3Q135 2 124 2Q121 2 14 -3Q12 -1 12 7Q12 24 19 24Q31 24 61 32T96 48Q114 82 129 137L238 528Q240 539 243 553T249 579T251 604Q251
615 223 623T183 631Q181 631 181 638Q181 654 187 658Q261 656 281 656Q338 656 376 658Q385 576 452 163Q452 162 453 162Q456 162 456 164L634 523Z" />
<glyph unicode="N" glyph-name="N" horiz-adv-x="663" d="M257 654Q275 654 351 658Q366 599 424 462T543 203Q550 223 554 244L605 513Q618 578 618 605Q618 617 591 624T548 631Q546 631 546 638Q546 653 553 658Q656 653 658 653Q672 653 767 658Q767 631 761
631Q751 631 719 624T683 609Q670 577 658 516L583 136Q577 105 569 56T559 -4Q555 -8 549 -8Q535 -8 523 15Q522 17 277 581L188 141Q178 92 178 52Q178 44 194 37T226 27L243 24Q245 24 245 19Q245 7 240 -3Q148 2 136 2Q134 2 26 -3Q24 -1 24 5Q24 24 31 24Q43
24 73 32T108 48Q119 70 135 144L212 516Q221 560 221 606Q221 618 195 624T153 631Q151 631 151 638Q151 653 158 658Q236 654 257 654Z" />
<glyph unicode="O" glyph-name="O" horiz-adv-x="624" d="M409 625Q301 625 226 514T151 267Q151 165 195 99T322 33Q426 33 502 146T578 395Q578 495 534 560T409 625ZM432 667Q533 667 601 592T670 409Q670 301 619 204T480 49T296 -10Q189 -10 125 66T60 259Q60
363 115 458T256 610T432 667Z" />
<glyph unicode="P" glyph-name="P" horiz-adv-x="505" d="M395 658Q453 658 509 615T565 504Q565 418 495 357T339 295Q293 295 269 304Q267 311 267 314Q267 324 273 330Q287 328 297 328Q365 328 422 378T480 516Q480 621 372 621Q325 621 310 617T292 601L199
128Q190 83 190 49Q190 41 206 35T238 26L255 24Q257 24 257 16Q257 3 251 -3Q158 2 149 2Q146 2 26 -3Q24 -1 24 5Q24 24 31 24Q42 24 66 31T95 46Q105 66 121 142L203 554Q208 579 208 606Q208 618 189 624T155 631Q153 631 153 638Q153 653 160 658Q203 655
264 655Q292 655 330 656T395 658Z" />
<glyph unicode="Q" glyph-name="Q" horiz-adv-x="624" d="M409 625Q301 625 226 514T151 267Q151 165 195 99T322 33Q426 33 502 146T578 395Q578 495 534 560T409 625ZM432 667Q533 667 601 592T670 409Q670 305 621 210T490 56Q397 -12 276 -35Q306 -39 416
-86T593 -133Q630 -133 673 -112T739 -71Q762 -82 762 -95Q744 -119 683 -152T556 -186T431 -166T287 -109T123 -52Q123 -48 129 -39T141 -27Q156 -26 247 -5Q161 12 111 85T60 259Q60 363 115 458T256 610T432 667Z" />
<glyph unicode="R" glyph-name="R" horiz-adv-x="593" d="M389 658Q417 658 446 652T503 631T550 588T568 522Q568 491 555 461T523 411T480 372T438 344T407 327Q398 324 402 315Q421 249 451 179T504 74Q509 66 514 60T524 49T534 41T545 35T554 32T563 30T572
29T581 29T590 29Q597 10 591 1Q566 -4 533 -4Q467 -4 424 61T326 297Q321 311 282 311Q250 311 241 309T230 294L201 139Q190 84 190 49Q190 41 203 35T230 26L244 24Q246 24 246 20Q246 9 240 -3Q147 2 136 2Q133 2 26 -3Q24 -1 24 5Q24 24 31 24Q43 24 67 30T95
46Q106 73 121 142L203 556Q208 582 208 606Q208 618 188 624T155 631Q153 631 153 638Q153 653 160 658Q203 655 264 655Q292 655 326 656T389 658ZM373 621Q322 621 309 618T293 602L245 369V367Q245 352 292 352Q338 352 380 369T452 428T483 527Q483 621 373
621Z" />
<glyph unicode="S" glyph-name="S" horiz-adv-x="435" d="M355 172Q355 202 331 230T273 282T205 330T146 388T122 458Q122 548 187 607T346 666Q372 666 413 655T475 642Q468 587 462 531Q459 502 458 497T453 492Q438 492 430 498Q428 499 428 510Q428 557 398
590T327 623Q270 623 235 589T200 502Q200 449 249 410Q268 395 314 363T380 314T421 266T441 199Q441 168 426 133T383 67T309 15T208 -6Q154 -6 49 18Q53 82 53 99T52 145T51 176Q51 183 70 183Q79 183 89 175Q89 154 93 133T110 88T150 50T217 35Q270 35 312
71T355 172Z" />
<glyph unicode="T" glyph-name="T" horiz-adv-x="601" d="M285 142L354 497Q367 566 367 594Q367 601 365 604T339 611T268 615Q215 615 193 599T146 526Q144 521 136 521Q123 521 116 528L160 671Q198 660 223 660Q262 660 324 657T425 654T528 657T631 660Q653
660 697 671L687 528Q678 521 664 521Q655 521 655 526Q655 580 636 597T569 615Q470 615 463 600Q449 570 435 500L365 139Q354 84 354 49Q354 41 367 35T394 26L408 24Q410 24 410 20Q410 9 404 -3Q312 2 300 2Q298 2 190 -3Q188 -1 188 5Q188 24 195 24Q207
24 231 30T259 46Q274 80 285 142Z" />
<glyph unicode="U" glyph-name="U" horiz-adv-x="631" d="M173 512Q184 569 184 604Q184 615 163 623T128 631Q126 631 126 636Q126 650 134 658Q146 657 181 655T242 652Q266 652 303 655T348 658V655Q348 631 341 631Q333 631 308 623T279 608Q266 580 253 515L212
298Q204 254 204 213Q204 136 237 93T335 49Q498 49 540 274L584 512Q596 582 596 602Q596 614 567 622T521 631Q519 631 519 637Q519 653 526 658Q538 657 574 655T634 652Q653 652 670 653T708 655T741 658Q741 631 734 631Q726 631 695 623T659 608Q651 598
632 510L587 276Q556 117 491 59T304 0Q217 0 169 53T120 206Q120 243 134 312L173 512Z" />
<glyph unicode="V" glyph-name="V" horiz-adv-x="640" d="M232 654Q265 654 341 658Q341 658 341 655Q341 631 334 631Q299 631 287 623T274 594Q274 581 278 562L355 143L595 554Q607 575 607 602Q607 615 590 623T553 631Q551 631 551 636Q551 653 558 658Q630
654 651 654Q674 654 750 658V652Q748 631 742 631Q723 631 699 618T660 579L334 19Q315 -14 296 -14Q291 -14 287 -8L188 551Q182 585 173 606Q168 617 151 624T122 631Q120 631 120 636Q120 653 127 658Q209 654 232 654Z" />
<glyph unicode="W" glyph-name="W" horiz-adv-x="973" d="M218 652Q236 652 254 653T292 655T326 658V655Q326 631 319 631Q295 631 281 620T267 594Q267 585 274 557L401 112L522 295L448 560Q440 588 429 606Q423 616 407 623T380 631Q378 631 378 636Q378 652
386 658Q399 657 433 655T492 652Q516 652 549 654T592 658V655Q592 648 590 640T584 631Q560 631 547 620T533 594Q533 581 539 557L584 396L669 534Q694 575 694 593Q694 612 677 621T648 631Q646 631 646 636Q646 653 653 658Q740 652 748 652Q776 652 807 655T848
658Q848 631 841 631Q825 631 801 619T768 598Q749 577 698 498L598 344L666 106L909 534Q934 578 934 593Q934 612 917 621T888 631Q886 631 886 636Q886 653 893 658Q980 652 988 652Q1016 652 1047 655T1088 658Q1088 631 1081 631Q1065 631 1041 619T1008 598Q975
560 938 498L657 19Q638 -13 614 -13Q608 -13 606 -8L536 245L390 19Q369 -13 348 -13Q343 -13 340 -8L198 510Q181 570 163 606Q158 616 142 623T115 631Q113 631 113 636Q113 653 120 658Q135 657 164 655T218 652Z" />
<glyph unicode="X" glyph-name="X" horiz-adv-x="656" d="M289 652Q298 652 412 658V654Q412 631 406 631Q398 631 385 628T357 615T342 591Q342 580 347 567Q421 399 422 399Q424 399 466 444T550 539T593 600Q593 613 574 622T535 631Q533 631 533 636Q533 653
540 658Q642 652 651 652Q672 652 690 653T729 655T762 658V655Q762 631 755 631Q743 631 707 622T659 600Q440 357 440 355Q440 354 467 290T525 155T564 69Q578 45 608 35T654 24Q656 24 656 19Q656 3 653 -3Q560 2 542 2Q540 2 408 -3Q406 -1 406 5Q406 24 413
24Q425 24 446 33T468 56Q468 69 466 74Q375 291 374 291T324 236T226 121T176 54Q176 24 231 24Q235 24 235 15Q235 2 230 -3Q213 -2 127 -2Q30 -2 11 -3Q10 -2 10 1Q10 24 15 24Q23 24 36 25T72 34T105 54Q356 333 356 336L278 520Q260 563 251 578T223 609Q214
617 195 624T167 631Q165 631 165 636Q165 653 172 658Q184 657 223 655T289 652Z" />
<glyph unicode="Y" glyph-name="Y" horiz-adv-x="593" d="M244 652Q254 652 368 658V653Q368 631 361 631Q346 631 322 621T298 589Q298 579 302 567L371 355Q384 372 416 414T466 479T506 533T538 579T548 600Q547 613 527 622T486 631Q484 631 484 637Q484 653
491 658Q499 658 531 655T583 652Q588 652 702 658Q703 656 703 653Q703 631 696 631Q686 631 657 622T615 600T495 442T384 285L356 139Q345 84 345 49Q345 41 358 35T386 26L399 24Q401 24 401 20Q401 9 395 -3Q302 2 291 2Q288 2 180 -3Q179 -2 179 4Q179 24
186 24Q197 24 221 31T250 46Q262 67 275 136L301 278Q302 282 281 348T238 480L217 545Q202 591 178 609Q168 616 149 623T122 631Q120 631 120 636Q120 653 127 658Q139 657 178 655T244 652Z" />
<glyph unicode="Z" glyph-name="Z" horiz-adv-x="546" d="M323 656Q369 655 431 655Q465 655 489 656T526 658T567 661T622 666Q624 665 625 651T625 633Q624 629 510 490T282 214L169 76Q161 67 161 59T171 51H381Q397 51 411 53T437 60T457 70T474 83T487 97T498
112T505 126T512 140T517 152Q520 160 544 160Q554 160 558 154Q523 68 501 0H40Q36 7 36 17Q36 33 44 43L510 608H467Q451 608 430 608T388 608T350 608T321 607T309 607Q245 606 217 580T157 484Q154 480 147 480Q129 480 120 489Q133 524 176 665Q185 662 246
659T323 656Z" />
<glyph unicode="[" glyph-name="bracketleft" horiz-adv-x="307" d="M168 740Q213 740 266 744L318 749Q323 749 323 743Q323 738 322 733T318 724T312 717T306 711T301 708L299 706Q253 695 203 695Q200 695 198 693T196 689L195 687L51 -49Q50 -57 56 -57Q78
-57 100 -61T134 -70L146 -74L148 -75Q150 -76 151 -77T153 -82T155 -89T154 -102Q153 -107 151 -110T148 -114H146Q80 -102 4 -102Q-9 -102 -9 -85V-79L145 717Q145 719 147 723T154 734T168 740Z" />
<glyph unicode="\" glyph-name="backslash" horiz-adv-x="212" d="M26 761Q65 761 67 739L193 13Q194 10 194 5Q194 -11 186 -24T165 -39L142 -37L6 755Q18 761 26 761Z" />
<glyph unicode="]" glyph-name="bracketright" horiz-adv-x="299" d="M150 749Q150 749 158 748Q167 747 181 746T213 743T253 741T298 740Q311 740 311 725Q311 720 310 717L156 -79Q156 -81 155 -85T148 -96T134 -102Q100 -102 64 -105T7 -111L-13 -114Q-17
-111 -17 -105Q-17 -94 3 -74Q52 -57 99 -57Q102 -57 104 -55T107 -51L108 -49L251 687Q252 695 246 695Q224 695 201 697T166 703L154 706Q142 718 142 728Q142 749 150 749Z" />
<glyph unicode="^" glyph-name="asciicircum" horiz-adv-x="303" d="M13 499Q15 503 41 524T105 587T174 677Q175 679 176 682T178 686T180 688T182 689T186 690Q196 690 199 684T211 649T237 588Q243 575 258 554T284 518T296 500Q294 492 289 484T279 475Q265
475 227 521T172 597Q139 558 85 517T21 475Q13 475 13 499Z" />
<glyph unicode="_" glyph-name="underscore" horiz-adv-x="485" d="M9 -37Q9 -32 18 -10T33 13H447Q453 13 453 9Q453 3 435 -37Q435 -37 429 -43H14Q9 -43 9 -37Z" />
<glyph unicode="`" glyph-name="grave" horiz-adv-x="162" d="M20 659Q20 664 22 669T35 681T62 687Q87 687 92 678Q104 659 119 625T143 566L152 542Q152 537 148 532T138 527Q127 527 74 579T20 659Z" />
<glyph unicode="a" glyph-name="a" horiz-adv-x="440" d="M352 435Q390 435 425 422L364 106Q361 94 361 81Q361 56 371 56Q377 56 385 61T402 75T418 90T431 104L437 111Q439 111 444 102T450 88Q437 66 396 30T324 -6Q308 -6 299 8T290 46Q290 63 297 99Q299
110 300 116T302 125Q292 107 279 89T246 47T204 10T161 -5Q117 -5 92 34T66 130Q66 201 108 272T218 389T352 435ZM310 389Q251 389 196 313T140 151Q140 53 191 53Q227 53 271 126T331 274L351 376Q339 389 310 389Z" />
<glyph unicode="b" glyph-name="b" horiz-adv-x="394" d="M329 435Q373 435 395 396T418 304Q418 176 340 85T176 -6Q138 -6 108 22T77 104Q77 119 80 137L163 559Q172 600 172 612Q172 631 111 631Q108 631 108 637Q108 649 116 657Q181 663 242 685Q248 682
248 666Q248 654 235 591L176 303Q208 356 243 388T297 427T329 435ZM300 380Q279 380 247 343T186 252T150 156Q139 101 153 68T202 35Q240 35 273 73T325 168T344 280Q344 299 343 312T339 343T325 370T300 380Z" />
<glyph unicode="c" glyph-name="c" horiz-adv-x="326" d="M290 435Q337 435 377 401Q380 389 380 381Q380 362 371 350T345 338T312 366T278 394Q235 394 189 325T142 162Q142 56 208 56Q216 56 223 58T238 63T252 69T265 78T276 87T286 95T293 103T298 108L301
111Q303 111 308 102T314 88Q300 64 258 29T175 -6Q123 -6 96 34T68 146Q68 242 141 338T290 435Z" />
<glyph unicode="d" glyph-name="d" horiz-adv-x="463" d="M357 435Q382 435 362 435H370L398 584Q401 598 401 612Q401 631 340 631Q337 631 337 637Q337 649 345 657Q414 663 474 685Q480 681 480 666L465 591L371 106Q368 94 368 81Q368 56 378 56Q384 56 392
61T409 75T425 90T438 104L444 111Q446 111 451 102T457 88Q444 66 403 30T331 -6Q315 -6 306 8T297 46Q297 62 304 99Q306 107 307 112T309 120T310 126Q297 103 280 78T229 24T169 -5Q123 -5 98 34T73 130Q73 238 165 336T357 435ZM350 341Q354 360 346 374T319
389Q258 389 203 313T147 150Q147 53 198 53Q235 53 279 126T338 276L350 341Z" />
<glyph unicode="e" glyph-name="e" horiz-adv-x="359" d="M292 435Q338 435 358 412T379 360Q379 316 334 273T236 207T149 183Q145 183 145 148Q145 103 162 80T210 56Q218 56 225 58T240 63T254 69T267 78T278 87T288 95T295 103T300 108L303 111Q305 111 310
102T316 88Q302 64 260 29T177 -6Q125 -6 98 34T70 146Q70 242 143 338T292 435ZM282 394Q235 394 194 327T152 222Q152 218 156 218Q192 218 249 266T307 364Q307 394 282 394Z" />
<glyph unicode="f" glyph-name="f" horiz-adv-x="304" d="M403 699Q467 699 485 665Q485 600 449 600Q435 600 423 615T397 645T367 661Q335 661 299 596T243 413V411Q243 407 246 407H361Q366 407 366 395Q366 379 355 361H238Q233 361 232 353L177 54Q153 -85
93 -158T-39 -231Q-74 -231 -94 -219T-120 -190Q-121 -167 -109 -149T-79 -131Q-70 -131 -62 -140T-48 -161T-31 -182T-5 -192Q14 -192 33 -169T65 -110T88 -42T102 15L162 354V356Q162 361 159 361H94Q92 361 92 364Q92 373 108 390T140 407H169Q173 407 175 416Q195
539 261 619T403 699Z" />
<glyph unicode="g" glyph-name="g" horiz-adv-x="438" d="M342 -118Q342 -96 330 -78T293 -46T250 -25T202 -8Q183 -16 175 -20T146 -35T117 -55T99 -79T90 -110Q90 -190 221 -190Q270 -190 306 -170T342 -118ZM277 398Q234 398 207 351T179 247Q179 208 195 182T240
156Q282 156 309 200T337 294Q337 334 321 366T277 398ZM293 436Q323 436 359 423T429 409H472Q478 409 478 401Q478 394 475 384T467 370H411Q405 370 405 364Q411 328 411 312Q411 275 401 244T373 192T344 162T320 145Q310 139 280 125T232 99T215 77Q215 68
234 60T282 42T339 18T386 -21T406 -78Q406 -149 343 -191T172 -233Q103 -233 60 -207T16 -135Q16 -111 29 -89T66 -48T112 -18T160 6L142 18Q117 35 117 54Q117 71 152 93T217 122Q198 122 174 132T127 168T104 231Q104 315 162 375T293 436Z" />
<glyph unicode="h" glyph-name="h" horiz-adv-x="461" d="M381 435Q431 435 431 369Q431 324 417 260L384 106Q381 94 381 81Q381 56 391 56Q397 56 405 61T422 75T438 90T451 104L457 111Q459 111 464 102T470 88Q457 66 416 30T344 -6Q328 -6 319 8T310 46Q310
62 317 99L352 264Q359 297 359 318Q359 361 340 361Q307 361 238 271T148 78L131 0Q118 -4 100 -4T66 0L174 559Q183 603 183 612Q183 631 122 631Q119 631 119 637Q119 649 127 657Q193 663 253 685Q259 682 259 666Q259 658 246 591L195 330L177 238Q187 256
220 300T302 389T381 435Z" />
<glyph unicode="i" glyph-name="i" horiz-adv-x="274" d="M208 435Q224 435 233 421T242 383Q242 362 236 330L192 106Q189 94 189 81Q189 56 199 56Q205 56 213 61T230 75T246 90T259 104L265 111Q267 111 272 102T278 88Q265 66 224 30T152 -6Q136 -6 127 8T118
46Q118 62 125 99L166 308Q171 339 171 348Q171 373 161 373Q157 373 150 369T136 357T122 344T111 332L106 326Q104 326 99 335T93 349Q105 369 143 402T208 435ZM237 646Q252 646 262 634T273 606Q273 582 258 564T219 546Q203 546 194 558T185 589Q185 612 200
629T237 646Z" />
<glyph unicode="j" glyph-name="j" horiz-adv-x="290" d="M229 435Q245 435 254 421T263 383Q263 363 257 330L202 45Q181 -63 136 -124Q108 -162 68 -192T-3 -235Q-12 -228 -12 -215Q38 -186 76 -124T130 22L187 308Q192 344 192 348Q192 373 182 373Q178 373
171 369T157 357T143 344T132 332T127 326Q125 326 120 335T114 349Q126 369 164 402T229 435ZM258 646Q273 646 283 634T294 606Q294 582 279 564T240 546Q224 546 215 558T206 589Q206 612 221 629T258 646Z" />
<glyph unicode="k" glyph-name="k" horiz-adv-x="485" d="M384 435Q414 435 436 416T459 367Q459 302 402 260T254 203Q314 113 345 84T399 55Q417 55 433 70T458 99Q461 99 467 91T474 79Q469 62 437 29T376 -4Q363 -4 351 0T326 13T303 30T280 54T259 79T239
109T221 137T204 166T189 191L152 0Q134 -5 119 -5Q106 -5 86 0L195 559Q204 600 204 612Q204 631 143 631Q140 631 140 637Q140 649 148 657Q213 663 274 685Q280 682 280 666Q280 654 267 591L215 322L226 335Q237 348 252 363T288 396T334 424T384 435ZM348
388Q316 388 261 321T205 232Q205 230 207 230Q211 230 217 231T242 235T278 244T316 258T352 279T377 308T388 345Q388 388 348 388Z" />
<glyph unicode="l" glyph-name="l" horiz-adv-x="248" d="M93 99L187 584Q190 599 190 612Q190 631 129 631Q126 631 126 637Q126 649 134 657Q202 663 262 685Q268 682 268 666Q268 654 255 591L160 106Q157 94 157 81Q157 56 167 56Q173 56 181 61T199 75T215
90T227 104T233 111Q236 111 241 102T246 88Q233 66 192 30T120 -6Q105 -6 96 8T86 46Q86 63 93 99Z" />
<glyph unicode="m" glyph-name="m" horiz-adv-x="716" d="M395 435Q422 435 436 419T454 386T457 340Q457 323 443 251Q476 308 535 371T630 435Q663 435 675 419T687 369Q687 324 673 260L640 106Q637 94 637 81Q637 56 647 56Q653 56 661 61T678 75T694 90T707
104L713 111Q715 111 720 102T726 88Q713 66 672 30T600 -6Q584 -6 575 8T566 46Q566 62 573 99L608 264Q615 297 615 318Q615 333 614 341T609 355T596 361Q562 361 496 274T412 95L394 0Q390 0 379 -1T359 -3T341 -2T327 0L383 284Q387 305 387 322Q387 361 367
361Q332 361 267 266T185 88L167 0Q141 -4 133 -4Q126 -4 100 0L160 308Q165 344 165 348Q165 373 155 373Q151 373 144 369T130 357T116 344T105 332T100 326Q98 326 93 335T87 349Q99 369 137 402T202 435Q218 435 227 421T236 383Q236 361 230 330L212 237Q249
301 304 368T395 435Z" />
<glyph unicode="n" glyph-name="n" horiz-adv-x="492" d="M200 435Q216 435 225 421T234 383Q234 361 228 330L210 238Q220 256 253 300T335 389T414 435Q464 435 464 369Q464 324 450 260L417 106Q414 94 414 81Q414 56 424 56Q430 56 438 61T455 75T471 90T484
104L490 111Q492 111 497 102T503 88Q490 66 449 30T377 -6Q361 -6 352 8T343 46Q343 62 350 99L385 264Q392 297 392 318Q392 361 373 361Q340 361 271 271T181 78L164 0Q151 -4 133 -4T99 0L158 308Q163 344 163 348Q163 373 153 373Q149 373 142 369T128 357T114
344T103 332T98 326Q96 326 91 335T85 349Q97 369 135 402T200 435Z" />
<glyph unicode="o" glyph-name="o" horiz-adv-x="412" d="M276 394Q226 394 185 316T144 158Q144 100 162 68T209 36Q259 36 297 114T336 273Q336 332 320 363T276 394ZM288 435Q347 435 379 394T412 281Q412 178 340 87T191 -5Q131 -5 100 34T68 145Q68 249 140
342T288 435Z" />
<glyph unicode="p" glyph-name="p" horiz-adv-x="440" d="M313 377Q254 377 217 324L174 103Q170 80 178 61T213 42Q271 42 323 118T375 280Q375 377 313 377ZM353 435Q399 435 424 396T449 300Q449 231 405 159T301 41T194 -4Q169 -4 154 4L126 -145Q123 -158
123 -173Q123 -192 137 -196Q150 -199 184 -199Q186 -199 186 -205Q186 -220 181 -227Q174 -227 163 -227T146 -226Q78 -226 3 -235Q0 -234 0 -227Q0 -212 4 -206Q31 -206 44 -190Q55 -176 60 -147L139 261L91 213Q85 220 85 233Q85 237 88 240L147 303L173 433Q188
437 206 437T238 430Q229 388 227 374Q247 392 259 402T298 423T353 435Z" />
<glyph unicode="q" glyph-name="q" horiz-adv-x="415" d="M323 389Q258 389 206 315T153 159Q153 53 205 53Q242 53 289 126T352 274L372 376Q360 389 323 389ZM366 435Q411 435 446 422L385 106L340 -147Q338 -163 338 -168Q338 -177 340 -182T353 -193T384 -198Q386
-198 386 -204Q386 -220 381 -228Q374 -228 361 -228T341 -227Q270 -227 196 -235Q196 -234 196 -230T195 -223Q195 -205 200 -205Q209 -205 219 -204T248 -188T272 -147L323 125Q309 101 288 75T234 22T175 -5Q131 -5 105 34T79 130Q79 201 122 272T232 389T366
435Z" />
<glyph unicode="r" glyph-name="r" horiz-adv-x="372" d="M207 435Q223 435 232 421T241 383Q241 361 235 330L219 246Q244 305 293 370T377 435T432 403Q432 336 395 336Q387 336 376 348T353 361Q324 361 267 274T194 105L175 0Q158 -3 142 -3Q123 -3 105 0L165
308Q170 344 170 348Q170 373 160 373Q156 373 149 369T135 357T121 344T110 332T105 326Q103 326 98 335T92 349Q104 369 142 402T207 435Z" />
<glyph unicode="s" glyph-name="s" horiz-adv-x="320" d="M261 438Q318 438 351 400Q356 388 356 379Q356 361 347 348T322 335Q308 335 297 349T270 379T226 394Q205 394 193 380T181 348Q181 322 200 293T243 240T285 184T305 117Q305 62 265 28T162 -6Q105
-6 72 32Q67 40 67 51Q67 69 76 83T101 97Q115 97 126 83T153 53T197 38Q219 38 232 52T246 84Q246 110 227 139T184 192T142 248T122 315Q122 357 162 397T261 438Z" />
<glyph unicode="t" glyph-name="t" horiz-adv-x="262" d="M197 542Q200 552 246 552Q258 552 264 551L239 420H330Q335 420 335 407Q335 395 326 378H231L178 106Q175 94 175 81Q175 56 185 56Q191 56 199 61T216 75T232 90T245 104L251 111Q253 111 258 102T264
88Q251 66 210 30T138 -6Q122 -6 113 8T104 46Q104 62 111 99L165 378H94Q91 378 91 389Q91 402 103 420H173L197 542Z" />
<glyph unicode="u" glyph-name="u" horiz-adv-x="472" d="M190 435Q206 435 215 421T224 383Q224 356 218 330L183 165Q176 136 176 111Q176 68 195 68Q209 68 235 91T289 152T343 244T379 351L396 429Q409 433 427 433Q445 433 461 429L399 106Q396 94 396 81Q396
56 406 56Q412 56 420 61T437 75T453 90T466 104L472 111Q474 111 479 102T485 88Q472 66 431 30T359 -6Q343 -6 334 8T325 46Q325 62 332 99L350 191Q340 172 309 129T231 40T154 -6Q104 -6 104 60Q104 106 118 169L148 308Q153 344 153 348Q153 373 143 373Q139
373 132 369T118 357T104 344T93 332T88 326Q86 326 81 335T75 349Q87 369 125 402T190 435Z" />
<glyph unicode="v" glyph-name="v" horiz-adv-x="416" d="M194 435Q210 435 219 421T228 383Q228 362 222 330L192 177Q184 129 184 114Q184 86 193 74T225 62Q271 62 332 153T394 309Q394 330 380 354T365 390Q365 408 377 421T406 435Q425 435 438 427Q452 401
452 369Q452 286 404 197T293 54T187 0Q153 0 133 24T113 88Q113 116 117 132L151 308Q157 329 157 348Q157 373 147 373Q143 373 136 369T122 357T108 344T97 332L92 326Q90 326 85 335T79 349Q91 369 129 402T194 435Z" />
<glyph unicode="w" glyph-name="w" horiz-adv-x="632" d="M194 435Q210 435 219 421T228 383Q228 362 222 330L192 177Q184 129 184 114Q184 86 193 74T225 62Q247 62 276 88T333 154Q357 351 366 385Q379 435 406 435Q444 435 444 388Q444 323 403 211Q396 161
396 147Q396 99 404 81T437 62Q467 62 504 106T567 209T593 309Q593 330 579 354T564 390Q564 408 576 421T605 435Q624 435 637 427Q651 401 651 369Q651 306 624 238T558 118T475 34T399 0Q364 0 345 24T325 91Q246 0 187 0Q153 0 133 24T113 88Q113 116 117
132L151 308Q157 329 157 348Q157 373 147 373Q143 373 136 369T122 357T108 344T97 332L92 326Q90 326 85 335T79 349Q91 369 129 402T194 435Z" />
<glyph unicode="x" glyph-name="x" horiz-adv-x="476" d="M208 435Q250 435 276 348L297 277L356 378Q389 435 440 435Q474 435 498 415Q506 399 506 389Q506 374 496 364T474 353Q461 353 445 368T414 384Q402 384 387 358L312 230L355 89Q365 55 382 55Q397
55 414 70T438 99Q442 99 448 91T454 79Q451 62 417 29T352 -5Q310 -5 284 82L261 160L198 51Q165 -6 114 -6Q80 -6 56 14Q48 28 48 40Q48 55 58 65T80 76Q93 76 109 61T140 45Q152 45 167 71L246 207L205 341Q195 375 178 375Q163 375 146 360T122 331Q118 331
112 339T106 351Q109 368 143 401T208 435Z" />
<glyph unicode="y" glyph-name="y" horiz-adv-x="479" d="M216 435Q246 435 265 384T292 251T301 122T303 28Q342 76 381 150T420 285Q420 344 395 392Q408 435 445 435Q489 435 489 356Q489 246 403 104T209 -136T33 -233Q7 -233 -10 -221T-27 -192Q-27 -160
-4 -148Q18 -161 63 -161Q146 -161 207 -72Q230 -38 230 62Q230 111 228 159T219 259T200 341T170 373Q161 373 143 356T115 326Q113 326 108 335T102 349Q108 364 149 399T216 435Z" />
<glyph unicode="z" glyph-name="z" horiz-adv-x="404" d="M205 435Q215 435 269 423T356 410Q370 410 389 422T422 435Q434 435 434 410Q434 404 359 322T210 159L135 79Q135 78 142 82T159 92T176 97Q204 97 246 79T302 61Q310 61 318 67T334 82T348 100T359
118T365 129Q369 134 373 126T379 110Q371 84 340 42T279 0Q269 0 215 13T128 26Q114 26 95 13T62 0Q50 0 50 26Q50 33 124 115T274 277L348 357L342 352Q335 348 325 343T308 338Q280 338 238 356T182 374Q174 374 166 368T150 353T137 334T126 316T120 306Q115
301 111 309T106 326Q114 352 144 393T205 435Z" />
<glyph unicode="{" glyph-name="braceleft" horiz-adv-x="275" d="M3 12Q3 58 23 99T64 173T85 233Q85 243 82 250T74 263T61 273T47 280T30 286T13 292V298Q13 317 21 329Q46 336 59 341T89 356T113 384T121 425Q121 444 113 485T104 549Q104 615 155 682T288
750Q291 750 291 746Q291 740 286 731T276 721Q268 720 252 713T213 692T175 647T159 577Q159 558 164 522T170 464Q170 394 137 352T71 308Q94 307 112 283T130 222Q130 181 109 143T66 70T44 0Q44 -38 69 -66T117 -96Q124 -98 124 -112Q124 -125 118 -125Q67
-125 35 -87T3 12Z" />
<glyph unicode="|" glyph-name="bar" horiz-adv-x="203" d="M158 757Q174 773 202 773Q208 773 213 771T217 766L49 -106Q43 -112 30 -117T3 -123Q-2 -123 -7 -121T-11 -115L158 757Z" />
<glyph unicode="}" glyph-name="braceright" horiz-adv-x="268" d="M275 623Q275 585 262 549T232 491T202 441T188 390Q188 371 200 359T224 341T259 329Q260 327 260 321Q260 306 253 292Q249 291 236 287T216 281T197 274T179 262T166 248T155 227T152 199Q152
180 160 140T169 79Q169 11 114 -57T-14 -125Q-17 -125 -17 -121Q-17 -115 -12 -106T-1 -96Q28 -94 72 -54T116 47Q116 67 106 102T96 161Q96 223 131 265T200 308Q178 309 162 332T146 391Q146 441 188 518T230 631Q230 668 205 693T157 721Q150 723 150 737Q150
750 156 750Q208 750 241 717T275 623Z" />
<glyph unicode="~" glyph-name="asciitilde" horiz-adv-x="473" d="M157 354Q201 354 261 328T365 301Q382 301 400 308T426 322T458 345Q464 339 464 335Q464 310 422 280T329 250Q285 250 224 276T118 303Q101 303 83 296T57 282T25 259Q19 265 19 269Q19 297
66 325T157 354Z" />
<glyph unicode="&#xa0;" glyph-name="uni00A0" horiz-adv-x="103" />
<glyph unicode="&#xa1;" glyph-name="exclamdown" horiz-adv-x="197" d="M21 -269Q3 -269 -6 -256T-16 -223Q-16 -207 17 -80Q61 92 103 256Q105 266 110 273T119 278Q136 269 136 257Q76 -199 75 -206Q70 -232 56 -250T21 -269ZM92 369Q92 397 112 418T157 440Q176
440 188 427T200 393Q200 365 180 345T135 324Q116 324 104 336T92 369Z" />
<glyph unicode="&#xa2;" glyph-name="cent" horiz-adv-x="319" d="M285 435Q307 435 330 425T366 401Q368 393 368 379Q368 361 357 350T328 338Q312 338 293 367T260 396Q219 396 175 326T131 162Q131 139 135 119T156 78T202 57Q223 57 246 74T281 105T296 127Q298
127 301 119T306 105Q306 83 264 40T178 -4Q133 -4 104 23T66 83T57 152Q57 256 132 345T285 435ZM293 474Q325 474 324 466L148 -45Q116 -45 117 -36L293 474Z" />
<glyph unicode="&#xa3;" glyph-name="sterling" horiz-adv-x="438" d="M109 319Q109 319 357 319Q362 319 360 309Q357 289 340 279Q340 279 100 279Q95 279 98 292Q101 308 109 319ZM215 258Q195 159 139 84Q162 93 208 93Q235 93 283 77T348 61Q362 61 376 70T397
88T416 114T430 134Q439 134 439 117Q439 112 437 108Q374 -8 305 -8Q273 -8 215 10T135 29Q103 29 58 -9Q50 -9 47 -3T44 10Q56 27 75 50T102 82Q125 118 149 249Q151 258 161 332T174 423Q192 517 251 576T385 635Q434 635 449 598Q446 578 436 559T410 539Q391
539 375 566T340 593Q318 593 301 581T273 544T256 497T244 444Q240 425 228 344T215 258Z" />
<glyph unicode="&#xa4;" glyph-name="currency" horiz-adv-x="447" d="M247 463Q197 463 159 404T120 273Q120 220 143 186T203 152Q253 152 291 211T329 341Q329 394 306 428T247 463ZM262 496Q320 496 358 455L424 510Q425 511 428 511Q436 511 444 497T454
466L387 410Q398 380 398 347Q398 267 342 199L381 141Q381 140 381 140T382 139Q382 131 365 118T332 100L295 155Q244 120 189 120Q129 120 91 160L32 110Q31 109 28 109Q20 109 12 123T2 154L62 205Q50 234 50 268Q50 355 112 423L75 479Q75 480 75 480T74 481Q74
489 91 502T124 520L161 465Q209 496 262 496Z" />
<glyph unicode="&#xa5;" glyph-name="yen" horiz-adv-x="611" d="M384 254Q384 254 469 254Q474 254 471 241Q468 226 461 216Q461 216 376 216L369 176Q369 176 454 176Q459 176 456 163Q453 148 446 138Q446 138 361 138Q349 75 350 46Q351 39 371 32T400 24Q404
24 402 12Q400 2 397 -3Q307 2 298 2Q294 2 191 -3Q188 4 189 10Q191 24 196 24Q207 24 230 31T258 46Q271 76 283 138H197Q192 138 195 151Q197 165 206 176H290L298 216Q298 216 213 216Q208 216 211 229Q214 244 221 254Q221 254 306 254Q310 266 308 270Q308
286 228 532Q217 567 200 594Q194 603 175 609T144 615Q141 615 143 626Q145 638 149 642Q163 641 196 639T256 636Q263 636 374 642Q375 637 372 626T366 615Q350 615 330 607T306 583Q304 576 310 554L371 348Q376 342 381 350Q542 548 549 584Q551 595 536 605T493
615Q491 616 491 621T493 633T498 642Q507 641 535 639T583 636Q601 636 712 642Q712 632 711 627Q709 615 705 615Q693 615 659 607T613 586Q562 521 477 408T389 282L384 254Z" />
<glyph unicode="&#xa6;" glyph-name="brokenbar" horiz-adv-x="203" d="M157 754Q173 770 201 770Q207 770 212 768T216 763L147 400Q132 383 102 383Q97 383 92 385T87 391L157 754ZM59 248Q75 264 103 264Q109 264 114 262T118 257L49 -106Q43 -112 30 -117T3
-123Q-2 -123 -7 -121T-11 -115L59 248Z" />
<glyph unicode="&#xa7;" glyph-name="section" horiz-adv-x="348" d="M272 652Q329 652 344 615Q339 555 302 555Q290 555 282 569T263 599T233 614Q203 614 181 588T158 523Q158 494 175 471T218 430T268 396T310 351T328 290Q328 188 245 125Q245 123 245 119T246
111Q246 46 206 -8T82 -63Q23 -63 9 -27Q11 0 22 17T51 34Q63 34 71 19T89 -12T119 -27Q149 -27 171 0T194 65Q194 94 177 117T134 158T84 192T42 237T24 298Q24 398 108 464Q108 466 108 471T107 478Q107 547 150 599T272 652ZM76 354Q76 322 97 296T144 255T199
215T238 159Q276 186 276 235Q276 267 255 292T208 333T154 373T115 429Q89 409 81 389Q76 373 76 354Z" />
<glyph unicode="&#xa8;" glyph-name="dieresis" horiz-adv-x="285" d="M239 577Q254 577 265 565T276 537Q276 513 261 495T222 477Q206 477 197 490T188 521Q188 544 202 560T239 577ZM70 577Q85 577 96 565T107 537Q107 513 92 495T53 477Q37 477 28 490T19
521Q19 544 33 560T70 577Z" />
<glyph unicode="&#xa9;" glyph-name="copyright" horiz-adv-x="547" d="M309 483Q367 483 409 464Q411 460 411 456Q412 442 412 406Q412 394 396 394Q392 394 390 396Q390 402 387 410T377 427T354 443T314 449Q271 449 236 410T201 315Q201 273 224 250T279
227Q300 227 316 231T342 242T356 255T365 269T370 279Q372 280 374 280L388 276Q385 268 373 242T357 214Q310 195 255 195Q207 195 177 226T146 307Q146 374 195 428T309 483ZM336 615Q427 615 484 554T542 398Q542 269 446 169T229 69Q138 69 81 130T24 286Q24
415 120 515T336 615ZM330 584Q225 584 140 495T54 292Q54 209 105 155T236 100Q341 100 427 188T513 391Q513 474 462 529T330 584Z" />
<glyph unicode="&#xaa;" glyph-name="ordfeminine" horiz-adv-x="319" d="M233 556Q280 556 290 546L252 345Q249 329 249 316Q249 290 264 290Q272 290 290 316L308 341Q312 341 315 326Q308 307 286 279T240 250Q201 250 201 301Q201 312 204 330L206 347L205
349Q204 349 204 349T204 347Q192 321 155 285T87 249Q27 249 27 322Q27 402 98 479T233 556ZM228 530Q183 530 135 462T86 338Q86 290 116 290Q138 290 174 341T219 442L232 513Q232 514 232 517T233 521Q233 530 228 530Z" />
<glyph unicode="&#xab;" glyph-name="guillemotleft" horiz-adv-x="416" d="M405 423Q423 417 423 407Q423 402 422 400T405 383T353 338Q339 326 302 291T254 247L317 157Q325 146 335 134T350 115T358 102T362 91T359 84T351 79T342 75T336 73Q325 90 277 138T175
227Q171 230 171 237Q171 256 183 268Q236 298 290 336T369 393T405 423ZM87 247Q111 211 132 182T164 139T183 116T193 102T196 92Q196 88 192 84T183 78T174 74L169 73Q158 90 110 138T8 227Q4 230 4 237Q4 256 16 268Q71 299 126 338T208 397T239 423Q256 418
256 407Q256 402 255 400T238 383T186 338Q172 326 135 291T87 247Z" />
<glyph unicode="&#xac;" glyph-name="logicalnot" horiz-adv-x="474" d="M40 420H454Q465 420 463 409L416 169Q407 160 374 160Q368 160 364 162T360 168L397 354V355Q397 364 387 364H22Q19 376 19 382Q19 395 26 407T40 420Z" />
<glyph unicode="&#xae;" glyph-name="registered" horiz-adv-x="547" d="M304 529Q272 529 270 519L256 444Q256 443 255 442T254 440Q254 428 292 428Q315 428 328 447T342 491Q342 529 304 529ZM314 554Q345 554 366 538T388 493Q388 443 330 414Q329 413 329
411V410Q333 388 361 333Q370 316 375 308T389 293T408 286Q408 279 406 275Q400 272 388 272Q346 272 328 294T277 398Q274 407 260 407Q249 407 247 399L230 310V299Q230 292 233 291Q245 285 252 285Q253 285 253 282Q253 280 251 272Q213 274 201 274Q188 274
146 272Q146 274 146 276T145 280Q145 281 146 282T148 285Q160 287 166 288T175 293T179 300T182 312T185 330L218 499Q222 521 222 528Q222 534 215 537T200 541Q198 541 198 543Q198 545 199 548T201 553Q207 553 221 552T244 550Q258 550 279 552T314 554ZM236
680T341 680T506 600T544 407T432 214T236 133T72 213T34 407T146 600ZM429 648T337 648T165 578T66 407T98 236T242 165T415 236T514 407T482 577Z" />
<glyph unicode="&#xaf;" glyph-name="overscore" horiz-adv-x="261" d="M43 596H241Q249 596 249 578Q249 569 243 556T231 539H30Q25 539 25 558Q25 566 31 578T43 596Z" />
<glyph unicode="&#xb0;" glyph-name="degree" horiz-adv-x="201" d="M119 597Q92 597 71 576T50 524Q50 503 62 489T96 474Q122 474 143 496T165 548Q165 569 153 583T119 597ZM126 634Q159 634 180 612T201 555Q201 509 166 473T89 437Q56 437 35 460T14 517Q14
564 49 599T126 634Z" />
<glyph unicode="&#xb1;" glyph-name="plusminus" horiz-adv-x="497" d="M14 92H444Q448 92 448 83Q448 59 427 36H-3Q-8 36 -8 45Q-8 64 14 92ZM72 389H250Q254 389 254 393Q260 422 270 483T287 581Q289 590 311 594T343 599Q349 599 351 597T353 590Q330 456
318 394Q316 389 321 389H502Q506 389 506 380Q506 356 485 333H306Q302 333 302 329L267 141Q266 133 249 128T217 123Q209 123 205 126T202 132Q227 272 238 328Q238 333 234 333H55Q50 333 50 342Q50 361 72 389Z" />
<glyph unicode="&#xb2;" glyph-name="uni00B2" horiz-adv-x="302" d="M303 563Q303 520 270 474T198 397T126 341T93 311Q93 310 94 310H221Q235 310 245 319T262 337T270 347Q279 347 285 343Q278 330 272 316T259 283T248 254L136 255L14 254Q9 256 9 273Q9
280 13 287Q29 302 59 331T105 375T144 414T180 452T205 485T223 517T229 544Q229 564 218 579T183 594Q170 594 136 573T100 551Q98 551 95 559T92 572Q92 578 95 584Q107 601 145 624T220 647Q257 647 280 623T303 563Z" />
<glyph unicode="&#xb3;" glyph-name="uni00B3" horiz-adv-x="279" d="M104 283Q144 283 175 314T206 391Q206 416 192 430T156 444Q152 444 107 438Q102 446 102 452Q102 465 113 468Q170 480 193 509T216 562Q216 577 204 586T176 596Q152 596 127 578T99 559Q95
559 94 567T94 584V593Q145 647 217 647Q239 647 260 630T281 583Q281 559 267 538T240 509T206 487Q203 485 201 484Q223 484 248 461T274 402Q274 345 217 296T79 247Q52 247 31 255T7 273Q8 290 19 303T43 317T72 300T104 283Z" />
<glyph unicode="&#xb4;" glyph-name="acute" horiz-adv-x="207" d="M170 687Q203 687 203 666Q203 642 124 585T32 527Q29 527 26 533T22 543Q22 550 64 602T122 670Q139 687 170 687Z" />
<glyph unicode="&#xb5;" glyph-name="uni00B5" horiz-adv-x="428" d="M154 437Q163 437 181 423T197 400Q191 365 143 246L134 223Q120 164 122 114T148 64Q223 64 310 222L364 425Q366 437 379 437Q388 437 406 423T422 400Q417 369 367 246L358 223Q324 67 379
67Q408 67 438 97Q441 97 445 87Q447 81 445 76Q429 43 400 20T342 -4Q312 -3 306 31T305 128Q221 -9 138 -9Q132 -9 127 -8T117 -2T110 5T105 15T101 26T98 39T96 51T94 64T93 76Q93 75 85 34T72 -43T69 -124T87 -194Q86 -204 72 -212T43 -221Q35 -221 27 -213T12
-184T4 -133Q4 -58 87 204Q90 218 96 257T103 298Q113 343 127 417Q142 437 154 437Z" />
<glyph unicode="&#xb6;" glyph-name="paragraph" horiz-adv-x="414" d="M210 286L166 49V47Q166 36 186 36Q193 36 199 40T207 50Q220 100 257 295Q257 299 255 299Q254 299 250 298T237 296T217 293Q211 292 210 286ZM218 652Q246 652 270 650T322 648L427 653Q428
652 428 646Q428 624 421 624Q410 624 388 618T361 604Q357 597 345 533T321 410T310 349Q310 346 312 346H314L355 354Q356 351 356 346Q356 323 333 316L308 309Q301 306 301 304Q300 300 292 258T277 177T264 98T257 47Q257 37 280 30T314 23Q316 23 316 18Q316
1 309 -4Q293 -3 243 -1T159 2Q140 2 122 1T82 -1T47 -4V-2Q47 5 49 14T55 23Q63 23 88 30T116 45Q123 60 135 119T157 231T167 286Q167 291 149 291Q86 291 54 335T21 438Q21 518 84 585T218 652ZM273 599Q273 597 264 556T245 468T227 381T219 337Q219 332 226
332L262 338Q266 338 268 344Q269 348 281 413T304 537T315 601Q315 604 309 607T296 611Q275 611 273 599Z" />
<glyph unicode="&#xb7;" glyph-name="middot" horiz-adv-x="131" d="M10 252Q10 279 31 300T77 322Q96 322 108 309T120 276Q120 248 100 227T54 205Q35 205 23 218T10 252Z" />
<glyph unicode="&#xb8;" glyph-name="cedilla" horiz-adv-x="161" d="M87 -4H106L86 -27H108Q123 -27 132 -38T141 -65Q141 -96 113 -124T37 -152Q19 -152 8 -143V-134Q8 -124 13 -120T23 -115Q28 -115 37 -121T55 -128Q75 -128 89 -117T103 -87Q103 -74 96 -68T79
-61Q72 -61 54 -68Q52 -68 50 -64T47 -57Q47 -55 51 -50T66 -31T87 -4Z" />
<glyph unicode="&#xb9;" glyph-name="uni00B9" horiz-adv-x="218" d="M51 579Q80 592 121 612T184 642T210 652Q216 652 216 629Q199 587 192 548L152 340Q148 316 148 310Q148 298 152 293Q155 288 171 284T195 279Q197 279 197 272Q197 259 193 253Q182 253
153 254T102 256T50 255T8 253Q7 254 7 258Q7 278 14 278Q23 278 44 283T68 292Q76 301 83 340L116 513Q122 555 122 557Q122 569 112 569Q106 569 52 551Q44 553 44 566Q44 576 51 579Z" />
<glyph unicode="&#xba;" glyph-name="ordmasculine" horiz-adv-x="312" d="M191 529Q156 529 134 503T103 442T95 364Q95 271 153 271Q180 271 199 287T228 329T242 383T246 441Q246 529 191 529ZM201 554Q250 554 281 519T312 432Q312 361 262 304T141 247Q92
247 61 281T29 367Q29 438 79 496T201 554Z" />
<glyph unicode="&#xbb;" glyph-name="guillemotright" horiz-adv-x="425" d="M83 423Q98 401 148 351T245 268Q248 262 248 252Q248 231 238 227Q177 191 122 153T41 94L16 73Q-2 78 -2 88Q-2 94 4 100T38 131Q56 146 68 157L166 247L102 338Q59 391 59 402Q59
408 62 412T68 417T77 420T83 423ZM250 423Q263 403 313 353T411 268Q415 263 415 254Q415 231 404 227Q346 193 291 155T210 94L183 73Q165 78 165 88Q165 94 171 100T205 131Q223 146 235 157L333 247L269 338Q225 392 225 401Q225 406 227 409T232 415T239 419T246
422L250 423Z" />
<glyph unicode="&#xbc;" glyph-name="onequarter" horiz-adv-x="563" d="M43 579Q72 592 113 612T176 642T202 652Q208 652 208 629Q191 587 184 548L144 340Q140 316 140 310Q140 300 145 293Q148 288 164 284T187 279Q189 279 189 272Q189 259 185 253Q174 253
145 254T94 256T42 255T0 253Q-1 254 -1 258Q-1 278 6 278Q15 278 36 283T60 292Q68 301 75 340L108 513Q114 555 114 557Q114 569 104 569Q98 569 44 551Q36 553 36 566Q36 576 43 579ZM552 618L106 -14Q73 -7 73 4Q73 8 75 10L522 642Q553 634 553 623Q553 619
552 618ZM514 390Q521 397 529 397Q554 397 552 390L507 162V161Q507 158 511 158H535Q544 158 544 151Q544 122 533 115H501Q499 115 497 110L475 0Q465 -5 448 -5Q435 -5 426 -4T414 0T412 4L432 112V113Q432 115 429 115H290Q283 127 283 141L514 390ZM345 158H436Q441
158 442 163L468 292Q468 296 466 296H465L343 166Q342 165 342 163Q342 158 345 158Z" />
<glyph unicode="&#xbd;" glyph-name="onehalf" horiz-adv-x="609" d="M538 618L92 -14Q59 -7 59 4Q59 8 61 10L508 642Q540 634 540 623Q540 620 538 618ZM514 56Q531 56 540 61T550 74T557 86T572 92Q578 92 579 90Q577 87 542 0H308Q300 4 300 17Q300 26 306
33Q319 45 349 74T394 117T433 155T470 195T496 230T516 263T522 291Q522 311 511 325T476 340Q459 340 437 329T400 300Q398 298 396 298Q393 298 390 306T386 321L387 329Q411 355 446 374T513 393Q550 393 573 369T596 309Q596 266 563 220T491 144T419 88T386
57Q386 56 387 56H514ZM191 638H195Q201 638 201 614Q183 573 176 534L138 338Q134 314 134 308Q134 303 136 291Q137 286 155 281T181 276Q183 276 183 270Q183 257 179 251Q167 251 140 252T92 254T43 253T2 251Q0 253 0 257Q0 275 7 275Q17 275 36 280T58 290Q69
308 74 338L104 499Q109 524 109 539Q109 555 99 555Q97 555 52 540Q42 548 41 551Q41 555 41 556T42 559T45 562T51 565T60 569T73 575T93 584T118 597T151 614T191 638Z" />
<glyph unicode="&#xbe;" glyph-name="threequarters" horiz-adv-x="593" d="M573 618L127 -14Q94 -7 94 4Q94 8 96 10L543 642Q574 634 574 623Q574 619 573 618ZM94 558Q86 558 86 585Q86 587 87 590L88 593Q139 647 211 647Q234 647 255 630T276 583Q276 574
275 566T269 550T262 536T251 524T241 514T229 504T218 497T206 490L196 484Q218 484 242 462T267 403Q267 343 209 295T73 247Q46 247 25 255T1 273Q2 290 12 303T36 317Q50 317 66 300T99 283Q139 283 169 314T199 392Q199 444 151 444Q147 444 102 438Q97 446
97 452Q97 465 108 468Q164 480 187 509T210 562Q210 578 198 587T169 596Q150 596 123 577T94 558ZM479 -5Q443 -5 443 4L464 112Q464 115 461 115H322Q315 127 315 138V141L546 390Q553 397 565 397Q583 397 583 391V390L539 163V162Q539 159 543 159H568Q576
159 576 152Q575 145 574 136Q572 120 568 118Q566 116 564 115L532 114Q530 114 528 109L507 0Q505 -5 479 -5ZM474 163L499 292Q499 297 497 297Q492 292 433 229T373 164Q373 158 377 158H468Q473 158 474 163Z" />
<glyph unicode="&#xbf;" glyph-name="questiondown" horiz-adv-x="277" d="M138 228Q138 236 148 242Q172 242 209 212T246 144Q246 94 204 61L85 -23Q33 -59 33 -92Q33 -118 49 -136T95 -154Q116 -154 132 -131T163 -107Q178 -107 189 -120T203 -154Q197 -172
179 -190T130 -208Q70 -208 28 -168T-15 -79Q-15 -55 -11 -38T-1 -8T21 18T49 40T92 67T144 102Q177 124 177 162Q177 180 158 203T138 228ZM273 391Q273 363 253 342T208 321Q189 321 176 334T163 367Q163 394 184 415T231 437Q250 437 261 424T273 391Z" />
<glyph unicode="&#xc0;" glyph-name="Agrave" horiz-adv-x="606" d="M451 710Q432 710 361 738T290 784Q290 793 305 800T348 808Q359 808 365 806Q388 791 426 759T464 720Q464 710 451 710ZM436 239Q436 241 436 241T435 243T431 245T424 246T412 247T394 248T369
249T335 249Q314 249 242 244Q239 244 215 204T168 117T145 55Q145 44 159 36T184 26T200 24Q202 24 202 18Q202 7 197 -3Q104 2 102 2Q83 2 69 1T37 -1T4 -3Q2 -1 2 5Q2 24 9 24Q20 24 39 30T67 45Q89 69 128 139L404 635Q419 662 443 662Q447 662 451 660L534
132Q544 69 546 60Q549 45 571 35T604 24Q606 24 606 19Q606 7 601 -3Q508 2 497 2Q478 2 462 1T425 -1T390 -3Q389 -2 389 3Q389 24 396 24Q406 24 424 30T447 44Q454 59 454 91Q454 108 436 239ZM348 298Q394 298 423 300Q427 300 427 304Q427 309 421 351T406
449T394 526Q271 303 271 301T272 299Q295 298 348 298Z" />
<glyph unicode="&#xc1;" glyph-name="Aacute" horiz-adv-x="606" d="M421 711Q408 711 408 721Q408 727 446 759T507 807Q513 809 524 809Q551 809 566 802T582 785Q582 768 511 740T421 711ZM436 239Q436 241 436 241T435 243T431 245T424 246T412 247T394 248T369
249T335 249Q314 249 242 244Q239 244 215 204T168 117T145 55Q145 44 159 36T184 26T200 24Q202 24 202 18Q202 7 197 -3Q104 2 102 2Q83 2 69 1T37 -1T4 -3Q2 -1 2 5Q2 24 9 24Q20 24 39 30T67 45Q89 69 128 139L404 635Q419 662 443 662Q447 662 451 660L534
132Q544 69 546 60Q549 45 571 35T604 24Q606 24 606 19Q606 7 601 -3Q508 2 497 2Q478 2 462 1T425 -1T390 -3Q389 -2 389 3Q389 24 396 24Q406 24 424 30T447 44Q454 59 454 91Q454 108 436 239ZM348 298Q394 298 423 300Q427 300 427 304Q427 309 421 351T406
449T394 526Q271 303 271 301T272 299Q295 298 348 298Z" />
<glyph unicode="&#xc2;" glyph-name="Acircumflex" horiz-adv-x="606" d="M566 728Q547 728 467 786Q437 768 395 748T344 728Q333 728 338 748Q342 752 353 760T383 780T415 804Q449 828 470 850Q479 858 483 858Q491 858 494 850Q512 818 526 802Q537 790 551
777T573 756T581 748Q576 728 566 728ZM436 239Q436 241 436 241T435 243T431 245T424 246T412 247T394 248T369 249T335 249Q314 249 242 244Q239 244 215 204T168 117T145 55Q145 44 159 36T184 26T200 24Q202 24 202 18Q202 7 197 -3Q104 2 102 2Q83 2 69 1T37
-1T4 -3Q2 -1 2 5Q2 24 9 24Q20 24 39 30T67 45Q89 69 128 139L404 635Q419 662 443 662Q447 662 451 660L534 132Q544 69 546 60Q549 45 571 35T604 24Q606 24 606 19Q606 7 601 -3Q508 2 497 2Q478 2 462 1T425 -1T390 -3Q389 -2 389 3Q389 24 396 24Q406 24
424 30T447 44Q454 59 454 91Q454 108 436 239ZM348 298Q394 298 423 300Q427 300 427 304Q427 309 421 351T406 449T394 526Q271 303 271 301T272 299Q295 298 348 298Z" />
<glyph unicode="&#xc3;" glyph-name="Atilde" horiz-adv-x="606" d="M295 737Q288 737 292 754Q295 770 315 792Q354 832 395 832Q426 832 470 806T545 779Q556 779 572 790T601 812T614 823Q621 823 617 806Q614 790 594 767Q558 728 516 728Q484 728 441 754T365
781Q350 781 323 759T295 737ZM436 239Q436 241 436 241T435 243T431 245T424 246T412 247T394 248T369 249T335 249Q314 249 242 244Q239 244 215 204T168 117T145 55Q145 44 159 36T184 26T200 24Q202 24 202 18Q202 7 197 -3Q104 2 102 2Q83 2 69 1T37 -1T4
-3Q2 -1 2 5Q2 24 9 24Q20 24 39 30T67 45Q89 69 128 139L404 635Q419 662 443 662Q447 662 451 660L534 132Q544 69 546 60Q549 45 571 35T604 24Q606 24 606 19Q606 7 601 -3Q508 2 497 2Q478 2 462 1T425 -1T390 -3Q389 -2 389 3Q389 24 396 24Q406 24 424 30T447
44Q454 59 454 91Q454 108 436 239ZM348 298Q394 298 423 300Q427 300 427 304Q427 309 421 351T406 449T394 526Q271 303 271 301T272 299Q295 298 348 298Z" />
<glyph unicode="&#xc4;" glyph-name="Adieresis" horiz-adv-x="606" d="M481 757T485 778T505 813T541 828Q560 828 571 814T578 778T558 743T522 728Q503 728 492 742ZM313 757T317 778T337 813T373 828Q392 828 403 814T410 778T390 743T353 728Q334 728 324
742ZM436 239Q436 241 436 241T435 243T431 245T424 246T412 247T394 248T369 249T335 249Q314 249 242 244Q239 244 215 204T168 117T145 55Q145 44 159 36T184 26T200 24Q202 24 202 18Q202 7 197 -3Q104 2 102 2Q83 2 69 1T37 -1T4 -3Q2 -1 2 5Q2 24 9 24Q20
24 39 30T67 45Q89 69 128 139L404 635Q419 662 443 662Q447 662 451 660L534 132Q544 69 546 60Q549 45 571 35T604 24Q606 24 606 19Q606 7 601 -3Q508 2 497 2Q478 2 462 1T425 -1T390 -3Q389 -2 389 3Q389 24 396 24Q406 24 424 30T447 44Q454 59 454 91Q454
108 436 239ZM348 298Q394 298 423 300Q427 300 427 304Q427 309 421 351T406 449T394 526Q271 303 271 301T272 299Q295 298 348 298Z" />
<glyph unicode="&#xc5;" glyph-name="Aring" horiz-adv-x="606" d="M399 772T395 749T403 710T436 693T474 709T497 749T491 788T458 804T418 788ZM357 712T364 749T401 812T465 838T517 812T528 749T492 686T430 659Q396 659 377 685ZM436 239Q436 241 436 241T435
243T431 245T424 246T412 247T394 248T369 249T335 249Q314 249 242 244Q239 244 215 204T168 117T145 55Q145 44 159 36T184 26T200 24Q202 24 202 18Q202 7 197 -3Q104 2 102 2Q83 2 69 1T37 -1T4 -3Q2 -1 2 5Q2 24 9 24Q20 24 39 30T67 45Q89 69 128 139L404
635Q419 662 443 662Q447 662 451 660L534 132Q544 69 546 60Q549 45 571 35T604 24Q606 24 606 19Q606 7 601 -3Q508 2 497 2Q478 2 462 1T425 -1T390 -3Q389 -2 389 3Q389 24 396 24Q406 24 424 30T447 44Q454 59 454 91Q454 108 436 239ZM348 298Q394 298 423
300Q427 300 427 304Q427 309 421 351T406 449T394 526Q271 303 271 301T272 299Q295 298 348 298Z" />
<glyph unicode="&#xc6;" glyph-name="AE" horiz-adv-x="847" d="M211 50Q211 40 231 32T262 24Q263 24 263 22Q263 12 254 -3Q162 2 160 2Q141 2 127 1T97 -1T64 -3Q63 -2 63 3Q63 9 66 16T72 24Q82 24 102 30T132 45Q171 80 211 139L523 586Q528 593 528 601Q528
625 498 625Q495 625 495 630Q495 646 505 656H592Q634 656 737 660T892 664Q891 644 888 599T883 530Q878 525 866 525T854 532Q853 560 845 578T824 603T799 613T772 616H713Q635 616 631 603Q624 578 616 505L601 347V346Q601 340 632 340H665Q725 340 739 348T774
402Q777 408 778 411Q781 418 793 418T808 413Q792 351 782 221Q776 217 767 217Q755 217 754 224Q753 250 750 264T745 281T737 288Q727 296 637 296Q597 296 596 286L584 154L580 111Q575 68 575 63Q575 57 578 53T596 47T636 44H651Q729 44 763 61Q792 76 833
162Q836 168 848 168Q865 168 869 162Q818 64 795 -4Q742 -4 652 -1T522 2L396 -3Q395 -2 395 3Q395 11 398 21T404 31Q415 31 444 37T477 50T485 67T492 94T497 126T501 164T505 203T509 245T512 285Q512 293 506 293L438 294Q397 294 371 293Q368 293 365 290L256
131Q211 67 211 50ZM540 547L400 344Q399 343 399 342T401 340Q420 339 454 339Q493 339 513 341L519 346L540 547Z" />
<glyph unicode="&#xc7;" glyph-name="Ccedilla" horiz-adv-x="580" d="M276 -27H304Q325 -27 335 -44T341 -85Q333 -125 299 -149T220 -174Q197 -174 185 -164V-147Q187 -141 192 -136T203 -131Q209 -131 220 -138T241 -146Q263 -146 278 -135T296 -107Q299 -88
291 -78T270 -67T239 -75Q237 -75 233 -69T231 -60Q233 -58 252 -34T278 0H301L276 -27ZM437 667Q505 667 650 622Q632 508 630 498Q627 483 606 483Q598 483 595 486Q595 501 594 513T584 548T560 586T511 613T432 625Q329 625 240 515T151 259Q151 163 203 100T350
37Q424 37 476 70Q501 85 519 106T546 140T556 153Q559 153 568 143T576 128Q531 42 526 37Q511 20 448 7T321 -6Q202 -6 131 75T60 267Q60 333 89 404T168 533T288 629T437 667Z" />
<glyph unicode="&#xc8;" glyph-name="Egrave" horiz-adv-x="519" d="M429 710Q410 710 339 738T268 784Q268 793 283 800T326 808Q337 808 343 806Q366 791 404 759T442 720Q442 710 429 710ZM261 656Q302 656 402 660T554 664Q553 650 553 625Q553 608 554 576T555
528Q550 523 537 523Q525 523 525 530Q522 586 499 601T426 616H372Q301 616 296 603Q285 573 278 536L246 361Q246 358 248 357T257 355T269 354T283 353H328Q394 353 410 362T449 424Q452 431 463 431Q475 431 478 426L441 234Q435 230 427 230Q414 230 413 238Q412
265 409 278T405 294T398 301Q388 309 301 309Q235 309 233 300L204 152Q193 99 193 65Q193 50 201 47T254 44H299Q386 44 420 61Q436 69 457 96T498 162Q501 168 513 168Q530 168 534 162Q464 32 452 -4Q399 -4 288 -1T136 2L25 -3Q24 -2 24 5Q24 24 29 24Q40
24 66 32T96 49Q110 78 122 142L194 514Q207 585 205 607Q204 615 182 623T149 631Q147 631 147 635Q147 651 154 658Q200 656 261 656Z" />
<glyph unicode="&#xc9;" glyph-name="Eacute" horiz-adv-x="519" d="M333 711Q320 711 320 721Q320 727 358 759T419 807Q425 809 436 809Q463 809 478 802T494 785Q494 768 423 740T333 711ZM261 656Q302 656 402 660T554 664Q553 650 553 625Q553 608 554 576T555
528Q550 523 537 523Q525 523 525 530Q522 586 499 601T426 616H372Q301 616 296 603Q285 573 278 536L246 361Q246 358 248 357T257 355T269 354T283 353H328Q394 353 410 362T449 424Q452 431 463 431Q475 431 478 426L441 234Q435 230 427 230Q414 230 413 238Q412
265 409 278T405 294T398 301Q388 309 301 309Q235 309 233 300L204 152Q193 99 193 65Q193 50 201 47T254 44H299Q386 44 420 61Q436 69 457 96T498 162Q501 168 513 168Q530 168 534 162Q464 32 452 -4Q399 -4 288 -1T136 2L25 -3Q24 -2 24 5Q24 24 29 24Q40
24 66 32T96 49Q110 78 122 142L194 514Q207 585 205 607Q204 615 182 623T149 631Q147 631 147 635Q147 651 154 658Q200 656 261 656Z" />
<glyph unicode="&#xca;" glyph-name="Ecircumflex" horiz-adv-x="519" d="M497 728Q478 728 398 786Q368 768 326 748T275 728Q264 728 269 748Q273 752 284 760T314 780T346 804Q380 828 401 850Q410 858 414 858Q422 858 425 850Q443 818 457 802Q468 790 482
777T504 756T512 748Q507 728 497 728ZM261 656Q302 656 402 660T554 664Q553 650 553 625Q553 608 554 576T555 528Q550 523 537 523Q525 523 525 530Q522 586 499 601T426 616H372Q301 616 296 603Q285 573 278 536L246 361Q246 358 248 357T257 355T269 354T283
353H328Q394 353 410 362T449 424Q452 431 463 431Q475 431 478 426L441 234Q435 230 427 230Q414 230 413 238Q412 265 409 278T405 294T398 301Q388 309 301 309Q235 309 233 300L204 152Q193 99 193 65Q193 50 201 47T254 44H299Q386 44 420 61Q436 69 457 96T498
162Q501 168 513 168Q530 168 534 162Q464 32 452 -4Q399 -4 288 -1T136 2L25 -3Q24 -2 24 5Q24 24 29 24Q40 24 66 32T96 49Q110 78 122 142L194 514Q207 585 205 607Q204 615 182 623T149 631Q147 631 147 635Q147 651 154 658Q200 656 261 656Z" />
<glyph unicode="&#xcb;" glyph-name="Edieresis" horiz-adv-x="519" d="M412 757T416 778T436 813T472 828Q491 828 502 814T509 778T489 743T453 728Q434 728 423 742ZM244 757T248 778T268 813T304 828Q323 828 334 814T341 778T321 743T284 728Q265 728 255
742ZM261 656Q302 656 402 660T554 664Q553 650 553 625Q553 608 554 576T555 528Q550 523 537 523Q525 523 525 530Q522 586 499 601T426 616H372Q301 616 296 603Q285 573 278 536L246 361Q246 358 248 357T257 355T269 354T283 353H328Q394 353 410 362T449
424Q452 431 463 431Q475 431 478 426L441 234Q435 230 427 230Q414 230 413 238Q412 265 409 278T405 294T398 301Q388 309 301 309Q235 309 233 300L204 152Q193 99 193 65Q193 50 201 47T254 44H299Q386 44 420 61Q436 69 457 96T498 162Q501 168 513 168Q530
168 534 162Q464 32 452 -4Q399 -4 288 -1T136 2L25 -3Q24 -2 24 5Q24 24 29 24Q40 24 66 32T96 49Q110 78 122 142L194 514Q207 585 205 607Q204 615 182 623T149 631Q147 631 147 635Q147 651 154 658Q200 656 261 656Z" />
<glyph unicode="&#xcc;" glyph-name="Igrave" horiz-adv-x="263" d="M525 710Q506 710 435 738T364 784Q364 793 379 800T422 808Q433 808 439 806Q462 791 500 759T538 720Q538 710 525 710ZM272 515L201 139Q190 84 190 49Q190 41 203 35T230 26L244 24Q246
24 246 20Q246 9 240 -3Q148 2 136 2Q134 2 26 -3Q24 -1 24 5Q24 24 31 24Q43 24 67 30T95 46Q110 80 121 142L192 512Q203 567 203 604Q203 615 182 623T147 631Q145 631 145 636Q145 650 153 658Q165 657 200 655T261 652Q285 652 322 655T367 658V655Q367 631
360 631Q352 631 327 623T298 608Q285 580 272 515Z" />
<glyph unicode="&#xcd;" glyph-name="Iacute" horiz-adv-x="263" d="M227 711Q214 711 214 721Q214 727 252 759T313 807Q319 809 330 809Q357 809 372 802T388 785Q388 768 317 740T227 711ZM272 515L201 139Q190 84 190 49Q190 41 203 35T230 26L244 24Q246
24 246 20Q246 9 240 -3Q148 2 136 2Q134 2 26 -3Q24 -1 24 5Q24 24 31 24Q43 24 67 30T95 46Q110 80 121 142L192 512Q203 567 203 604Q203 615 182 623T147 631Q145 631 145 636Q145 650 153 658Q165 657 200 655T261 652Q285 652 322 655T367 658V655Q367 631
360 631Q352 631 327 623T298 608Q285 580 272 515Z" />
<glyph unicode="&#xce;" glyph-name="Icircumflex" horiz-adv-x="263" d="M640 728Q621 728 541 786Q511 768 469 748T418 728Q407 728 412 748Q416 752 427 760T457 780T489 804Q523 828 544 850Q553 858 557 858Q565 858 568 850Q586 818 600 802Q611 790 625
777T647 756T655 748Q650 728 640 728ZM272 515L201 139Q190 84 190 49Q190 41 203 35T230 26L244 24Q246 24 246 20Q246 9 240 -3Q148 2 136 2Q134 2 26 -3Q24 -1 24 5Q24 24 31 24Q43 24 67 30T95 46Q110 80 121 142L192 512Q203 567 203 604Q203 615 182 623T147
631Q145 631 145 636Q145 650 153 658Q165 657 200 655T261 652Q285 652 322 655T367 658V655Q367 631 360 631Q352 631 327 623T298 608Q285 580 272 515Z" />
<glyph unicode="&#xcf;" glyph-name="Idieresis" horiz-adv-x="263" d="M372 837Q387 837 398 825T409 797Q409 773 394 755T355 737Q339 737 330 750T321 781Q321 804 335 820T372 837ZM203 837Q218 837 229 825T240 797Q240 773 225 755T186 737Q170 737 161
750T152 781Q152 804 166 820T203 837ZM272 515L201 139Q190 84 190 49Q190 41 203 35T230 26L244 24Q246 24 246 20Q246 9 240 -3Q148 2 136 2Q134 2 26 -3Q24 -1 24 5Q24 24 31 24Q43 24 67 30T95 46Q110 80 121 142L192 512Q203 567 203 604Q203 615 182 623T147
631Q145 631 145 636Q145 650 153 658Q165 657 200 655T261 652Q285 652 322 655T367 658V655Q367 631 360 631Q352 631 327 623T298 608Q285 580 272 515Z" />
<glyph unicode="&#xd0;" glyph-name="Eth" horiz-adv-x="659" d="M420 663Q487 663 538 643T621 587T668 507T684 410Q684 359 669 304T622 195T544 98T433 29T290 2Q272 2 219 4T132 7Q105 7 77 6T35 3L21 2Q20 3 20 10Q20 29 25 29Q36 29 62 37T92 54Q106 83
118 147L190 519Q203 591 201 612Q200 620 178 628T145 636Q143 636 143 640Q143 656 150 663Q196 661 257 661Q292 661 347 662T420 663ZM418 619Q408 619 388 619T336 614T298 603Q290 593 284 578T277 557T271 524L198 144Q195 130 195 102T197 68Q201 60 228
55T277 49T313 48Q397 48 463 102T562 241T596 419Q596 507 552 563T418 619ZM101 353H446Q452 353 452 343Q452 327 446 313H100Q95 313 95 326Q95 344 101 353Z" />
<glyph unicode="&#xd1;" glyph-name="Ntilde" horiz-adv-x="663" d="M327 737Q320 737 324 754Q327 770 347 792Q386 832 427 832Q458 832 502 806T577 779Q588 779 604 790T633 812T646 823Q653 823 649 806Q646 790 626 767Q590 728 548 728Q516 728 473 754T397
781Q382 781 355 759T327 737ZM257 654Q275 654 351 658Q366 599 424 462T543 203Q550 223 554 244L605 513Q618 578 618 605Q618 617 591 624T548 631Q546 631 546 638Q546 653 553 658Q656 653 658 653Q672 653 767 658Q767 631 761 631Q751 631 719 624T683
609Q670 577 658 516L583 136Q577 105 569 56T559 -4Q555 -8 549 -8Q535 -8 523 15Q522 17 277 581L188 141Q178 92 178 52Q178 44 194 37T226 27L243 24Q245 24 245 19Q245 7 240 -3Q148 2 136 2Q134 2 26 -3Q24 -1 24 5Q24 24 31 24Q43 24 73 32T108 48Q119 70
135 144L212 516Q221 560 221 606Q221 618 195 624T153 631Q151 631 151 638Q151 653 158 658Q236 654 257 654Z" />
<glyph unicode="&#xd2;" glyph-name="Ograve" horiz-adv-x="624" d="M454 710Q435 710 364 738T293 784Q293 793 308 800T351 808Q362 808 368 806Q391 791 429 759T467 720Q467 710 454 710ZM409 625Q301 625 226 514T151 267Q151 165 195 99T322 33Q426 33 502
146T578 395Q578 495 534 560T409 625ZM432 667Q533 667 601 592T670 409Q670 301 619 204T480 49T296 -10Q189 -10 125 66T60 259Q60 363 115 458T256 610T432 667Z" />
<glyph unicode="&#xd3;" glyph-name="Oacute" horiz-adv-x="624" d="M388 711Q375 711 375 721Q375 727 413 759T474 807Q480 809 491 809Q518 809 533 802T549 785Q549 768 478 740T388 711ZM409 625Q301 625 226 514T151 267Q151 165 195 99T322 33Q426 33 502
146T578 395Q578 495 534 560T409 625ZM432 667Q533 667 601 592T670 409Q670 301 619 204T480 49T296 -10Q189 -10 125 66T60 259Q60 363 115 458T256 610T432 667Z" />
<glyph unicode="&#xd4;" glyph-name="Ocircumflex" horiz-adv-x="624" d="M554 728Q535 728 455 786Q425 768 383 748T332 728Q321 728 326 748Q330 752 341 760T371 780T403 804Q437 828 458 850Q467 858 471 858Q479 858 482 850Q500 818 514 802Q525 790 539
777T561 756T569 748Q564 728 554 728ZM409 625Q301 625 226 514T151 267Q151 165 195 99T322 33Q426 33 502 146T578 395Q578 495 534 560T409 625ZM432 667Q533 667 601 592T670 409Q670 301 619 204T480 49T296 -10Q189 -10 125 66T60 259Q60 363 115 458T256
610T432 667Z" />
<glyph unicode="&#xd5;" glyph-name="Otilde" horiz-adv-x="624" d="M295 737Q288 737 292 754Q295 770 315 792Q354 832 395 832Q426 832 470 806T545 779Q556 779 572 790T601 812T614 823Q621 823 617 806Q614 790 594 767Q558 728 516 728Q484 728 441 754T365
781Q350 781 323 759T295 737ZM409 625Q301 625 226 514T151 267Q151 165 195 99T322 33Q426 33 502 146T578 395Q578 495 534 560T409 625ZM432 667Q533 667 601 592T670 409Q670 301 619 204T480 49T296 -10Q189 -10 125 66T60 259Q60 363 115 458T256 610T432
667Z" />
<glyph unicode="&#xd6;" glyph-name="Odieresis" horiz-adv-x="624" d="M487 757T491 778T511 813T547 828Q566 828 577 814T584 778T564 743T528 728Q509 728 498 742ZM319 757T323 778T343 813T379 828Q398 828 409 814T416 778T396 743T359 728Q340 728 330
742ZM409 625Q301 625 226 514T151 267Q151 165 195 99T322 33Q426 33 502 146T578 395Q578 495 534 560T409 625ZM432 667Q533 667 601 592T670 409Q670 301 619 204T480 49T296 -10Q189 -10 125 66T60 259Q60 363 115 458T256 610T432 667Z" />
<glyph unicode="&#xd7;" glyph-name="multiply" horiz-adv-x="394" d="M24 60Q20 60 14 78T7 108L161 243Q163 245 163 246Q163 250 162 251L61 388Q61 397 77 416T99 435L103 431L207 290Q209 288 211 288Q212 288 213 289L371 430Q374 433 377 433Q382 433 388
416T394 384L241 248L239 246Q239 245 240 244L340 108Q340 98 327 79T307 60Q302 60 300 63L197 203Q195 205 194 205Q192 205 190 203L29 63Q26 60 24 60Z" />
<glyph unicode="&#xd8;" glyph-name="Oslash" horiz-adv-x="646" d="M137 -13Q130 -10 121 -2T115 10L631 667Q638 665 647 657T654 645L137 -13ZM430 625Q342 625 275 542T186 350Q173 292 178 235T199 133T253 61T343 33Q432 33 499 116T588 309Q601 367 596
423T574 525T520 597T430 625ZM62 188T89 328T222 567T452 667T643 568T684 328T550 89T320 -10T130 89Z" />
<glyph unicode="&#xd9;" glyph-name="Ugrave" horiz-adv-x="631" d="M437 710Q418 710 347 738T276 784Q276 793 291 800T334 808Q345 808 351 806Q374 791 412 759T450 720Q450 710 437 710ZM173 512Q184 569 184 604Q184 615 163 623T128 631Q126 631 126 636Q126
650 134 658Q146 657 181 655T242 652Q266 652 303 655T348 658V655Q348 631 341 631Q333 631 308 623T279 608Q266 580 253 515L212 298Q204 254 204 213Q204 136 237 93T335 49Q498 49 540 274L584 512Q596 582 596 602Q596 614 567 622T521 631Q519 631 519
637Q519 653 526 658Q538 657 574 655T634 652Q653 652 670 653T708 655T741 658Q741 631 734 631Q726 631 695 623T659 608Q651 598 632 510L587 276Q556 117 491 59T304 0Q217 0 169 53T120 206Q120 243 134 312L173 512Z" />
<glyph unicode="&#xda;" glyph-name="Uacute" horiz-adv-x="631" d="M412 711Q399 711 399 721Q399 727 437 759T498 807Q504 809 515 809Q542 809 557 802T573 785Q573 768 502 740T412 711ZM173 512Q184 569 184 604Q184 615 163 623T128 631Q126 631 126 636Q126
650 134 658Q146 657 181 655T242 652Q266 652 303 655T348 658V655Q348 631 341 631Q333 631 308 623T279 608Q266 580 253 515L212 298Q204 254 204 213Q204 136 237 93T335 49Q498 49 540 274L584 512Q596 582 596 602Q596 614 567 622T521 631Q519 631 519
637Q519 653 526 658Q538 657 574 655T634 652Q653 652 670 653T708 655T741 658Q741 631 734 631Q726 631 695 623T659 608Q651 598 632 510L587 276Q556 117 491 59T304 0Q217 0 169 53T120 206Q120 243 134 312L173 512Z" />
<glyph unicode="&#xdb;" glyph-name="Ucircumflex" horiz-adv-x="631" d="M568 728Q549 728 469 786Q439 768 397 748T346 728Q335 728 340 748Q344 752 355 760T385 780T417 804Q451 828 472 850Q481 858 485 858Q493 858 496 850Q514 818 528 802Q539 790 553
777T575 756T583 748Q578 728 568 728ZM173 512Q184 569 184 604Q184 615 163 623T128 631Q126 631 126 636Q126 650 134 658Q146 657 181 655T242 652Q266 652 303 655T348 658V655Q348 631 341 631Q333 631 308 623T279 608Q266 580 253 515L212 298Q204 254
204 213Q204 136 237 93T335 49Q498 49 540 274L584 512Q596 582 596 602Q596 614 567 622T521 631Q519 631 519 637Q519 653 526 658Q538 657 574 655T634 652Q653 652 670 653T708 655T741 658Q741 631 734 631Q726 631 695 623T659 608Q651 598 632 510L587
276Q556 117 491 59T304 0Q217 0 169 53T120 206Q120 243 134 312L173 512Z" />
<glyph unicode="&#xdc;" glyph-name="Udieresis" horiz-adv-x="631" d="M486 757T490 778T510 813T546 828Q565 828 576 814T583 778T563 743T527 728Q508 728 497 742ZM318 757T322 778T342 813T378 828Q397 828 408 814T415 778T395 743T358 728Q339 728 329
742ZM173 512Q184 569 184 604Q184 615 163 623T128 631Q126 631 126 636Q126 650 134 658Q146 657 181 655T242 652Q266 652 303 655T348 658V655Q348 631 341 631Q333 631 308 623T279 608Q266 580 253 515L212 298Q204 254 204 213Q204 136 237 93T335 49Q498
49 540 274L584 512Q596 582 596 602Q596 614 567 622T521 631Q519 631 519 637Q519 653 526 658Q538 657 574 655T634 652Q653 652 670 653T708 655T741 658Q741 631 734 631Q726 631 695 623T659 608Q651 598 632 510L587 276Q556 117 491 59T304 0Q217 0 169
53T120 206Q120 243 134 312L173 512Z" />
<glyph unicode="&#xdd;" glyph-name="Yacute" horiz-adv-x="593" d="M427 711Q414 711 414 721Q414 727 452 759T513 807Q519 809 530 809Q557 809 572 802T588 785Q588 768 517 740T427 711ZM244 652Q254 652 368 658V653Q368 631 361 631Q346 631 322 621T298
589Q298 579 302 567L371 355Q384 372 416 414T466 479T506 533T538 579T548 600Q547 613 527 622T486 631Q484 631 484 637Q484 653 491 658Q499 658 531 655T583 652Q588 652 702 658Q703 656 703 653Q703 631 696 631Q686 631 657 622T615 600T495 442T384 285L356
139Q345 84 345 49Q345 41 358 35T386 26L399 24Q401 24 401 20Q401 9 395 -3Q302 2 291 2Q288 2 180 -3Q179 -2 179 4Q179 24 186 24Q197 24 221 31T250 46Q262 67 275 136L301 278Q302 282 281 348T238 480L217 545Q202 591 178 609Q168 616 149 623T122 631Q120
631 120 636Q120 653 127 658Q139 657 178 655T244 652Z" />
<glyph unicode="&#xde;" glyph-name="Thorn" horiz-adv-x="515" d="M389 511Q420 511 449 501T504 471T541 414T543 328Q530 261 466 195T314 128Q261 128 248 156Q244 163 250 179Q251 183 253 182Q279 171 313 171Q359 171 401 213T454 313Q483 467 366 467Q320
467 300 460Q287 456 281 423L226 139Q215 81 216 46Q217 39 240 33T272 26Q276 26 273 11Q271 2 268 -3Q176 2 161 2Q156 2 49 -3Q46 2 48 12Q50 26 54 26Q66 26 90 32T120 46Q135 80 144 135L220 523Q231 589 230 612Q229 620 207 626T172 633Q169 633 171 646Q173
657 178 662Q283 657 289 657Q302 657 397 662Q397 652 396 647Q394 633 390 633Q381 633 355 626T326 612Q312 579 301 524Q300 519 299 513T297 504Q296 497 299 497Q301 497 312 500T344 507T389 511Z" />
<glyph unicode="&#xdf;" glyph-name="germandbls" horiz-adv-x="495" d="M164 407Q168 407 174 436T191 508T221 592T277 664T365 694Q426 694 473 665T520 581Q520 550 508 523T471 474T434 443T399 419Q392 415 376 406T352 391T337 376T329 352Q329 346 330
341T336 330T343 320T353 310T363 300T375 290T387 280Q393 275 412 259T436 238T453 220T468 199T476 176T480 147Q480 87 440 44T340 0Q298 0 265 14T228 42Q237 100 272 100Q282 100 289 90T301 66T317 43T343 32Q370 32 387 51T410 90T415 125Q415 138 411
150T397 175T380 193T359 213T340 229Q335 233 321 245T301 262T287 278T275 300T272 324Q272 355 288 374T362 435Q444 497 444 589Q444 622 421 639T356 656Q324 656 297 611T258 520L247 474L165 46Q137 -103 96 -168T-7 -234Q-43 -234 -63 -221T-90 -191Q-83
-133 -51 -133Q-42 -133 -36 -142T-26 -164T-13 -185T12 -195Q26 -195 39 -177T60 -130T76 -69T90 -3Q91 5 92 9L157 354V356Q157 361 154 361H89Q87 361 87 364Q87 373 103 390T135 407H164Z" />
<glyph unicode="&#xe0;" glyph-name="agrave" horiz-adv-x="440" d="M352 752Q336 752 262 799T188 868Q188 883 204 889T237 896Q252 896 257 891Q259 889 272 875T300 846T330 813T355 784T365 770Q365 764 361 758T352 752ZM352 435Q390 435 425 422L364 106Q361
94 361 81Q361 56 371 56Q377 56 385 61T402 75T418 90T431 104L437 111Q439 111 444 102T450 88Q437 66 396 30T324 -6Q308 -6 299 8T290 46Q290 63 297 99Q299 110 300 116T302 125Q292 107 279 89T246 47T204 10T161 -5Q117 -5 92 34T66 130Q66 201 108 272T218
389T352 435ZM310 389Q251 389 196 313T140 151Q140 53 191 53Q227 53 271 126T331 274L351 376Q339 389 310 389Z" />
<glyph unicode="&#xe1;" glyph-name="aacute" horiz-adv-x="440" d="M268 752Q266 752 264 756T261 764Q261 771 303 819T376 890Q384 895 402 895Q441 895 441 871Q441 849 361 801T268 752ZM352 435Q390 435 425 422L364 106Q361 94 361 81Q361 56 371 56Q377
56 385 61T402 75T418 90T431 104L437 111Q439 111 444 102T450 88Q437 66 396 30T324 -6Q308 -6 299 8T290 46Q290 63 297 99Q299 110 300 116T302 125Q292 107 279 89T246 47T204 10T161 -5Q117 -5 92 34T66 130Q66 201 108 272T218 389T352 435ZM310 389Q251
389 196 313T140 151Q140 53 191 53Q227 53 271 126T331 274L351 376Q339 389 310 389Z" />
<glyph unicode="&#xe2;" glyph-name="acircumflex" horiz-adv-x="440" d="M413 496Q396 496 327 554Q301 536 265 516T220 496Q215 496 214 503T214 516L276 567Q313 597 330 618Q339 627 341 627Q344 627 350 618Q374 579 378 574Q387 562 399 548T419 525T426
516Q421 496 413 496ZM352 435Q390 435 425 422L364 106Q361 94 361 81Q361 56 371 56Q377 56 385 61T402 75T418 90T431 104L437 111Q439 111 444 102T450 88Q437 66 396 30T324 -6Q308 -6 299 8T290 46Q290 63 297 99Q299 110 300 116T302 125Q292 107 279 89T246
47T204 10T161 -5Q117 -5 92 34T66 130Q66 201 108 272T218 389T352 435ZM310 389Q251 389 196 313T140 151Q140 53 191 53Q227 53 271 126T331 274L351 376Q339 389 310 389Z" />
<glyph unicode="&#xe3;" glyph-name="atilde" horiz-adv-x="440" d="M264 600Q292 600 330 574T396 547Q406 547 420 558T444 580T456 591Q460 591 460 582Q460 559 434 528T370 496Q342 496 304 522T237 549Q223 549 200 527T176 505Q171 505 171 511Q171 536
199 568T264 600ZM352 435Q390 435 425 422L364 106Q361 94 361 81Q361 56 371 56Q377 56 385 61T402 75T418 90T431 104L437 111Q439 111 444 102T450 88Q437 66 396 30T324 -6Q308 -6 299 8T290 46Q290 63 297 99Q299 110 300 116T302 125Q292 107 279 89T246
47T204 10T161 -5Q117 -5 92 34T66 130Q66 201 108 272T218 389T352 435ZM310 389Q251 389 196 313T140 151Q140 53 191 53Q227 53 271 126T331 274L351 376Q339 389 310 389Z" />
<glyph unicode="&#xe4;" glyph-name="adieresis" horiz-adv-x="440" d="M401 607Q416 607 427 595T438 567Q438 543 423 525T384 507Q368 507 359 520T350 551Q350 574 364 590T401 607ZM232 607Q247 607 258 595T269 567Q269 543 254 525T215 507Q199 507 190
520T181 551Q181 574 195 590T232 607ZM352 435Q390 435 425 422L364 106Q361 94 361 81Q361 56 371 56Q377 56 385 61T402 75T418 90T431 104L437 111Q439 111 444 102T450 88Q437 66 396 30T324 -6Q308 -6 299 8T290 46Q290 63 297 99Q299 110 300 116T302 125Q292
107 279 89T246 47T204 10T161 -5Q117 -5 92 34T66 130Q66 201 108 272T218 389T352 435ZM310 389Q251 389 196 313T140 151Q140 53 191 53Q227 53 271 126T331 274L351 376Q339 389 310 389Z" />
<glyph unicode="&#xe5;" glyph-name="aring" horiz-adv-x="440" d="M278 609T274 586T281 547T314 530T353 546T376 586T369 625T336 641T297 625ZM236 549T243 586T279 649T343 675T395 649T406 586T370 523T308 496Q274 496 255 522ZM352 435Q390 435 425 422L364
106Q361 94 361 81Q361 56 371 56Q377 56 385 61T402 75T418 90T431 104L437 111Q439 111 444 102T450 88Q437 66 396 30T324 -6Q308 -6 299 8T290 46Q290 63 297 99Q299 110 300 116T302 125Q292 107 279 89T246 47T204 10T161 -5Q117 -5 92 34T66 130Q66 201
108 272T218 389T352 435ZM310 389Q251 389 196 313T140 151Q140 53 191 53Q227 53 271 126T331 274L351 376Q339 389 310 389Z" />
<glyph unicode="&#xe6;" glyph-name="ae" horiz-adv-x="560" d="M484 435Q554 435 554 356Q554 299 474 251T337 203Q326 203 326 184Q326 119 348 88T403 56Q423 56 445 73T481 107T496 124T499 121T503 112T506 102Q498 78 456 37T374 -4Q343 -4 313 19T269
75Q252 42 220 18T138 -7Q102 -7 71 12T40 65Q40 106 63 139T124 193T193 224T257 241Q265 243 268 257L285 340Q286 343 286 356Q286 374 272 386T239 398Q213 398 191 375T162 316Q156 282 113 282Q87 282 87 295Q87 333 150 384T276 436Q348 436 354 381Q411
435 484 435ZM248 145L256 191Q211 183 181 169T139 138T123 112T119 90Q119 69 131 55T162 40Q197 40 219 73T248 145ZM460 394Q418 394 376 344T334 255Q334 249 341 249Q364 249 396 259T456 295T485 352Q485 394 460 394Z" />
<glyph unicode="&#xe7;" glyph-name="ccedilla" horiz-adv-x="326" d="M176 1H195L175 -22H197Q212 -22 221 -33T230 -60Q230 -91 202 -119T126 -147Q108 -147 97 -138V-129Q97 -119 102 -115T112 -110Q117 -110 126 -116T144 -123Q164 -123 178 -112T192 -82Q192
-69 185 -63T168 -56Q161 -56 143 -63Q141 -63 139 -59T136 -52Q136 -50 140 -45T155 -26T176 1ZM290 435Q337 435 377 401Q380 389 380 381Q380 362 371 350T345 338T312 366T278 394Q235 394 189 325T142 162Q142 56 208 56Q216 56 223 58T238 63T252 69T265
78T276 87T286 95T293 103T298 108L301 111Q303 111 308 102T314 88Q300 64 258 29T175 -6Q123 -6 96 34T68 146Q68 242 141 338T290 435Z" />
<glyph unicode="&#xe8;" glyph-name="egrave" horiz-adv-x="359" d="M565 752Q549 752 475 799T401 868Q401 883 417 889T450 896Q465 896 470 891Q472 889 485 875T513 846T543 813T568 784T578 770Q578 764 574 758T565 752ZM292 435Q338 435 358 412T379 360Q379
316 334 273T236 207T149 183Q145 183 145 148Q145 103 162 80T210 56Q218 56 225 58T240 63T254 69T267 78T278 87T288 95T295 103T300 108L303 111Q305 111 310 102T316 88Q302 64 260 29T177 -6Q125 -6 98 34T70 146Q70 242 143 338T292 435ZM282 394Q235 394
194 327T152 222Q152 218 156 218Q192 218 249 266T307 364Q307 394 282 394Z" />
<glyph unicode="&#xe9;" glyph-name="eacute" horiz-adv-x="359" d="M309 496Q307 496 305 500T302 508Q302 515 344 563T417 634Q425 639 443 639Q482 639 482 615Q482 593 402 545T309 496ZM292 435Q338 435 358 412T379 360Q379 316 334 273T236 207T149 183Q145
183 145 148Q145 103 162 80T210 56Q218 56 225 58T240 63T254 69T267 78T278 87T288 95T295 103T300 108L303 111Q305 111 310 102T316 88Q302 64 260 29T177 -6Q125 -6 98 34T70 146Q70 242 143 338T292 435ZM282 394Q235 394 194 327T152 222Q152 218 156 218Q192
218 249 266T307 364Q307 394 282 394Z" />
<glyph unicode="&#xea;" glyph-name="ecircumflex" horiz-adv-x="359" d="M406 496Q389 496 320 554Q294 536 258 516T213 496Q208 496 207 503T207 516L269 567Q306 597 323 618Q332 627 334 627Q337 627 343 618Q367 579 371 574Q380 562 392 548T412 525T419
516Q414 496 406 496ZM292 435Q338 435 358 412T379 360Q379 316 334 273T236 207T149 183Q145 183 145 148Q145 103 162 80T210 56Q218 56 225 58T240 63T254 69T267 78T278 87T288 95T295 103T300 108L303 111Q305 111 310 102T316 88Q302 64 260 29T177 -6Q125
-6 98 34T70 146Q70 242 143 338T292 435ZM282 394Q235 394 194 327T152 222Q152 218 156 218Q192 218 249 266T307 364Q307 394 282 394Z" />
<glyph unicode="&#xeb;" glyph-name="edieresis" horiz-adv-x="359" d="M362 607Q377 607 388 595T399 567Q399 543 384 525T345 507Q329 507 320 520T311 551Q311 574 325 590T362 607ZM193 607Q208 607 219 595T230 567Q230 543 215 525T176 507Q160 507 151
520T142 551Q142 574 156 590T193 607ZM292 435Q338 435 358 412T379 360Q379 316 334 273T236 207T149 183Q145 183 145 148Q145 103 162 80T210 56Q218 56 225 58T240 63T254 69T267 78T278 87T288 95T295 103T300 108L303 111Q305 111 310 102T316 88Q302 64
260 29T177 -6Q125 -6 98 34T70 146Q70 242 143 338T292 435ZM282 394Q235 394 194 327T152 222Q152 218 156 218Q192 218 249 266T307 364Q307 394 282 394Z" />
<glyph unicode="&#xec;" glyph-name="igrave" horiz-adv-x="216" d="M172 496Q156 496 82 543T8 612Q8 627 24 633T57 640Q72 640 77 635Q79 633 92 619T120 590T150 557T175 528T185 514Q185 508 181 502T172 496ZM165 363Q165 338 142 220T119 89Q119 52 141
52Q150 52 165 70T193 106T206 125T209 122T213 113T216 103Q207 77 173 36T106 -6Q50 -6 50 67Q50 96 57 128L93 308Q96 329 96 336Q96 377 68 377Q58 377 34 340L9 304Q8 304 6 307T1 316T-2 326Q7 352 41 393T108 435Q165 435 165 363Z" />
<glyph unicode="&#xed;" glyph-name="iacute" horiz-adv-x="216" d="M330 752Q328 752 326 756T323 764Q323 771 365 819T438 890Q446 895 464 895Q503 895 503 871Q503 849 423 801T330 752ZM165 363Q165 338 142 220T119 89Q119 52 141 52Q150 52 165 70T193
106T206 125T209 122T213 113T216 103Q207 77 173 36T106 -6Q50 -6 50 67Q50 96 57 128L93 308Q96 329 96 336Q96 377 68 377Q58 377 34 340L9 304Q8 304 6 307T1 316T-2 326Q7 352 41 393T108 435Q165 435 165 363Z" />
<glyph unicode="&#xee;" glyph-name="icircumflex" horiz-adv-x="216" d="M227 496Q210 496 141 554Q115 536 79 516T34 496Q29 496 28 503T28 516L90 567Q127 597 144 618Q153 627 155 627Q158 627 164 618Q188 579 192 574Q201 562 213 548T233 525T240 516Q235
496 227 496ZM165 363Q165 338 142 220T119 89Q119 52 141 52Q150 52 165 70T193 106T206 125T209 122T213 113T216 103Q207 77 173 36T106 -6Q50 -6 50 67Q50 96 57 128L93 308Q96 329 96 336Q96 377 68 377Q58 377 34 340L9 304Q8 304 6 307T1 316T-2 326Q7 352
41 393T108 435Q165 435 165 363Z" />
<glyph unicode="&#xef;" glyph-name="idieresis" horiz-adv-x="216" d="M483 607Q498 607 509 595T520 567Q520 543 505 525T466 507Q450 507 441 520T432 551Q432 574 446 590T483 607ZM350 607Q365 607 376 595T387 567Q387 543 372 525T333 507Q317 507 308
520T299 551Q299 574 313 590T350 607ZM165 363Q165 338 142 220T119 89Q119 52 141 52Q150 52 165 70T193 106T206 125T209 122T213 113T216 103Q207 77 173 36T106 -6Q50 -6 50 67Q50 96 57 128L93 308Q96 329 96 336Q96 377 68 377Q58 377 34 340L9 304Q8 304
6 307T1 316T-2 326Q7 352 41 393T108 435Q165 435 165 363Z" />
<glyph unicode="&#xf0;" glyph-name="eth" horiz-adv-x="384" d="M194 509Q179 535 185 541L435 705Q451 680 445 674L194 509ZM182 664Q183 670 189 679T200 688Q315 656 381 540T413 250Q391 138 334 66T210 -7Q124 -7 90 60T72 217Q89 303 149 370T285 438Q335
438 353 407Q357 572 182 664ZM334 217Q349 291 336 332Q315 398 267 398Q225 398 195 349T150 224Q136 150 154 91T211 32Q298 32 334 217Z" />
<glyph unicode="&#xf1;" glyph-name="ntilde" horiz-adv-x="492" d="M282 600Q310 600 348 574T414 547Q424 547 438 558T462 580T474 591Q478 591 478 582Q478 559 452 528T388 496Q360 496 322 522T255 549Q241 549 218 527T194 505Q189 505 189 511Q189 536
217 568T282 600ZM200 435Q216 435 225 421T234 383Q234 361 228 330L210 238Q220 256 253 300T335 389T414 435Q464 435 464 369Q464 324 450 260L417 106Q414 94 414 81Q414 56 424 56Q430 56 438 61T455 75T471 90T484 104L490 111Q492 111 497 102T503 88Q490
66 449 30T377 -6Q361 -6 352 8T343 46Q343 62 350 99L385 264Q392 297 392 318Q392 361 373 361Q340 361 271 271T181 78L164 0Q151 -4 133 -4T99 0L158 308Q163 344 163 348Q163 373 153 373Q149 373 142 369T128 357T114 344T103 332T98 326Q96 326 91 335T85
349Q97 369 135 402T200 435Z" />
<glyph unicode="&#xf2;" glyph-name="ograve" horiz-adv-x="412" d="M552 752Q536 752 462 799T388 868Q388 883 404 889T437 896Q452 896 457 891Q459 889 472 875T500 846T530 813T555 784T565 770Q565 764 561 758T552 752ZM276 394Q226 394 185 316T144 158Q144
100 162 68T209 36Q259 36 297 114T336 273Q336 332 320 363T276 394ZM288 435Q347 435 379 394T412 281Q412 178 340 87T191 -5Q131 -5 100 34T68 145Q68 249 140 342T288 435Z" />
<glyph unicode="&#xf3;" glyph-name="oacute" horiz-adv-x="412" d="M238 752Q236 752 234 756T231 764Q231 771 273 819T346 890Q354 895 372 895Q411 895 411 871Q411 849 331 801T238 752ZM276 394Q226 394 185 316T144 158Q144 100 162 68T209 36Q259 36 297
114T336 273Q336 332 320 363T276 394ZM288 435Q347 435 379 394T412 281Q412 178 340 87T191 -5Q131 -5 100 34T68 145Q68 249 140 342T288 435Z" />
<glyph unicode="&#xf4;" glyph-name="ocircumflex" horiz-adv-x="412" d="M393 496Q376 496 307 554Q281 536 245 516T200 496Q195 496 194 503T194 516L256 567Q293 597 310 618Q319 627 321 627Q324 627 330 618Q354 579 358 574Q367 562 379 548T399 525T406
516Q401 496 393 496ZM276 394Q226 394 185 316T144 158Q144 100 162 68T209 36Q259 36 297 114T336 273Q336 332 320 363T276 394ZM288 435Q347 435 379 394T412 281Q412 178 340 87T191 -5Q131 -5 100 34T68 145Q68 249 140 342T288 435Z" />
<glyph unicode="&#xf5;" glyph-name="otilde" horiz-adv-x="412" d="M232 600Q260 600 298 574T364 547Q374 547 388 558T412 580T424 591Q428 591 428 582Q428 559 402 528T338 496Q310 496 272 522T205 549Q191 549 168 527T144 505Q139 505 139 511Q139 536
167 568T232 600ZM276 394Q226 394 185 316T144 158Q144 100 162 68T209 36Q259 36 297 114T336 273Q336 332 320 363T276 394ZM288 435Q347 435 379 394T412 281Q412 178 340 87T191 -5Q131 -5 100 34T68 145Q68 249 140 342T288 435Z" />
<glyph unicode="&#xf6;" glyph-name="odieresis" horiz-adv-x="412" d="M385 607Q400 607 411 595T422 567Q422 543 407 525T368 507Q352 507 343 520T334 551Q334 574 348 590T385 607ZM216 607Q231 607 242 595T253 567Q253 543 238 525T199 507Q183 507 174
520T165 551Q165 574 179 590T216 607ZM276 394Q226 394 185 316T144 158Q144 100 162 68T209 36Q259 36 297 114T336 273Q336 332 320 363T276 394ZM288 435Q347 435 379 394T412 281Q412 178 340 87T191 -5Q131 -5 100 34T68 145Q68 249 140 342T288 435Z" />
<glyph unicode="&#xf7;" glyph-name="divide" horiz-adv-x="458" d="M273 490Q288 490 299 478T310 450Q310 426 295 408T256 390Q240 390 231 403T222 434Q222 457 236 473T273 490ZM199 104Q214 104 224 92T235 64Q235 40 220 22T182 4Q166 4 157 17T148 48Q148
71 162 87T199 104ZM22 278H452Q456 278 456 269Q456 238 435 215H5Q0 215 0 224Q0 250 22 278Z" />
<glyph unicode="&#xf8;" glyph-name="oslash" horiz-adv-x="391" d="M97 0Q73 12 78 20L386 419Q410 407 405 400L97 0ZM143 172Q143 111 162 73T215 34Q265 34 299 107T333 259Q333 319 313 358T261 397Q211 397 177 324T143 172ZM69 163Q69 269 134 352T278
435Q336 435 371 388T407 267Q407 161 342 78T199 -5Q141 -5 105 42T69 163Z" />
<glyph unicode="&#xf9;" glyph-name="ugrave" horiz-adv-x="472" d="M567 752Q551 752 477 799T403 868Q403 883 419 889T452 896Q467 896 472 891Q474 889 487 875T515 846T545 813T570 784T580 770Q580 764 576 758T567 752ZM190 435Q206 435 215 421T224 383Q224
356 218 330L183 165Q176 136 176 111Q176 68 195 68Q209 68 235 91T289 152T343 244T379 351L396 429Q409 433 427 433Q445 433 461 429L399 106Q396 94 396 81Q396 56 406 56Q412 56 420 61T437 75T453 90T466 104L472 111Q474 111 479 102T485 88Q472 66 431
30T359 -6Q343 -6 334 8T325 46Q325 62 332 99L350 191Q340 172 309 129T231 40T154 -6Q104 -6 104 60Q104 106 118 169L148 308Q153 344 153 348Q153 373 143 373Q139 373 132 369T118 357T104 344T93 332T88 326Q86 326 81 335T75 349Q87 369 125 402T190 435Z"
/>
<glyph unicode="&#xfa;" glyph-name="uacute" horiz-adv-x="472" d="M263 752Q261 752 259 756T256 764Q256 771 298 819T371 890Q379 895 397 895Q436 895 436 871Q436 849 356 801T263 752ZM190 435Q206 435 215 421T224 383Q224 356 218 330L183 165Q176 136
176 111Q176 68 195 68Q209 68 235 91T289 152T343 244T379 351L396 429Q409 433 427 433Q445 433 461 429L399 106Q396 94 396 81Q396 56 406 56Q412 56 420 61T437 75T453 90T466 104L472 111Q474 111 479 102T485 88Q472 66 431 30T359 -6Q343 -6 334 8T325
46Q325 62 332 99L350 191Q340 172 309 129T231 40T154 -6Q104 -6 104 60Q104 106 118 169L148 308Q153 344 153 348Q153 373 143 373Q139 373 132 369T118 357T104 344T93 332T88 326Q86 326 81 335T75 349Q87 369 125 402T190 435Z" />
<glyph unicode="&#xfb;" glyph-name="ucircumflex" horiz-adv-x="472" d="M366 496Q349 496 280 554Q254 536 218 516T173 496Q168 496 167 503T167 516L229 567Q266 597 283 618Q292 627 294 627Q297 627 303 618Q327 579 331 574Q340 562 352 548T372 525T379
516Q374 496 366 496ZM190 435Q206 435 215 421T224 383Q224 356 218 330L183 165Q176 136 176 111Q176 68 195 68Q209 68 235 91T289 152T343 244T379 351L396 429Q409 433 427 433Q445 433 461 429L399 106Q396 94 396 81Q396 56 406 56Q412 56 420 61T437 75T453
90T466 104L472 111Q474 111 479 102T485 88Q472 66 431 30T359 -6Q343 -6 334 8T325 46Q325 62 332 99L350 191Q340 172 309 129T231 40T154 -6Q104 -6 104 60Q104 106 118 169L148 308Q153 344 153 348Q153 373 143 373Q139 373 132 369T118 357T104 344T93 332T88
326Q86 326 81 335T75 349Q87 369 125 402T190 435Z" />
<glyph unicode="&#xfc;" glyph-name="udieresis" horiz-adv-x="472" d="M404 607Q419 607 430 595T441 567Q441 543 426 525T387 507Q371 507 362 520T353 551Q353 574 367 590T404 607ZM235 607Q250 607 261 595T272 567Q272 543 257 525T218 507Q202 507 193
520T184 551Q184 574 198 590T235 607ZM190 435Q206 435 215 421T224 383Q224 356 218 330L183 165Q176 136 176 111Q176 68 195 68Q209 68 235 91T289 152T343 244T379 351L396 429Q409 433 427 433Q445 433 461 429L399 106Q396 94 396 81Q396 56 406 56Q412
56 420 61T437 75T453 90T466 104L472 111Q474 111 479 102T485 88Q472 66 431 30T359 -6Q343 -6 334 8T325 46Q325 62 332 99L350 191Q340 172 309 129T231 40T154 -6Q104 -6 104 60Q104 106 118 169L148 308Q153 344 153 348Q153 373 143 373Q139 373 132 369T118
357T104 344T93 332T88 326Q86 326 81 335T75 349Q87 369 125 402T190 435Z" />
<glyph unicode="&#xfd;" glyph-name="yacute" horiz-adv-x="479" d="M326 496Q324 496 322 500T319 508Q319 515 361 563T434 634Q442 639 460 639Q499 639 499 615Q499 593 419 545T326 496ZM216 435Q246 435 265 384T292 251T301 122T303 28Q342 76 381 150T420
285Q420 344 395 392Q408 435 445 435Q489 435 489 356Q489 246 403 104T209 -136T33 -233Q7 -233 -10 -221T-27 -192Q-27 -160 -4 -148Q18 -161 63 -161Q146 -161 207 -72Q230 -38 230 62Q230 111 228 159T219 259T200 341T170 373Q161 373 143 356T115 326Q113
326 108 335T102 349Q108 364 149 399T216 435Z" />
<glyph unicode="&#xfe;" glyph-name="thorn" horiz-adv-x="473" d="M227 393Q292 437 329 438Q400 438 435 397T470 289Q470 183 397 84T223 -15Q180 -15 152 0Q150 -4 148 -12L133 -87Q120 -154 120 -172V-177Q120 -184 137 -191T162 -199Q163 -199 163 -203Q163
-217 158 -227Q147 -226 120 -224T73 -221Q52 -221 23 -223T-18 -227L-13 -199Q-4 -199 16 -192T39 -177Q54 -141 65 -87L186 539Q196 594 196 616Q195 628 169 630T142 634Q142 636 144 640Q144 642 147 649T153 656Q236 665 281 694H283Q286 694 289 688T292
678Q274 646 264 591L227 399L226 397Q226 395 226 394T227 393ZM252 27Q293 27 325 70T371 166T386 265Q386 381 278 381Q256 381 237 366T213 326L167 87Q166 84 166 79Q166 55 192 41T252 27Z" />
<glyph unicode="&#xff;" glyph-name="ydieresis" horiz-adv-x="479" d="M403 607Q418 607 429 595T440 567Q440 543 425 525T386 507Q370 507 361 520T352 551Q352 574 366 590T403 607ZM234 607Q249 607 260 595T271 567Q271 543 256 525T217 507Q201 507 192
520T183 551Q183 574 197 590T234 607ZM216 435Q246 435 265 384T292 251T301 122T303 28Q342 76 381 150T420 285Q420 344 395 392Q408 435 445 435Q489 435 489 356Q489 246 403 104T209 -136T33 -233Q7 -233 -10 -221T-27 -192Q-27 -160 -4 -148Q18 -161 63
-161Q146 -161 207 -72Q230 -38 230 62Q230 111 228 159T219 259T200 341T170 373Q161 373 143 356T115 326Q113 326 108 335T102 349Q108 364 149 399T216 435Z" />
<glyph unicode="&#x2013;" glyph-name="endash" horiz-adv-x="486" d="M502 262Q508 262 508 249Q508 238 501 222T486 200H70Q64 200 64 213Q64 224 71 240T86 262H502Z" />
<glyph unicode="&#x2014;" glyph-name="emdash" horiz-adv-x="724" d="M738 262Q744 262 744 249Q744 238 737 222T722 200H70Q64 200 64 213Q64 224 71 240T86 262H738Z" />
<glyph unicode="&#x2018;" glyph-name="quoteleft" horiz-adv-x="148" d="M122 555Q130 597 162 634T220 689T254 706Q265 706 268 688Q240 672 220 651T193 617T185 597Q183 584 198 562T210 525Q206 507 185 495T141 482Q132 482 123 485Q113 508 122 555Z" />
<glyph unicode="&#x2019;" glyph-name="quoteright" horiz-adv-x="148" d="M260 635Q252 593 220 556T162 501T129 484Q117 484 114 502Q142 518 162 539T189 573T198 593Q200 606 186 628T174 665Q178 683 198 695T242 708Q251 708 260 705Q270 684 260 635Z" />
<glyph unicode="&#x201a;" glyph-name="quotesinglbase" horiz-adv-x="148" d="M147 53Q139 11 107 -26T49 -80T16 -97Q4 -97 1 -80Q29 -64 49 -43T76 -9T85 11Q87 24 72 46T60 83Q64 101 85 113T129 126Q138 126 147 123Q157 102 147 53Z" />
<glyph unicode="&#x201c;" glyph-name="quotedblleft" horiz-adv-x="286" d="M256 555Q264 597 296 634T354 689T387 706Q399 706 402 688Q374 672 354 651T327 617T318 597Q316 584 331 562T343 525Q339 507 319 495T275 482Q265 482 256 485Q246 506 256 555ZM122
555Q130 597 162 634T220 689T254 706Q265 706 268 688Q240 672 220 651T193 617T185 597Q183 584 198 562T210 525Q206 507 185 495T141 482Q132 482 123 485Q113 508 122 555Z" />
<glyph unicode="&#x201d;" glyph-name="quotedblright" horiz-adv-x="287" d="M394 635Q386 593 354 556T296 501T262 484Q251 484 248 502Q276 518 296 539T323 573T331 593Q333 606 319 628T307 665Q311 683 331 695T375 708Q384 708 393 705Q403 682 394 635ZM260
635Q252 593 220 556T162 501T129 484Q117 484 114 502Q142 518 162 539T189 573T198 593Q200 606 186 628T174 665Q178 683 198 695T242 708Q251 708 260 705Q270 684 260 635Z" />
<glyph unicode="&#x201e;" glyph-name="quotedblbase" horiz-adv-x="286" d="M280 51Q272 9 240 -28T182 -82T149 -99Q137 -99 134 -82Q162 -66 182 -45T209 -11T217 9Q219 22 205 44T193 81Q197 99 218 111T262 124Q271 124 280 121Q290 100 280 51ZM147 53Q139
11 107 -26T49 -80T16 -97Q4 -97 1 -80Q29 -64 49 -43T76 -9T85 11Q87 24 72 46T60 83Q64 101 85 113T129 126Q138 126 147 123Q157 102 147 53Z" />
<glyph unicode="&#x2022;" glyph-name="bullet" horiz-adv-x="376" d="M130 219T138 263T182 339T259 371T323 339T338 263T294 187T217 155T153 187Z" />
<glyph unicode="&#x2039;" glyph-name="guilsinglleft" horiz-adv-x="298" d="M321 423Q340 417 340 407Q340 404 339 402T335 396T328 389T318 379T305 368T289 355T269 338Q254 325 214 288T170 247L233 157Q242 144 251 133T264 117T271 107T276 100T277 94Q277
89 274 85T268 80T258 76L252 73Q250 76 237 91T184 146T91 227Q87 230 87 237Q87 255 100 268Q161 303 217 342T294 400T321 423Z" />
<glyph unicode="&#x203a;" glyph-name="guilsinglright" horiz-adv-x="298" d="M76 73Q58 79 58 88Q58 91 59 94T63 100T69 107T78 116T91 127T107 140T126 157L225 247Q220 254 196 290T161 338Q117 395 117 400Q117 412 143 423Q145 419 160 400T216 342T303
268Q308 260 308 252Q308 232 296 227Q137 130 76 73Z" />
</font>
</defs>
</svg>
