<?xml version="1.0" standalone="no"?>
<!DOCTYPE svg PUBLIC "-//W3C//DTD SVG 1.1//EN" "http://www.w3.org/Graphics/SVG/1.1/DTD/svg11.dtd">
<svg xmlns="http://www.w3.org/2000/svg">
<defs >
<font id="CrimsonText" horiz-adv-x="482" ><font-face
    font-family="Crimson Text SemiBold"
    units-per-em="1024"
    panose-1="2 0 7 3 0 0 0 0 0 0"
    ascent="1049"
    descent="-245"
    alphabetic="0" />
<glyph unicode=" " glyph-name="space" horiz-adv-x="156" />
<glyph unicode="!" glyph-name="exclam" horiz-adv-x="220" d="M2 51Q5 81 26 101T75 121Q99 121 113 103T124 61Q121 31 100 10T51 -12Q28 -12 14 6T2 51ZM179 636Q198 636 209 621T217 581Q216 569 199 507T152 343T109 196Q106 184 96 177T77 169Q71 169 71
189Q73 226 87 368T113 576Q118 599 137 617T179 636Z" />
<glyph unicode="&quot;" glyph-name="quotedbl" horiz-adv-x="178" d="M132 698Q108 698 87 676T62 636Q62 623 64 591T66 523T62 447Q61 441 66 438T78 434Q94 434 98 449Q106 478 130 540T160 633Q166 677 161 687T132 698ZM130 698Q153 698 158 688T158 633Q152
602 128 540T96 449Q92 434 76 434Q70 434 65 437T60 447Q64 487 64 522T62 590T60 636Q63 653 84 675T130 698Z" />
<glyph unicode="#" glyph-name="numbersign" horiz-adv-x="443" d="M353 376Q353 376 427 376Q434 376 434 370Q434 357 426 336T409 314H335L305 234H379Q386 234 386 228Q386 215 378 194T361 172H287L235 24Q232 16 200 16Q175 16 175 21Q177 23 177 24L229
172H147L95 24Q92 16 60 16Q35 16 35 21Q37 23 37 24L89 172H15Q8 172 8 178Q8 191 16 212T33 234H107L137 314H63Q56 314 56 320Q56 333 64 354T81 376H155L207 524Q210 532 245 532Q267 532 267 526Q265 525 265 524L213 376H295L347 524Q350 532 385 532Q407
532 407 526Q405 525 405 524L353 376ZM277 314H195L165 234H247L277 314Z" />
<glyph unicode="$" glyph-name="dollar" horiz-adv-x="439" d="M233 245L159 39Q159 39 171 39Q217 39 251 75T286 161Q286 198 250 230Q249 231 242 237T233 245ZM142 -8L122 -62Q121 -66 110 -66Q91 -66 79 -51L96 -2Q59 4 9 16Q8 29 8 50Q8 98 14 170Q15 178
35 178Q49 178 55 173Q55 137 69 103T115 51L195 274Q191 278 171 294T146 313Q77 370 77 433Q77 520 145 578T297 636Q316 636 325 635L343 685Q344 690 354 690Q374 690 387 673L370 626Q406 616 427 613Q424 588 421 558T417 513T414 483T411 462T407 456Q390
456 382 461Q377 463 377 472Q377 524 347 560L275 359Q281 355 306 336T335 314Q393 269 393 203Q393 125 329 59Q299 29 255 11T166 -8H142ZM237 389L307 586Q295 589 283 589Q233 589 206 556T179 483T210 415Q212 412 217 407T229 396T237 389Z" />
<glyph unicode="%" glyph-name="percent" horiz-adv-x="644" d="M473 286Q438 286 415 247T385 154Q382 126 383 99T399 52T437 31Q471 31 492 70T522 164Q524 191 524 218T510 265T473 286ZM487 318Q545 318 576 277T601 176Q595 107 543 53T424 -2Q366 -2 334
39T307 140Q313 210 366 264T487 318ZM636 640Q60 10 54 4Q42 -8 21 -8Q-2 -8 -4 4L579 642Q591 654 599 654Q627 654 636 640ZM231 626Q196 626 174 587T143 494Q141 466 142 439T157 392T195 371Q229 371 250 411T279 504Q282 531 282 558T268 605T231 626ZM244
658Q302 658 333 616T359 515Q353 446 300 392T181 338Q123 338 91 379T65 479Q71 549 124 603T244 658Z" />
<glyph unicode="&amp;" glyph-name="ampersand" horiz-adv-x="649" d="M292 635Q338 635 372 610T406 543Q406 514 385 488T346 461Q335 461 335 469Q335 470 339 483T344 514Q344 546 323 566T270 587Q224 587 194 553T164 470Q164 424 194 398Q215 404 234 404Q261
404 283 392T306 360Q306 341 287 331T242 320Q204 320 180 341Q121 291 121 204Q121 133 165 84T282 34Q362 34 420 94T479 237Q479 275 461 303T409 332Q383 332 364 318T344 280Q344 261 373 254Q414 244 414 217Q414 174 376 164Q353 164 326 191T298 257Q298
312 341 349T442 386Q457 386 480 385T518 384Q552 384 578 399T604 444Q604 458 594 467T571 477Q560 477 546 467T520 457Q505 457 495 469T484 497Q484 523 508 542Q573 542 608 517T644 444Q644 400 614 372T534 344Q528 344 508 346Q564 296 564 224Q564 125
474 56T270 -14Q169 -14 94 45T18 196Q18 257 59 310T148 381Q104 430 104 479Q104 549 163 592T292 635Z" />
<glyph unicode="&apos;" glyph-name="quotesingle" horiz-adv-x="176" d="M130 698Q153 698 158 688T158 633Q152 602 128 540T96 449Q92 434 74 434Q68 434 64 437T60 447Q64 487 64 522T62 590T60 636Q63 653 84 675T130 698Z" />
<glyph unicode="(" glyph-name="parenleft" horiz-adv-x="331" d="M337 720Q308 704 271 650T198 520T139 346T115 153Q115 57 136 -15T178 -100V-106Q177 -112 172 -120T162 -129Q147 -129 126 -106T83 -42T46 60T31 190Q31 295 69 402T158 583T258 702T332 748Q339
748 339 728V722Q339 720 337 720Z" />
<glyph unicode=")" glyph-name="parenright" horiz-adv-x="322" d="M297 428Q297 337 271 248T207 93T125 -24T48 -102T-4 -129Q-11 -129 -11 -111V-106Q-11 -102 -8 -100Q11 -91 46 -44T119 75T185 256T213 474Q213 566 195 633T151 720Q150 720 150 722Q151
728 156 738T167 748Q191 748 220 709T273 593T297 428Z" />
<glyph unicode="*" glyph-name="asterisk" horiz-adv-x="377" d="M219 515Q227 515 241 533T269 574T303 615T341 634Q366 634 366 605Q366 579 333 558T267 521T234 492Q234 483 253 478T295 468T338 452T357 421Q357 406 344 394T315 381Q297 381 278 401T244
443T218 464T205 447T199 396T189 340Q177 300 147 300Q136 300 128 308T119 330Q119 352 152 402T186 464Q186 473 177 473Q169 473 123 452T56 430Q43 430 34 437T25 457Q25 466 28 475T47 494T87 504Q103 504 129 501T165 497Q189 497 189 510Q189 520 163 558T137
620Q137 639 148 651T176 664Q188 664 195 658T205 637T208 613T209 582Q209 515 219 515Z" />
<glyph unicode="+" glyph-name="plus" d="M240 470Q242 479 267 483T304 488Q310 488 312 486T314 479Q291 349 279 287Q277 282 282 282H459Q463 282 463 268Q463 243 440 218H267Q263 218 263 214Q263 214 228 30Q227 23 207 18T170 12Q162 12 158 15T155 21L191
213Q191 218 187 218H12Q8 218 8 232Q8 254 32 282Q32 282 203 282Q207 282 207 286Q213 315 223 374T240 470Z" />
<glyph unicode="," glyph-name="comma" horiz-adv-x="245" d="M5 -138Q5 -136 27 -119T71 -71T93 -7Q93 5 86 29T79 64Q79 93 104 112T164 131Q184 131 192 126Q195 108 195 98Q195 50 174 8Q137 -93 22 -166Q17 -164 11 -155T5 -138Z" />
<glyph unicode="-" glyph-name="hyphen" horiz-adv-x="327" d="M54 264L280 276Q287 276 287 264Q287 253 278 231T262 207L36 196Q31 196 31 211Q31 221 39 242T54 264Z" />
<glyph unicode="." glyph-name="period" horiz-adv-x="196" d="M145 62Q142 33 120 11T71 -12Q47 -12 33 6T21 50Q24 79 46 100T95 121Q119 121 133 104T145 62Z" />
<glyph unicode="/" glyph-name="slash" horiz-adv-x="485" d="M493 755L69 -12Q66 -18 49 -26T10 -34Q-1 -34 -7 -28L418 739Q430 761 465 761Q487 761 493 755Z" />
<glyph unicode="0" glyph-name="zero" horiz-adv-x="488" d="M302 582Q248 582 200 483T139 252Q127 159 144 100T197 41Q252 41 298 145T357 376Q369 470 354 526T302 582ZM310 625Q387 625 430 548T461 357Q448 218 365 108T187 -3Q110 -3 66 74T34 266Q47 406
131 515T310 625Z" />
<glyph unicode="1" glyph-name="one" horiz-adv-x="286" d="M273 637Q282 637 282 618Q266 587 254 524L178 130Q170 84 170 60Q170 43 187 35T217 27Q218 27 218 22Q218 7 213 -3Q200 -2 179 -1T140 2T106 3T72 2T31 0T-4 -3Q-6 -1 -6 4Q-6 27 2 27Q12 27 33
35T59 51Q67 64 80 124L144 447Q150 477 150 493Q150 510 140 510Q126 510 68 480Q58 484 58 500Q58 506 62 510Q269 637 273 637Z" />
<glyph unicode="2" glyph-name="two" horiz-adv-x="444" d="M282 563T248 563T185 545T139 508T120 490Q108 490 108 509Q108 522 112 526Q145 566 203 602T312 638Q368 638 399 605T430 516Q430 463 405 409T327 297T230 197T112 95Q110 93 110 88Q110 84 114
84H286Q299 84 310 87T328 94T342 106T351 118T360 133T367 147Q372 156 392 156Q402 156 405 149Q399 134 377 82T345 0L210 1Q8 0 1 0Q-6 10 -6 21Q-6 23 -4 33Q304 332 318 464Q318 475 319 474Q320 468 320 461Q320 463 320 480Q320 517 301 540Z" />
<glyph unicode="3" glyph-name="three" horiz-adv-x="426" d="M313 638Q348 638 375 611T396 535Q395 521 393 509T385 485T375 465T362 445T349 429T334 413T319 399T303 386T288 374Q321 374 359 333T391 228Q381 131 294 64T100 -4Q60 -4 34 6T-1 30Q-3 35
-3 51Q-3 72 10 86T42 100Q61 100 88 71T139 42Q200 42 239 87T285 200Q291 251 267 283T203 316Q178 316 135 309Q130 318 132 330Q132 340 138 349Q208 364 252 407T302 506Q306 535 289 553T247 572Q221 572 193 559T147 533T125 520Q117 520 117 536Q117 550
121 554Q196 638 313 638Z" />
<glyph unicode="4" glyph-name="four" horiz-adv-x="444" d="M419 644Q424 644 427 640T430 630L355 250Q353 242 362 242H403Q411 242 411 228Q411 202 399 178H347Q342 178 341 172L308 2Q282 -4 254 -4Q212 -4 215 6L247 173Q247 178 241 178H13Q5 186 5 201Q5
212 7 222L391 627Q408 644 419 644ZM303 464Q305 472 301 472L299 470L95 254Q93 252 93 249Q93 242 97 242H253Q261 245 263 250L303 464Z" />
<glyph unicode="5" glyph-name="five" horiz-adv-x="436" d="M402 546Q379 546 341 546Q248 546 222 545T193 536L147 401Q196 408 229 408Q298 408 348 355T391 232Q380 136 300 66T101 -4Q61 -4 35 6T0 30Q-2 35 -2 51Q-2 72 12 86T43 100Q62 100 88 71T139
42Q205 42 241 83T282 184Q289 245 261 285T187 325Q158 325 124 320L89 315Q83 315 77 329Q81 339 109 427T158 573T181 632Q397 632 423 638Q428 629 425 614Q421 575 402 546Z" />
<glyph unicode="6" glyph-name="six" horiz-adv-x="443" d="M188 319T188 332T214 356T262 367Q318 367 355 326T392 223Q392 137 322 66T170 -6Q103 -6 62 41T20 161Q20 199 31 244T73 344T147 450T264 552T426 639Q440 635 440 612Q238 526 160 342Q118 243
118 136Q118 93 134 67T183 40Q225 40 258 93T292 220Q292 305 234 311Q206 317 194 316Q188 319 188 332Z" />
<glyph unicode="7" glyph-name="seven" horiz-adv-x="469" d="M33 -11Q21 -11 14 -4T6 15Q6 22 10 28L373 528Q352 528 250 528T131 527Q123 527 116 525T102 516T90 506T80 492T73 479T66 466T61 456H51Q38 456 33 462Q41 487 60 536T84 603Q87 615 104 615H407Q421
615 444 616T468 618Q474 618 474 613Q474 598 434 542L40 -10Q37 -11 33 -11Z" />
<glyph unicode="8" glyph-name="eight" horiz-adv-x="438" d="M172 37Q202 37 224 52T257 89T271 131T276 164Q276 176 274 187T266 208T256 226T242 243T228 257T212 271T198 283Q192 289 189 289T183 286Q151 269 131 218T111 121Q111 83 127 60T172 37ZM282
588Q240 588 216 546T191 466Q191 419 250 373Q257 368 260 368T267 372Q307 410 320 444T334 520Q334 551 321 569T282 588ZM285 633Q350 633 389 603T429 518Q429 411 297 338Q295 338 295 337T296 334T309 322T332 299T354 270T374 233T381 191Q381 119 314
57T160 -6Q96 -6 54 29T12 126Q12 177 38 219T93 282T153 318Q158 320 154 324Q152 326 140 339T119 363T102 398T93 446Q93 526 153 579T285 633Z" />
<glyph unicode="9" glyph-name="nine" horiz-adv-x="435" d="M258 300Q258 288 231 277T183 266Q126 266 90 307T53 410Q53 496 123 568T275 640Q341 640 383 592T425 472Q425 434 414 389T372 289T298 183T181 81T19 -6Q5 -2 5 22Q207 108 285 291Q327 390 327
497Q327 594 263 594Q221 594 187 541T153 413Q153 328 212 322Q240 316 251 317Q258 314 258 300Z" />
<glyph unicode=":" glyph-name="colon" horiz-adv-x="218" d="M69 352Q69 383 93 407T147 432Q169 432 182 417T196 379Q196 348 173 322T121 296Q98 296 84 312T69 352ZM10 43Q10 74 34 99T87 124Q109 124 122 109T136 70Q136 39 113 14T61 -12Q39 -12 25 4T10 43Z" />
<glyph unicode=";" glyph-name="semicolon" horiz-adv-x="174" d="M108 185Q109 189 115 202T125 225T131 247T126 261Q112 268 97 263T73 242Q56 226 52 204T62 172Q82 166 108 185ZM44 170Q46 199 51 213T72 246Q73 246 81 251T94 258T106 262T122 263T138 258Q141
244 136 233T122 218Q117 215 125 201T122 181Q114 176 115 161T108 145Q97 134 89 119T69 93T34 71H33Q25 71 29 78T26 88Q22 89 22 93T24 104T30 119T38 142T44 170Z" />
<glyph unicode="&lt;" glyph-name="less" horiz-adv-x="433" d="M89 209L359 46Q361 44 361 40Q361 32 350 9T335 -14Q333 -14 331 -13L19 177Q6 185 10 210Q12 231 32 241L415 428L419 430Q425 430 425 390Q425 372 420 369Q420 369 89 209Z" />
<glyph unicode="=" glyph-name="equal" horiz-adv-x="521" d="M50 178H453Q460 178 460 165T452 135T436 114H33Q26 114 26 127T34 157T50 178ZM77 319H480Q487 319 487 306T479 276T463 255H60Q53 255 53 268T61 298T77 319Z" />
<glyph unicode="&gt;" glyph-name="greater" horiz-adv-x="438" d="M339 209L70 369Q70 369 69 376Q74 393 83 411T95 430L99 428L408 241Q422 234 420 219Q414 187 395 177L11 -13Q7 -15 5 -15Q0 -15 0 39Q0 41 1 43T4 46H5L339 209Z" />
<glyph unicode="?" glyph-name="question" horiz-adv-x="327" d="M11 41Q11 73 33 97T84 121Q106 121 121 106T136 68Q136 37 112 13T60 -12Q39 -12 25 3T11 41ZM164 205Q164 195 153 188Q129 188 88 220T46 290Q46 350 101 383L211 448Q263 476 263 515Q263 540
249 556T208 572Q190 572 170 549T136 526Q112 526 101 546T94 593Q118 638 172 638Q234 638 279 598T325 501Q325 419 266 382Q225 354 156 316Q120 296 120 266Q120 248 142 228T164 205Z" />
<glyph unicode="@" glyph-name="at" horiz-adv-x="748" d="M313 -170Q235 -171 173 -140T75 -57T26 58T24 185Q59 365 187 471T477 578Q565 578 625 524T706 392T710 233Q684 102 622 45T493 -13Q447 -13 422 17T403 80Q403 81 401 80T398 78Q380 52 334 23T250
-7Q201 -7 182 38T174 141Q195 248 281 329T486 410L572 401Q561 370 555 348L493 134Q463 31 511 31Q544 31 571 51T614 103T640 162T654 214Q679 344 626 434T457 524Q329 524 224 439T94 223Q64 65 125 -30T352 -126Q384 -126 419 -113V-122Q416 -139 388 -153T313
-170ZM421 176L464 322Q471 347 463 353Q459 355 452 356Q398 369 340 311T261 143Q243 53 288 53Q321 53 368 102T421 176Z" />
<glyph unicode="A" glyph-name="A" horiz-adv-x="648" d="M323 231Q286 231 229 228Q225 228 223 224Q218 215 196 179T166 131Q135 79 135 60Q135 44 159 36T195 27Q197 27 197 22Q197 9 191 -3Q180 -2 152 0T99 3Q74 3 39 1T-10 -3Q-12 1 -12 4Q-12 27 -6 27Q5
27 31 37T66 58Q80 75 116 136L393 610Q424 664 445 664Q451 664 455 660L549 136Q552 120 563 63Q566 48 586 38T617 27Q619 27 619 21Q619 5 615 -3Q504 3 501 3Q490 3 376 -3Q375 -2 375 3Q375 27 381 27Q391 27 411 34T436 50Q442 62 442 80Q442 89 422 223Q422
228 417 228Q399 231 323 231ZM335 285Q364 285 407 288Q411 288 411 292Q408 312 394 395T378 492L263 290V288Q293 285 335 285Z" />
<glyph unicode="B" glyph-name="B" horiz-adv-x="560" d="M407 217Q407 323 291 323Q227 323 224 308L183 96Q180 81 180 70Q180 56 193 52T246 48Q295 48 318 59Q353 75 380 116T407 217ZM522 221Q522 130 446 65T248 0H178Q109 1 108 1Q86 1 -6 -3Q-8 -1 -8
6Q-8 27 -2 27Q9 27 32 35T61 52Q75 79 87 142L160 518Q170 572 170 603Q170 608 159 614T133 625T116 632T114 638Q114 654 122 662Q178 657 240 657Q294 657 329 658T378 659Q444 659 497 626T550 523Q550 504 546 487T535 455T519 427T500 404T480 386T462 372T446
362T435 356L431 354Q459 349 490 312T522 221ZM437 523Q437 611 349 611Q286 611 282 596L240 386Q237 372 292 372Q437 372 437 523Z" />
<glyph unicode="C" glyph-name="C" horiz-adv-x="610" d="M404 667Q489 667 614 630Q614 624 607 563T598 494Q595 479 573 479Q564 479 560 482Q559 500 554 518T534 562T484 602T398 618Q298 618 221 509T143 253Q143 160 187 101T317 42Q400 42 453 76Q474
90 491 111T516 146T525 160Q529 160 538 154T549 142Q548 140 539 115T520 68T505 40Q483 19 424 7T299 -6Q174 -6 100 72T25 263Q25 362 78 456T220 608T404 667Z" />
<glyph unicode="D" glyph-name="D" horiz-adv-x="686" d="M403 658Q534 658 601 586T668 404Q668 336 642 266T567 135T442 36T273 -3Q255 -3 202 -1T115 2L-6 -3Q-8 -1 -8 6Q-8 27 -1 27Q9 27 33 35T62 52Q76 82 86 138L160 518Q172 579 170 603Q169 611 148
621T116 632Q115 632 115 636Q115 656 121 662Q178 658 240 658H403ZM399 608Q304 608 291 592Q274 573 266 522L192 138Q179 73 188 64Q201 48 298 48Q399 48 466 139T548 377Q559 477 522 542T399 608Z" />
<glyph unicode="E" glyph-name="E" horiz-adv-x="544" d="M240 658Q286 657 389 660T538 664Q536 642 536 599Q536 586 536 561T537 522Q532 517 517 517Q505 517 505 524Q493 613 400 613H355Q290 613 286 600Q270 555 266 528L236 363Q236 361 238 360T247 358T259
357T274 356H336Q381 356 392 365T425 422Q428 430 440 430Q453 430 457 424L421 234Q417 230 403 230Q391 230 390 238Q388 285 376 297Q366 306 290 306Q224 306 222 298L193 146Q184 103 184 74Q184 57 192 53T244 49H279Q352 49 394 70Q410 78 434 104T476
166Q479 172 490 172Q510 172 514 166Q440 23 431 -3Q378 -3 266 -1T115 2L-6 -3Q-8 -1 -8 6Q-8 27 -1 27Q9 27 33 35T62 52Q76 82 86 138L160 518Q172 579 170 603Q169 611 148 621T116 632Q115 632 115 636Q115 656 121 662Q178 658 240 658Z" />
<glyph unicode="F" glyph-name="F" horiz-adv-x="532" d="M115 3Q115 3 -6 -3Q-8 -1 -8 6Q-8 27 -1 27Q9 27 33 35T62 52Q76 82 86 138L160 518Q172 579 170 603Q169 611 148 621T116 632Q115 632 115 636Q115 656 121 662Q178 658 240 658Q284 657 387 660T536
664Q534 642 534 599Q534 586 535 561T536 522Q531 517 516 517Q504 517 504 524Q492 613 398 613H354Q288 613 284 600Q270 560 265 528L234 363Q234 361 236 360T245 358T257 357T272 356H334Q379 356 391 365T424 422Q427 430 438 430Q452 430 456 424L419 234Q415
230 402 230T388 238Q386 286 375 297Q365 306 289 306Q222 306 220 298L189 134Q181 90 181 61Q181 47 200 39T232 29T254 27Q256 27 256 15Q256 2 250 -4Q120 3 115 3Z" />
<glyph unicode="G" glyph-name="G" horiz-adv-x="645" d="M406 667Q491 667 616 630Q613 608 610 573T604 513T600 483Q598 474 580 474Q566 474 560 480Q560 494 558 508T545 543T519 580T472 606T400 618Q348 618 304 590T231 520T182 428T152 334T143 260Q143
169 187 106T315 42Q383 42 414 65Q422 71 424 84Q440 166 446 203Q450 227 450 244Q450 256 422 263T381 271Q379 271 379 277Q379 294 386 301Q501 296 518 296Q538 296 633 301Q633 271 626 271Q599 271 570 254Q556 245 553 230Q547 196 539 146Q534 114 534
102V75Q534 56 506 44Q466 26 447 19T377 2T265 -8Q160 -8 93 72T26 266Q26 365 78 458T220 609T406 667Z" />
<glyph unicode="H" glyph-name="H" horiz-adv-x="709" d="M368 368Q489 368 490 374L518 520Q528 572 528 604Q528 618 509 625T476 632Q474 632 474 637Q474 654 482 662Q587 657 602 657Q621 657 716 662V657Q716 632 710 632Q702 632 678 624T649 608Q636 579
624 519L550 139Q538 82 538 54Q538 43 559 35T590 27Q592 27 592 22Q592 9 585 -3Q474 3 470 3Q445 3 403 0T352 -3Q350 -1 350 4Q350 27 356 27Q367 27 390 34T418 50Q434 82 444 138L476 306L477 307Q477 314 353 314Q273 314 249 313T223 304L191 139Q180 78
180 54Q180 43 201 35T232 27Q234 27 234 22Q234 9 227 -3Q116 3 112 3Q87 3 45 0T-6 -3Q-8 -1 -8 4Q-8 27 -2 27Q10 27 32 33T60 49Q76 80 86 138L160 520Q170 572 170 602Q170 615 150 623T118 632Q116 632 116 636Q116 655 123 662Q228 657 238 657Q262 657
357 662V658Q357 632 350 632Q342 632 318 624T289 608Q273 573 264 519L237 376V375Q237 368 368 368Z" />
<glyph unicode="I" glyph-name="I" horiz-adv-x="350" d="M264 519L191 139Q180 78 180 54Q180 43 201 35T232 27Q234 27 234 22Q234 9 227 -3Q116 3 112 3Q87 3 45 0T-6 -3Q-8 -1 -8 4Q-8 27 -2 27Q10 27 32 33T60 49Q76 80 86 138L160 520Q170 572 170 602Q170
615 150 623T118 632Q116 632 116 636Q116 655 123 662Q228 657 238 657Q262 657 357 662V658Q357 632 350 632Q342 632 318 624T289 608Q279 586 264 519Z" />
<glyph unicode="J" glyph-name="J" horiz-adv-x="431" d="M158 94L240 520Q250 572 250 602Q250 615 230 623T198 632Q196 632 196 636Q196 654 204 662Q309 657 318 657Q343 657 438 662V658Q438 651 436 642T430 632Q422 632 398 624T370 608Q358 581 344 519L266
112Q254 47 227 -8T170 -99T105 -163T46 -204T1 -226Q-12 -221 -12 -206Q-12 -194 -10 -190Q123 -88 158 94Z" />
<glyph unicode="K" glyph-name="K" horiz-adv-x="691" d="M264 519L191 139Q180 78 180 54Q180 43 201 35T232 27Q234 27 234 22Q234 9 227 -3Q116 3 113 3Q88 3 46 0T-6 -3Q-8 -1 -8 4Q-8 27 -2 27Q10 27 32 33T60 49Q76 80 86 138L160 520Q170 572 170 602Q170
615 150 623T118 632Q116 632 116 636Q116 655 123 662Q228 657 238 657Q262 657 357 662V658Q357 632 350 632Q342 632 318 624T289 608Q279 586 264 519ZM228 330Q308 381 502 584Q523 605 523 616Q523 632 474 632Q469 632 469 643T474 662Q542 658 587 658Q622
658 698 662Q698 632 690 632Q615 624 582 590L352 355Q345 348 345 339Q345 334 350 326L529 92Q553 59 585 44T640 29Q642 29 642 22Q642 12 636 0Q618 -3 569 -3Q462 -3 420 60L228 330Z" />
<glyph unicode="L" glyph-name="L" horiz-adv-x="528" d="M240 658Q282 658 358 662Q358 662 358 658Q358 651 356 642T350 632Q342 632 318 624T290 608Q272 569 264 519L191 139Q183 102 183 74Q183 57 192 53T244 49H279Q352 49 394 70Q410 78 434 104T476
166Q479 172 490 172Q510 172 514 166Q440 23 431 -3Q378 -3 266 -1T115 2L-6 -3Q-8 -1 -8 6Q-8 27 -1 27Q9 27 33 35T62 52Q76 82 86 138L160 518Q172 579 170 603Q169 611 148 621T116 632Q115 632 115 636Q115 656 121 662Q194 658 240 658Z" />
<glyph unicode="M" glyph-name="M" horiz-adv-x="856" d="M623 536Q623 536 679 661Q703 658 748 658Q786 658 862 662Q862 632 854 632Q822 632 806 610Q792 592 783 522Q745 174 741 125Q737 87 737 62Q737 31 790 27Q792 27 792 18Q792 7 785 -3Q674 3 672
3Q647 3 604 0T552 -3Q550 0 550 4Q550 27 556 27Q567 27 592 34T622 50Q634 70 642 138L676 464Q678 484 678 508Q678 516 674 516Q672 516 669 511L422 31Q417 22 404 10T378 -2Q374 -2 370 0L282 525Q281 529 280 529T277 525Q172 146 166 114Q154 64 154 62Q154
48 186 38T230 27Q232 27 232 22Q232 9 226 -3Q134 2 111 2Q100 2 -7 -3Q-9 1 -9 6Q-9 27 -2 27Q12 27 45 38T88 64Q96 76 108 119L224 549Q234 589 234 605Q234 617 208 624T167 632Q166 632 166 638Q166 656 173 662Q257 658 277 658Q294 658 370 662Q374 623
446 196H447Q450 196 450 198Q601 491 623 536Z" />
<glyph unicode="N" glyph-name="N" horiz-adv-x="763" d="M243 658Q296 658 336 662Q339 649 345 633T360 594T378 552T402 502T426 451T454 395T482 340T511 282T539 227Q544 240 549 268L597 518Q607 576 607 592T577 620T531 632Q529 632 529 638Q529 657 536
662Q620 658 653 658Q694 658 770 662Q770 632 763 632Q752 632 722 623T679 600Q664 577 653 518L578 138Q571 105 564 53T555 -2Q551 -6 537 -6Q526 -6 512 16Q299 442 251 552L169 141Q159 91 159 69Q159 49 189 38T233 27Q235 27 235 22Q235 9 229 -3Q136 2
113 2Q102 2 -5 -3Q-7 1 -7 5Q-7 10 -6 15T-3 23T0 27Q15 27 46 36T88 60Q99 79 113 144L189 526Q197 566 197 601Q197 615 170 623T127 632Q124 632 124 638Q124 657 131 662Q211 658 243 658Z" />
<glyph unicode="O" glyph-name="O" horiz-adv-x="656" d="M374 618Q280 618 212 509T144 252Q144 160 181 100T290 40Q359 40 413 104T494 252T520 415Q520 504 484 561T374 618ZM398 667Q502 667 570 592T638 404Q638 298 585 202T446 48T264 -10Q158 -10 92
66T26 258Q26 362 80 457T221 610T398 667Z" />
<glyph unicode="P" glyph-name="P" horiz-adv-x="537" d="M369 662Q407 662 445 648T513 597T544 507Q544 421 477 355T316 288Q269 288 249 303Q247 307 247 312Q247 326 255 330Q275 328 283 328Q345 328 388 380T431 518Q431 563 408 589T345 616Q279 616 276
594L186 134Q177 86 177 62Q177 48 196 40T229 29T251 27Q253 27 253 15T247 -3Q136 3 122 3Q102 3 81 2T33 0T-10 -3Q-12 1 -12 8Q-12 13 -10 20T-5 27Q9 27 30 32T57 50Q66 68 81 138L160 538Q167 573 167 600Q167 613 147 622T116 632Q114 632 114 638Q114 656
122 662Q227 657 237 657Q264 657 303 659T369 662Z" />
<glyph unicode="Q" glyph-name="Q" horiz-adv-x="624" d="M384 618Q322 618 269 568T185 433T154 252Q154 160 190 100T300 40Q352 40 397 77T470 171T513 293T529 415Q529 504 493 561T384 618ZM407 667Q511 667 579 592T647 404Q647 299 594 203T456 49Q422
26 369 2T269 -31Q301 -36 361 -59T484 -103T600 -124Q637 -124 677 -105T738 -68Q762 -76 762 -90Q742 -116 678 -154T550 -193Q498 -193 442 -179T340 -145T220 -99T78 -54Q78 -50 85 -40T98 -27Q212 -9 231 -6Q142 9 89 82T36 258Q36 336 68 411T152 543T272
633T407 667Z" />
<glyph unicode="R" glyph-name="R" horiz-adv-x="621" d="M237 657Q265 657 302 659T367 662Q406 662 444 650T514 603T546 519Q546 453 501 398T403 323Q395 320 399 310Q441 179 521 82Q541 58 567 44T615 28Q615 14 606 -2Q602 -2 586 -3T561 -4Q488 -4 447
31T362 150L297 286Q288 302 249 302Q235 302 231 302T222 298T215 286L187 139Q177 84 177 54Q177 43 198 35T228 27Q230 27 230 22Q230 9 223 -3Q216 -3 182 0T122 3Q102 3 81 2T33 0T-10 -3Q-12 1 -12 8Q-12 13 -10 20T-5 27Q9 27 30 32T57 50Q66 68 81 138L160
538Q167 573 167 600Q167 613 147 622T116 632Q114 632 114 638Q114 656 122 662Q227 657 237 657ZM345 613Q303 613 290 608T274 588L234 378Q234 377 234 376T233 374Q233 350 307 350Q355 350 393 400T432 522Q432 567 409 590T345 613Z" />
<glyph unicode="S" glyph-name="S" horiz-adv-x="455" d="M314 668Q344 668 390 657T454 642Q452 624 449 597T443 551T438 515T433 487T429 478Q420 478 411 481Q398 483 398 496Q398 539 371 578T300 618Q248 618 219 583T190 507Q190 455 268 394Q278 386 317
358T370 317T400 275T416 213Q416 124 344 58T176 -8Q118 -8 14 17Q19 97 19 102Q19 119 19 148T18 179Q18 187 39 187Q51 187 60 178Q60 129 89 85T178 41Q234 41 269 83T304 170Q304 184 299 197T287 220T265 243T243 263T217 283T192 301Q165 322 151 334T119
366T92 408T84 454Q84 546 155 607T314 668Z" />
<glyph unicode="T" glyph-name="T" horiz-adv-x="576" d="M155 138L225 497Q238 560 238 585Q238 595 234 600T211 608T151 611Q105 611 80 592T30 518Q27 512 21 512Q3 512 -2 520L45 672Q80 662 107 662Q147 662 209 659T309 655T411 658T515 662Q541 662 581
672L569 519Q560 512 543 512Q535 512 535 517Q534 571 514 591T451 611Q365 611 357 594Q345 568 331 500L261 139Q251 84 251 54Q251 43 271 35T301 27Q303 27 303 22Q303 7 297 -3Q186 3 181 3Q156 3 114 0T63 -3Q62 -2 62 4Q62 27 69 27Q80 27 102 33T130 49Q144
77 155 138Z" />
<glyph unicode="U" glyph-name="U" horiz-adv-x="667" d="M90 520Q100 572 100 602Q100 615 80 623T49 632Q48 632 48 636Q48 656 54 662Q159 657 170 657Q193 657 288 662V658Q288 632 281 632Q273 632 249 624T220 608Q214 594 196 519L152 297Q142 245 142
202Q142 62 264 62Q340 62 390 107T464 272L510 514Q524 585 523 606Q522 618 493 625T448 632Q447 632 447 638Q447 655 454 662Q538 658 561 658Q599 658 675 662Q675 632 668 632Q658 632 626 625T589 612Q581 595 564 514L518 276Q488 119 418 59T230 -2Q140
-2 88 49T36 203Q36 241 48 304L90 520Z" />
<glyph unicode="V" glyph-name="V" horiz-adv-x="599" d="M190 655Q226 655 316 660Q317 658 317 656Q317 648 315 638T309 628Q284 628 266 619T245 592Q244 581 251 542L320 168L538 538Q557 571 560 596Q561 610 544 619T503 628Q501 628 501 634Q501 652 508
660Q590 656 607 656Q620 656 712 660Q713 655 712 650Q709 628 705 628Q686 628 660 616T616 574L290 23Q269 -12 248 -12Q238 -12 234 -2L138 530Q136 541 123 599Q119 613 99 620T67 628Q64 628 64 635Q64 652 72 660Q170 655 190 655Z" />
<glyph unicode="W" glyph-name="W" horiz-adv-x="994" d="M183 654Q187 654 301 660Q301 659 301 656Q301 648 299 638T294 628Q276 628 261 619T243 592Q243 584 249 558Q364 152 364 152Q369 156 413 219T470 303L403 544Q390 590 381 603Q374 613 359 620T332
628Q330 628 331 640Q332 656 338 660Q345 660 387 657T455 654Q473 654 491 655T532 657T567 660Q567 659 567 656Q567 648 565 638T559 628Q540 628 526 619T509 594Q508 583 515 560L553 421L627 538Q652 579 654 594Q655 607 642 615T618 626T600 628Q598 628
598 636Q598 654 605 660Q692 654 707 654Q728 654 746 655T783 657T816 660Q817 651 815 640T809 628Q794 628 770 618T736 597Q710 571 666 504L570 358Q625 161 630 152Q631 152 686 242T801 430T869 539Q893 579 894 594Q895 606 883 615T859 626T841 628Q839
628 839 638Q839 654 847 660Q934 654 949 654Q970 654 988 655T1025 657T1058 660Q1058 628 1051 628Q1035 628 1012 618T979 598Q947 567 908 504L605 19Q595 3 584 -5T565 -13Q558 -13 556 -8L487 239L338 19Q316 -13 298 -13Q293 -13 290 -8L145 518Q129 575
114 605Q108 615 91 621T64 628Q61 628 63 640Q64 656 69 660Q78 660 118 657T183 654Z" />
<glyph unicode="X" glyph-name="X" horiz-adv-x="709" d="M287 654Q302 654 416 660Q416 660 416 657Q416 655 416 654Q416 646 414 637T408 628Q393 628 372 621T350 598Q349 586 354 574Q426 406 427 406Q428 408 444 425T472 454T503 487T535 523T562 554T583
581T591 597Q592 610 573 619T531 628Q529 628 529 636Q529 654 537 660Q639 654 649 654Q671 654 690 655T732 657T767 660Q767 659 767 655Q767 647 765 638T760 628Q747 628 715 619T666 593Q448 356 448 356Q559 92 571 72Q584 50 611 39T651 28Q652 28 651
15Q650 4 647 -4Q545 2 524 2Q501 2 479 1T429 -1T383 -4Q382 -2 382 5Q382 12 384 20T390 28Q402 28 423 37T446 58Q448 66 445 73Q358 280 358 280Q322 241 249 156T174 60Q172 43 191 36T233 28Q236 28 235 14Q234 2 230 -4Q174 0 118 0Q66 0 0 -4Q-2 2 -1 6Q0
28 5 28Q19 28 49 36T94 60Q335 333 335 334L254 528Q238 565 229 582T208 610Q200 617 183 622T157 628Q155 628 155 636Q155 654 163 660Q173 660 216 657T287 654Z" />
<glyph unicode="Y" glyph-name="Y" horiz-adv-x="592" d="M197 654Q212 654 326 660Q326 659 326 653Q326 645 324 637T318 628Q304 628 283 620T260 596Q259 587 263 574L330 379Q336 387 365 425T409 483T447 532T479 579T490 602Q491 613 474 620T432 628Q430
628 430 636Q430 654 437 660Q530 654 539 654Q554 654 652 660Q653 655 652 648Q651 628 645 628Q632 628 606 619T564 595Q544 573 443 440T340 294L310 142Q300 89 300 54Q301 44 323 36T353 28Q356 28 354 17Q353 4 349 -4Q347 -3 302 0T233 3Q208 3 164 0T109
-4Q107 -1 108 8Q110 28 115 28Q126 28 151 36T180 52Q193 76 204 138L234 294Q235 299 216 360T176 482L156 541Q139 594 118 610Q109 616 93 622T67 628Q65 628 65 635Q65 654 73 660Q83 660 126 657T197 654Z" />
<glyph unicode="Z" glyph-name="Z" horiz-adv-x="581" d="M314 656Q336 656 418 656Q484 656 622 666Q625 665 626 652T626 633Q624 629 512 491T287 216L174 79Q166 69 166 63Q165 54 176 54H355Q463 54 516 163Q519 170 536 170Q553 170 558 164Q550 147 536
116T515 71T501 37T487 0H16Q11 9 12 22Q13 36 20 43L478 604H378Q321 603 279 587T222 546Q199 545 184 536T162 517T140 481Q135 480 129 480T120 481Q121 491 127 524T138 576Q145 586 147 592T153 619T166 664Q175 661 235 659T314 656Z" />
<glyph unicode="[" glyph-name="bracketleft" horiz-adv-x="351" d="M176 755Q260 755 360 771Q364 771 364 764Q364 755 359 744T345 729Q332 722 300 715T241 708Q232 708 232 699L87 -50Q87 -58 92 -58Q137 -58 187 -83Q193 -86 193 -96T191 -115T184 -124Q79
-106 9 -106Q-4 -106 -4 -89V-83L154 732Q154 734 155 738T162 749T176 755Z" />
<glyph unicode="\" glyph-name="backslash" horiz-adv-x="226" d="M35 761Q77 761 81 739L207 13Q207 12 207 10T208 6Q208 -14 198 -26T175 -39L152 -37L15 755Q27 761 35 761Z" />
<glyph unicode="]" glyph-name="bracketright" horiz-adv-x="351" d="M340 755Q353 755 353 738Q353 738 353 732L195 -83Q195 -85 194 -89T187 -100T173 -106Q102 -106 -9 -124Q-13 -124 -13 -112Q-13 -89 3 -83Q62 -58 108 -58Q116 -58 116 -50L262 699Q262
708 256 708Q230 708 201 715T161 729Q155 732 154 742T155 762T162 771Q258 755 340 755Z" />
<glyph unicode="^" glyph-name="asciicircum" horiz-adv-x="341" d="M35 499Q37 502 63 524T127 587T197 677Q198 679 199 682T201 686T203 688T205 689T209 690Q219 690 222 684T234 649T259 588Q266 575 280 554T306 518T318 500Q309 472 301 472Q288 472 251
513T193 590Q159 551 106 512T42 472Q35 472 35 499Z" />
<glyph unicode="_" glyph-name="underscore" horiz-adv-x="531" d="M34 -36Q34 -31 42 -8T58 15H474Q478 15 478 9Q478 -3 462 -38Q461 -41 459 -42T456 -44H454H40L34 -36Z" />
<glyph unicode="`" glyph-name="grave" horiz-adv-x="200" d="M38 656Q38 666 49 676T83 686Q107 686 113 678Q125 659 139 626T163 568T173 541Q173 536 168 530T157 524Q146 524 92 576T38 656Z" />
<glyph unicode="a" glyph-name="a" horiz-adv-x="450" d="M337 442Q386 442 420 424L361 117Q358 108 358 93Q358 68 368 68Q378 68 395 81T422 106T438 122Q440 122 447 113T454 99Q443 75 392 34T304 -7Q285 -7 273 7T260 46Q260 57 264 79Q267 95 268 100Q259
84 248 69T220 35T183 5T142 -6Q93 -6 65 34T36 135Q36 205 77 276T190 394T337 442ZM287 387Q230 387 183 301T135 138Q135 60 176 60Q210 60 248 132T302 281L321 377Q312 387 287 387Z" />
<glyph unicode="b" glyph-name="b" horiz-adv-x="401" d="M314 442Q360 442 384 406T409 304Q409 175 325 84T150 -8Q107 -8 75 23T43 106Q43 125 48 150L126 552Q136 596 136 608Q136 628 80 628Q78 628 78 635Q78 648 86 656Q117 658 162 669T232 690Q239 686
239 670Q239 658 224 588L172 324Q205 378 243 410T314 442ZM274 372Q242 372 199 301T142 162Q131 114 140 78T180 41Q231 41 271 123T311 288Q311 372 274 372Z" />
<glyph unicode="c" glyph-name="c" horiz-adv-x="348" d="M264 442Q323 442 364 402Q368 386 368 376Q368 354 357 339T328 324Q314 324 304 335T290 359T276 383T252 394Q226 394 198 362T151 275T132 166Q132 62 196 62Q218 62 242 76T276 100T294 118Q296 118
303 109T310 95Q297 69 250 32T158 -6Q95 -6 64 36T32 151Q32 219 65 287T153 398T264 442Z" />
<glyph unicode="d" glyph-name="d" horiz-adv-x="464" d="M327 441Q335 441 335 441T336 442L360 562Q366 596 366 608Q366 628 311 628Q308 628 308 635Q308 648 316 656Q347 658 393 669T463 690Q471 686 471 670Q471 665 468 650T461 616T455 588L364 117Q361
108 361 93Q361 68 371 68Q381 68 398 81T425 106T441 122Q443 122 450 113T457 99Q445 75 394 34T307 -7Q288 -7 276 7T263 46Q263 58 267 80Q268 86 271 101Q262 86 252 71T224 37T187 6T146 -6Q95 -6 67 34T39 135Q39 204 78 274T186 391T327 441ZM318 350Q321
366 313 376T291 387Q251 387 215 344T158 243T138 137Q138 60 179 60Q213 60 251 131T305 282L318 350Z" />
<glyph unicode="e" glyph-name="e" horiz-adv-x="356" d="M268 442Q316 442 345 418T375 358Q375 311 328 268T226 203T140 181Q136 181 136 158Q136 62 200 62Q222 62 246 76T280 100T298 118Q300 118 307 109T314 95Q301 69 254 32T162 -6Q100 -6 68 35T36 152Q36
219 69 286T157 398T268 442ZM258 394Q222 394 184 334T145 228Q145 224 149 224Q190 224 236 269T282 360Q282 375 276 384T258 394Z" />
<glyph unicode="f" glyph-name="f" horiz-adv-x="473" d="M481 697Q545 697 569 664Q569 581 521 581Q508 581 498 592T482 616T466 639T443 650Q411 650 378 589T326 424V422Q326 418 329 418H444Q452 418 452 404Q452 386 439 366H321Q315 366 314 358L257 57Q243
-17 216 -74T155 -162T87 -209T18 -224Q-17 -224 -40 -212T-67 -184Q-68 -153 -56 -133T-19 -112Q-8 -112 1 -122T15 -144T31 -167T56 -178Q75 -178 92 -159T121 -109T142 -50T155 8L221 358V360Q221 366 218 366H156Q152 366 152 372Q152 382 169 400T205 418H228Q233
418 235 431Q256 550 325 623T481 697Z" />
<glyph unicode="g" glyph-name="g" horiz-adv-x="449" d="M308 -108Q308 -59 167 -26Q150 -33 139 -38T113 -52T90 -75T82 -104Q82 -180 196 -180Q249 -180 278 -159T308 -108ZM264 393Q237 393 217 367T188 304T178 232Q178 200 191 181T228 161Q255 161 275
187T304 247T313 312Q313 346 300 369T264 393ZM283 442Q310 442 346 429T417 416H465Q472 416 472 405Q473 384 462 370H409Q403 370 403 364Q403 363 404 355T406 336T408 312Q408 277 398 248T372 198T343 166T315 144Q299 135 266 121T211 95T190 72Q190 65
211 58T262 43T323 23T374 -11T395 -63Q395 -128 333 -177T156 -226Q86 -226 41 -198T-5 -125Q-5 -57 125 -10Q115 -8 100 3Q75 21 75 43Q75 60 110 83T183 119Q142 126 113 160T84 239Q84 321 144 381T283 442Z" />
<glyph unicode="h" glyph-name="h" horiz-adv-x="465" d="M349 442Q417 442 417 354Q417 318 402 246L376 117Q373 108 373 93Q373 68 383 68Q393 68 410 81T437 106T452 122Q455 122 461 113T468 99Q457 75 406 34T318 -7Q300 -7 288 7T275 48Q275 68 284 111L312
253Q321 299 321 309Q321 351 297 351Q279 351 247 311T183 208T142 92L122 0Q106 -5 79 -5T32 0Q143 577 143 581Q146 606 123 618Q123 621 121 623T114 626T106 629T98 631T91 632Q90 639 94 646Q108 650 138 660T181 676Q192 676 209 677T232 679T249 679Q250
675 249 665T246 641T243 625Q243 623 235 582T219 497T210 448Q217 462 209 426Q205 404 191 347Q185 320 184 317Q194 338 183 298Q175 270 175 271Q197 316 254 379T349 442Z" />
<glyph unicode="i" glyph-name="i" horiz-adv-x="280" d="M192 442Q210 442 222 428T235 388Q235 363 227 324L186 117Q184 108 184 93Q184 68 194 68Q204 68 221 81T248 106T264 122Q266 122 273 113T280 99Q268 75 217 34T130 -7Q111 -7 99 7T86 48Q86 70 94
111L133 310Q137 331 137 342Q137 366 127 366Q115 366 94 347T63 316Q61 316 54 326T47 340Q58 363 107 402T192 442ZM222 666Q242 666 255 652T269 616Q269 587 250 565T203 543Q183 543 170 558T157 596Q157 624 176 645T222 666Z" />
<glyph unicode="j" glyph-name="j" horiz-adv-x="317" d="M240 442Q259 442 271 428T283 388Q283 364 275 324L228 82Q204 -43 152 -113Q124 -151 78 -183T1 -226Q-2 -225 -6 -215T-10 -198Q49 -154 81 -96T132 61L182 310Q185 332 185 342Q185 366 175 366Q163
366 142 347T111 316Q109 316 102 326T95 340Q106 363 156 402T240 442ZM276 668Q297 668 310 653T324 616Q324 587 304 566T258 544Q237 544 225 559T212 596Q212 625 231 646T276 668Z" />
<glyph unicode="k" glyph-name="k" horiz-adv-x="475" d="M352 442Q390 442 419 420T449 362Q449 299 393 256T264 202Q306 131 335 96T385 61Q403 61 423 78T452 109Q455 109 464 100T473 88Q465 65 427 31T350 -4Q337 -4 325 0T300 13T277 32T254 58T234 84T215
114T199 142T183 170T170 194L132 0Q115 -6 88 -6Q68 -6 42 0L148 552Q158 596 158 608Q158 628 102 628Q100 628 100 635Q100 648 108 656Q139 658 184 669T254 690Q261 686 261 670Q261 667 246 588L198 334Q204 344 214 358T245 393T293 428T352 442ZM312 382Q288
382 257 352T205 289T184 242Q184 236 202 236Q207 236 222 238T262 247T307 268T332 304Q343 320 337 351T312 382Z" />
<glyph unicode="l" glyph-name="l" horiz-adv-x="238" d="M54 111L142 564Q148 595 148 608Q148 628 93 628Q90 628 90 635Q90 648 98 656Q129 658 175 669T245 690Q253 686 253 670Q253 662 238 588L146 117Q144 106 144 93Q144 68 154 68Q163 68 180 81T207
106T223 122Q225 122 232 113T239 99Q228 75 177 34T89 -7Q70 -7 58 7T46 48Q46 70 54 111Z" />
<glyph unicode="m" glyph-name="m" horiz-adv-x="725" d="M378 442Q452 442 452 340Q452 329 443 279Q473 333 524 387T610 442Q682 442 682 354Q682 318 666 246L640 117Q638 108 638 93Q638 68 648 68Q657 68 674 81T701 106T717 122Q719 122 726 113T733 99Q722
75 671 34T583 -7Q564 -7 552 7T540 48Q540 68 548 111L577 253Q586 294 586 309Q586 330 581 340T562 351Q532 351 479 264T410 100L390 0Q364 -4 344 -4Q319 -4 298 0L350 263Q357 297 357 311Q357 351 332 351Q313 351 281 308T220 205T182 96L162 0Q139 -5
117 -5Q96 -5 71 0L131 310Q135 332 135 342Q135 366 125 366Q113 366 92 347T61 316Q58 316 52 326T45 340Q56 363 105 402T189 442Q208 442 220 428T233 388Q233 369 226 329L214 270Q245 327 294 384T378 442Z" />
<glyph unicode="n" glyph-name="n" horiz-adv-x="502" d="M188 442Q207 442 219 428T232 388Q232 369 225 329Q224 325 223 319T220 300T216 279T214 270Q236 315 292 378T387 442Q455 442 455 354Q455 318 440 246L414 117Q411 108 411 93Q411 68 421 68Q431
68 448 81T475 106T490 122Q493 122 499 113T506 99Q495 75 444 34T356 -7Q338 -7 326 7T313 48Q313 68 322 111L351 253Q359 294 359 309Q359 351 335 351Q317 351 285 311T221 208T180 92L160 0Q144 -5 117 -5Q90 -5 70 0L130 310Q134 332 134 342Q134 366 124
366Q112 366 91 347T60 316Q57 316 51 326T44 340Q55 363 104 402T188 442Z" />
<glyph unicode="o" glyph-name="o" horiz-adv-x="402" d="M262 395Q231 395 203 353T158 250T142 134Q143 91 156 67T192 42Q224 42 252 86T294 190T308 302Q308 346 296 370T262 395ZM273 442Q341 442 374 400T408 284Q408 213 375 146T289 36T178 -6Q109 -6
76 36T42 150Q42 218 75 286T162 398T273 442Z" />
<glyph unicode="p" glyph-name="p" horiz-adv-x="468" d="M321 374Q298 374 274 356T233 312L193 102Q182 48 226 48Q258 48 292 85T348 181T370 298Q370 331 358 352T321 374ZM364 442Q414 442 441 400T468 300Q468 189 381 92T212 -5Q188 -5 173 5L147 -130Q144
-144 144 -155Q144 -180 162 -184Q177 -188 204 -188Q208 -188 208 -197Q208 -212 204 -219H130Q68 -220 -4 -228Q-8 -226 -8 -220Q-8 -201 -3 -196Q28 -196 42 -180Q49 -170 56 -134L127 232L84 193Q76 204 76 218Q76 224 81 229Q127 277 137 286L167 438Q189
443 212 443Q237 443 258 436Q246 380 245 377Q247 378 256 388T271 403T288 416T310 429T334 438T364 442Z" />
<glyph unicode="q" glyph-name="q" horiz-adv-x="415" d="M292 387Q254 387 219 347T163 250T142 144Q142 61 182 61Q215 61 255 128T308 260L331 376Q324 387 292 387ZM342 442Q394 442 430 424L348 -2Q347 -8 336 -73T324 -140Q324 -156 328 -163T349 -172Q354
-191 368 -195Q371 -196 375 -196Q376 -202 374 -208Q358 -217 347 -219Q292 -219 230 -224Q164 -221 155 -221Q155 -206 157 -205Q157 -205 158 -204Q188 -192 196 -160Q198 -160 210 -137T235 -84T250 -40Q248 -45 247 -35Q246 -30 244 -13Q237 58 225 58Q194
47 174 42T129 41T91 64Q85 80 79 88T68 97T59 99T52 97T47 98T44 108T43 132Q43 205 85 277T198 395T342 442Z" />
<glyph unicode="r" glyph-name="r" horiz-adv-x="405" d="M192 442Q211 442 223 428T235 388Q235 362 230 334Q218 272 217 270Q245 334 290 388T376 442Q412 442 437 406Q437 323 388 323Q376 323 361 340T332 358Q315 358 284 317T224 214T184 97L166 0Q144
-4 121 -4Q97 -4 74 0L134 310Q137 332 137 342Q137 366 127 366Q115 366 94 347T63 316Q61 316 54 326T47 340Q58 363 108 402T192 442Z" />
<glyph unicode="s" glyph-name="s" horiz-adv-x="322" d="M238 444Q298 444 332 410Q340 398 340 381Q340 358 330 344T302 329Q282 329 259 363T208 397Q188 397 178 385T168 352Q168 330 187 300T229 243T272 182T292 118Q292 63 247 28T136 -7Q76 -7 41 28Q34
38 34 54Q34 77 44 92T71 108Q85 108 96 97T115 74T135 51T166 40Q186 40 197 52T208 84Q208 112 177 152T115 237T84 319Q84 367 129 405T238 444Z" />
<glyph unicode="t" glyph-name="t" horiz-adv-x="277" d="M154 534Q156 546 222 546Q237 546 247 544L222 424Q222 424 312 424Q319 424 319 410Q319 391 308 374H213L163 117Q160 108 160 93Q160 68 170 68Q180 68 197 81T224 106T240 122Q242 122 249 113T256
99Q245 75 194 34T106 -7Q87 -7 75 7T62 48Q62 70 71 111L122 374H58Q55 374 55 386Q55 396 59 408T68 424H132L154 534Z" />
<glyph unicode="u" glyph-name="u" horiz-adv-x="492" d="M183 442Q202 442 214 428T226 388Q226 359 218 324L189 182Q181 139 181 126Q181 84 205 84Q222 84 254 124T315 227T356 344L375 435Q392 440 419 440Q445 440 465 435L404 117Q402 106 402 93Q402 68
412 68Q421 68 438 81T465 106T481 122Q483 122 490 113T497 99Q486 75 435 34T347 -7Q328 -7 316 7T304 48Q304 64 311 106Q312 110 313 116T316 135T320 156T322 165Q309 139 282 101T217 28T153 -7Q85 -7 85 80Q85 117 100 188L124 310Q128 328 128 342Q128
366 118 366Q106 366 85 347T54 316Q52 316 45 326T38 340Q49 363 99 402T183 442Z" />
<glyph unicode="v" glyph-name="v" horiz-adv-x="429" d="M184 442Q203 442 215 428T228 388Q228 363 221 329L190 171Q184 141 184 121Q184 75 218 75Q247 75 284 113T347 204T374 298Q374 322 358 347T342 390Q342 413 358 427T398 442Q420 442 433 432Q445
412 445 374Q445 310 416 240T344 118T256 32T174 -2Q136 -2 112 22T88 88Q88 115 92 136L126 310Q130 326 130 342Q130 366 120 366Q108 366 87 347T56 316Q54 316 47 326T40 340Q51 363 100 402T184 442Z" />
<glyph unicode="w" glyph-name="w" horiz-adv-x="659" d="M184 442Q203 442 215 428T228 388Q228 363 221 329L190 171Q184 141 184 121Q184 75 218 75Q242 75 270 97T322 160Q340 318 356 380T408 442Q455 442 455 384Q455 321 416 196Q411 164 411 148Q411 105
418 90T446 75Q474 75 510 113T571 204T596 298Q596 321 579 347T562 392Q562 415 579 428T618 442Q642 442 654 432Q666 412 666 374Q666 289 619 199T510 54T402 -2Q363 -2 339 21T314 87Q235 -2 174 -2Q136 -2 112 22T88 88Q88 115 92 136L126 310Q130 326 130
342Q130 366 120 366Q108 366 87 347T56 316Q54 316 47 326T40 340Q51 363 100 402T184 442Z" />
<glyph unicode="x" glyph-name="x" horiz-adv-x="489" d="M215 442Q253 442 277 360L295 298L346 382Q382 442 435 442Q472 442 500 423Q507 409 507 396Q507 377 495 363T464 349Q449 349 433 361T405 374Q388 374 376 352L312 241L353 100Q357 88 364 79T378
70Q393 70 414 88T443 118Q446 118 453 109T460 96Q453 74 406 35T322 -5Q284 -5 260 78L239 151L181 54Q144 -6 92 -6Q54 -6 27 13Q20 26 20 40Q20 59 31 73T62 87Q77 87 93 75T122 62Q138 62 150 84L223 207L184 336Q175 368 159 368Q144 368 123 350T94 319Q91
319 84 328T77 341Q84 363 131 402T215 442Z" />
<glyph unicode="y" glyph-name="y" horiz-adv-x="484" d="M213 442Q233 442 249 416T276 348T294 260T305 166T310 91T312 47Q340 81 377 153T414 279Q414 338 383 390Q386 412 402 427T440 442Q465 442 477 421T490 375Q490 299 458 211T373 48T260 -90T139 -189T34
-226Q8 -226 -9 -214T-26 -178Q-26 -150 -6 -134Q27 -146 66 -146Q145 -146 196 -76Q218 -46 218 35Q218 121 204 216T161 352Q151 359 122 343Q117 343 110 341T97 336T85 331T78 328Q80 333 102 360T157 414T213 442Z" />
<glyph unicode="z" glyph-name="z" horiz-adv-x="419" d="M188 442Q211 442 264 430T352 418Q367 418 388 430T423 442Q438 442 438 412Q438 409 363 330T213 172T137 94Q140 94 155 101T181 108Q207 108 246 94T306 79Q319 79 333 92T359 121T372 138Q378 140
383 132T390 114Q384 101 375 85T351 47T316 12T276 -2Q254 -2 200 10T112 23Q96 23 72 11T36 -2Q28 -2 24 7T18 24Q18 28 93 108T244 268T320 347Q319 347 312 343T296 336T282 333Q257 333 221 347T165 362Q151 362 137 349T112 320T98 302Q92 300 87 308T78
325Q91 359 124 400T188 442Z" />
<glyph unicode="{" glyph-name="braceleft" horiz-adv-x="312" d="M15 22Q15 67 48 137T81 234Q81 243 78 251T71 263T58 273T44 280T27 286T11 292Q10 296 12 308T19 328Q73 342 95 364T118 438Q118 453 115 484T112 532Q112 629 179 689T322 750Q325 750 325
745Q325 739 321 730T312 719Q304 718 289 712T252 690T217 643T202 569Q202 554 204 527T207 483Q207 403 170 356T102 308Q124 308 141 283T159 220Q159 173 124 103T89 -4Q89 -41 110 -66T154 -94Q160 -96 159 -110T152 -125Q98 -125 57 -83T15 22Z" />
<glyph unicode="|" glyph-name="bar" horiz-adv-x="229" d="M163 757Q182 775 215 775Q234 775 233 766L65 -106Q58 -112 40 -118T6 -124Q1 -124 -3 -122T-7 -115Q128 587 163 757Z" />
<glyph unicode="}" glyph-name="braceright" horiz-adv-x="317" d="M-10 -125Q-13 -125 -13 -120T-9 -105T0 -94Q7 -94 19 -89T47 -72T78 -44T101 0T111 59Q111 73 108 99T105 141Q105 216 141 262T209 308Q187 308 170 334T153 399Q153 445 189 522T225 634Q225
670 203 693T159 719Q153 720 154 735T160 750Q217 750 259 713T302 611Q302 564 267 491T231 390T248 350T299 328Q300 326 300 321Q300 300 293 292Q289 291 276 287T258 282T244 276T229 268T218 259T208 247T201 231T196 210T194 184T196 141T199 97Q199 32
163 -21T79 -99T-10 -125Z" />
<glyph unicode="~" glyph-name="asciitilde" horiz-adv-x="534" d="M186 356Q230 356 290 330T394 304Q411 304 429 311T457 325T488 348Q493 343 493 335Q493 306 450 277T358 248Q314 248 252 274T146 300Q140 300 135 300T123 297T113 294T103 289T94 284T84
278T75 271T64 264T54 256Q48 262 48 269Q48 300 97 328T186 356Z" />
<glyph unicode="&#xa0;" glyph-name="uni00A0" horiz-adv-x="146" />
<glyph unicode="&#xa1;" glyph-name="exclamdown" horiz-adv-x="224" d="M209 378Q206 348 185 328T136 308Q112 308 98 326T87 368Q90 398 111 419T160 441Q183 441 197 423T209 378ZM32 -208Q13 -208 2 -192T-6 -152Q-5 -140 13 -77T60 87T103 234Q106 246 116
253T135 260Q141 260 141 240Q139 203 125 61T99 -147Q94 -171 75 -189T32 -208Z" />
<glyph unicode="&#xa2;" glyph-name="cent" horiz-adv-x="415" d="M14 165Q14 274 93 360T270 446H283Q297 486 300 496Q312 502 337 502Q344 502 348 499T350 491L331 440Q358 434 383 418T410 382Q410 375 407 363T389 336T352 321Q342 321 335 327T318 348T305
366L193 53Q207 48 229 48Q257 48 284 62T324 90L337 103Q346 103 346 96Q346 79 343 72Q331 52 282 23T180 -7H172Q158 -47 155 -58Q145 -63 116 -63Q113 -63 109 -60T105 -54L125 0Q73 15 44 59T14 165ZM122 173Q122 111 152 81L265 396Q255 398 247 398Q209
398 179 357T136 265T122 173Z" />
<glyph unicode="&#xa3;" glyph-name="sterling" horiz-adv-x="457" d="M363 636Q396 636 423 627T458 600Q445 529 405 529Q385 529 366 557T329 586Q276 586 247 537T211 423Q208 397 210 362Q210 359 213 359H364Q371 359 371 345Q371 321 354 304H215Q210 304
210 301Q210 279 205 256Q188 172 117 89Q148 106 195 106Q222 106 258 90T309 73Q320 73 330 76T346 82T363 94T377 106T392 122T407 138Q410 138 415 133T420 123Q420 119 419 118Q409 97 394 73T346 22T281 -5Q249 -5 195 10T120 26Q103 26 86 22T61 14T38 2T21
-7Q8 -4 0 3T-8 17L-3 22Q37 53 71 110T115 238Q121 282 121 300Q121 304 117 304H45Q42 310 42 320Q42 332 48 345T62 359H119Q122 359 122 363Q122 386 126 412Q135 517 200 576T363 636Z" />
<glyph unicode="&#xa4;" glyph-name="currency" horiz-adv-x="475" d="M257 458Q209 458 179 392T148 260Q148 215 166 187T217 158Q265 158 296 223T327 354Q327 399 309 428T257 458ZM275 497Q333 497 372 458L433 510Q434 511 437 511Q445 511 454 495T464
464L403 413Q416 380 416 346Q416 261 356 194L392 142Q393 141 393 139Q393 131 375 117T341 99L306 152Q255 120 201 120Q141 120 101 158L43 109Q42 108 39 108Q31 108 22 124T11 155L70 204Q58 232 58 269Q58 354 121 424L85 478Q84 479 84 480Q84 488 101
502T135 520L171 466Q221 497 275 497Z" />
<glyph unicode="&#xa5;" glyph-name="yen" horiz-adv-x="593" d="M43 108Q38 108 38 118Q38 127 43 140T55 158H155L164 206H60Q55 206 55 216Q55 225 60 238T72 256H173Q173 257 175 265T177 278Q177 281 175 289L103 528Q89 575 63 594Q41 610 14 610Q11 610
11 618Q11 634 19 640Q129 635 141 635Q184 635 277 640V636Q277 629 275 620T269 610Q255 610 235 602T215 576Q215 569 220 554L276 376Q278 373 279 373Q284 373 286 378Q438 560 438 584Q438 596 418 603T375 610Q373 610 373 616Q373 635 380 640Q465 635
487 635Q508 635 601 640Q601 611 595 611Q586 611 556 601T513 579Q492 558 389 429T281 276L277 256H386Q390 256 390 246Q390 237 385 224T373 206H268L259 158H369Q373 158 373 148Q373 139 368 126T356 108H249Q243 76 243 53Q243 42 264 34T293 26Q295 26
295 22Q295 8 289 -4Q277 -3 257 -2T219 1T183 2Q164 2 144 1T98 -1T59 -4Q57 -2 57 3Q57 10 60 18T65 26Q75 26 97 34T125 50Q138 73 145 108H43Z" />
<glyph unicode="&#xa6;" glyph-name="brokenbar" horiz-adv-x="229" d="M162 753Q180 770 214 770Q234 770 233 762L163 399Q156 393 138 387T104 380Q99 380 95 383T92 390Q127 583 162 753ZM64 248Q83 266 116 266Q136 266 135 257L65 -106Q58 -112 40 -118T6
-124Q1 -124 -3 -122T-7 -115L64 248Z" />
<glyph unicode="&#xa7;" glyph-name="section" horiz-adv-x="386" d="M289 652Q321 652 340 640T366 614Q359 549 323 549Q314 549 306 557T293 576T276 595T251 604Q221 604 200 584T178 530Q178 503 196 482T240 444T292 411T336 366T354 304Q354 248 326 203T267
136Q269 126 269 118Q269 46 223 -3T102 -52Q69 -52 49 -41T24 -16Q26 7 37 28T67 50Q82 50 100 23T141 -5Q168 -5 190 15T212 69Q212 96 194 118T150 157T99 192T55 237T37 300Q37 345 59 389T123 464Q122 469 122 480Q122 554 169 603T289 652ZM101 357Q101 326
121 302T168 265T221 227T259 172Q290 196 290 240Q290 270 270 294T224 334T171 373T133 426Q101 400 101 357Z" />
<glyph unicode="&#xa8;" glyph-name="dieresis" horiz-adv-x="367" d="M295 593Q315 593 328 577T341 539Q341 510 321 489T273 468Q254 468 243 484T231 521Q231 550 249 571T295 593ZM105 593Q125 593 138 577T151 539Q151 510 131 489T83 468Q64 468 53 484T41
521Q41 550 59 571T105 593Z" />
<glyph unicode="&#xa9;" glyph-name="copyright" horiz-adv-x="567" d="M313 481Q357 481 400 469Q401 469 401 462Q401 416 396 401Q395 397 388 397Q382 397 376 399Q375 417 360 434T309 451Q270 451 245 404T219 305Q219 271 233 250T278 229Q313 229 331
244Q335 247 339 251T346 258T351 265T356 270L357 272Q358 272 359 272T361 273Q370 273 373 268Q372 261 363 242T346 219Q309 199 254 199Q210 199 182 230T154 309Q154 372 201 426T313 481ZM329 569Q229 569 149 486T68 295Q68 216 116 165T240 113Q340 113
420 197T501 388Q501 467 453 518T329 569ZM338 615Q429 615 487 554T545 398Q545 269 448 169T231 69Q140 69 83 130T26 286Q26 415 122 515T338 615Z" />
<glyph unicode="&#xaa;" glyph-name="ordfeminine" horiz-adv-x="348" d="M232 555Q252 555 274 551T301 543L263 342Q260 327 260 320Q260 299 275 299Q283 299 298 321L314 343Q317 343 322 338T328 326Q319 304 295 277T241 249Q204 249 198 293Q198 300 198
305T198 316T199 324V326L197 324Q180 299 150 274T93 248Q27 248 27 320Q27 393 97 474T232 555ZM217 521Q183 521 142 455T100 338Q100 294 124 294Q146 294 176 340T215 435L226 499Q228 507 228 511Q228 521 217 521Z" />
<glyph unicode="&#xab;" glyph-name="guillemotleft" horiz-adv-x="470" d="M436 423Q442 422 450 416T459 403Q459 399 457 396T437 376T382 328L291 248L349 167Q356 158 366 145T380 126T390 113T397 102T399 95Q399 81 367 73Q362 80 345 98T287 154T201 227Q196
229 196 237Q196 255 209 268Q352 350 436 423ZM261 423Q269 421 276 415T283 403Q283 399 281 396T261 376T206 328L115 248L173 167Q181 157 190 145T205 127T214 114T221 103T223 96Q223 84 191 73Q186 80 169 98T111 154T25 227Q20 230 20 237Q20 255 33 268Q91
301 147 339T230 398T261 423Z" />
<glyph unicode="&#xac;" glyph-name="logicalnot" horiz-adv-x="510" d="M52 424Q52 424 468 424Q479 424 477 412L430 166Q414 156 383 156Q377 156 372 158T368 165L404 350L405 351Q405 360 396 360H32Q32 360 29 374Q29 382 37 403T52 424Z" />
<glyph unicode="&#xae;" glyph-name="registered" horiz-adv-x="566" d="M335 636Q235 636 155 553T74 362Q74 283 122 232T246 180Q346 180 426 264T507 455Q507 534 459 585T335 636ZM344 682Q435 682 493 621T551 465Q551 336 454 236T237 136Q146 136 89 197T32
353Q32 482 128 582T344 682ZM303 530Q290 530 285 528Q280 527 278 519L263 442Q262 440 262 436Q262 427 288 427Q310 427 323 447T336 493Q336 530 303 530ZM315 554Q345 554 368 540T392 495Q392 468 375 445T332 410Q330 408 330 407V405Q338 375 359 337Q385
287 410 287Q410 280 407 274Q404 272 392 272Q352 272 334 287T300 337Q293 352 286 371T276 396Q274 403 263 403Q255 403 254 396L238 314Q237 311 237 302Q237 296 240 294Q249 286 258 286Q259 286 259 284Q259 278 256 272Q251 272 233 274T204 276T173 274T146
272V280Q146 284 148 286Q169 290 175 298Q181 309 185 331L216 498Q221 520 221 528Q221 533 213 536T199 540Q198 540 198 544Q198 550 200 554Q234 552 252 552Q264 552 283 553T315 554Z" />
<glyph unicode="&#xaf;" glyph-name="overscore" horiz-adv-x="321" d="M68 597H284Q290 597 290 582Q290 575 284 557T269 534H55Q48 534 48 553Q48 562 54 576T68 597Z" />
<glyph unicode="&#xb0;" glyph-name="degree" horiz-adv-x="249" d="M145 594Q118 594 99 573T80 524Q80 504 91 491T123 478Q149 478 168 499T187 548Q187 568 176 581T145 594ZM153 634Q186 634 206 612T227 555Q227 509 192 473T115 437Q82 437 61 460T40 517Q40
564 76 599T153 634Z" />
<glyph unicode="&#xb1;" glyph-name="plusminus" horiz-adv-x="508" d="M19 102Q19 102 446 102Q450 102 450 88Q450 63 427 38H-1Q-5 38 -5 51Q-5 74 19 102ZM77 404Q77 404 249 404Q253 404 253 408Q259 437 269 496T286 592Q288 601 313 605T350 610Q356 610
358 608T360 602Q337 472 325 410Q323 404 328 404H505Q509 404 509 391Q509 366 485 340H313Q309 340 309 336L274 152Q273 145 253 140T216 134Q208 134 204 137T201 144L237 336Q237 340 233 340H58Q53 340 53 354Q53 376 77 404ZM19 102Q-5 74 -5 51Q-5 38
-1 38H427Q450 63 450 88Q450 102 446 102Q446 102 19 102ZM77 404Q53 376 53 354Q53 340 58 340Q58 340 233 340Q237 340 237 336Q237 336 201 144Q200 141 204 138T216 134Q232 134 252 139T274 152Q296 264 309 336Q309 340 313 340H485Q509 366 509 391Q509
404 505 404H328Q323 404 325 410Q325 410 360 602Q361 605 359 607T350 610Q338 610 313 606T286 592Q279 556 269 497T253 408Q253 404 249 404H77Z" />
<glyph unicode="&#xb2;" glyph-name="uni00B2" horiz-adv-x="316" d="M213 646Q251 646 273 623T295 562Q295 522 266 478T206 406T136 349T95 318Q94 317 94 315Q94 314 95 314H211Q229 314 241 325T259 347T270 358Q281 358 286 353Q269 323 243 254H140H19Q13
260 13 274Q13 278 17 288Q216 472 216 542Q216 562 206 576T175 590Q161 590 142 579T108 557T92 546T86 554T82 567Q82 574 85 579Q96 597 135 621T213 646Z" />
<glyph unicode="&#xb3;" glyph-name="uni00B3" horiz-adv-x="294" d="M106 282Q146 282 171 317T196 391Q196 442 141 442Q128 442 106 439Q102 447 102 454Q102 465 110 469Q139 475 160 488T189 516T201 543T205 563Q205 578 195 587T172 596Q151 596 127 578T100
559Q95 559 91 571T90 586Q111 611 145 628T214 646Q237 646 257 631T278 586Q278 552 252 524T194 478Q217 478 244 458T271 401Q271 343 216 295T80 246Q58 246 35 254T11 273Q11 288 23 302T50 316Q62 316 76 299T106 282Z" />
<glyph unicode="&#xb4;" glyph-name="acute" horiz-adv-x="239" d="M188 686Q223 686 223 664Q223 641 144 583T52 524Q48 524 45 530T41 541Q41 547 84 601T147 674Q160 686 188 686Z" />
<glyph unicode="&#xb5;" glyph-name="uni00B5" horiz-adv-x="447" d="M169 442Q178 442 198 428T216 404Q207 358 167 256L156 223Q143 164 148 121T176 77Q246 77 306 213Q306 215 319 269T344 376T356 429Q370 442 387 442Q406 440 423 427T438 404Q432 366
385 246L376 223Q360 162 362 117T394 72Q409 72 427 82T454 103Q456 103 461 92Q463 84 460 76Q445 43 416 20T360 -4Q331 -3 321 35T314 128Q277 66 240 29T160 -9Q153 -9 148 -8T139 -2T133 5T128 15T124 26T121 39T119 51T117 64T116 76Q116 73 108 34T93 -42T87
-124T104 -192Q101 -201 84 -212T55 -224Q34 -224 21 -197T8 -130Q8 -66 91 204Q94 218 100 255T106 298Q113 325 131 422Q136 428 148 435T169 442Z" />
<glyph unicode="&#xb6;" glyph-name="paragraph" horiz-adv-x="389" d="M175 274L133 53Q132 50 135 48T141 45Q148 38 159 47Q175 76 191 160Q199 187 215 284Q213 286 201 284Q197 284 187 281T175 274ZM183 652Q210 652 234 650T285 648Q313 648 340 649T382
652L395 654Q396 652 395 644T391 634Q389 633 382 629T369 621T360 614Q352 609 338 591T319 552Q316 539 309 506T296 440T285 379T279 348Q279 344 281 344L303 349Q303 348 313 347T323 344Q323 333 312 325Q306 311 287 305Q286 305 279 303T272 300Q268 286
259 237T249 178Q247 157 247 107T250 38Q251 33 265 27T279 20Q279 13 276 7Q262 6 239 3T199 -1Q132 0 67 -1Q57 0 41 6T15 12Q19 12 29 16T41 24Q43 29 46 42T53 73T61 103Q64 103 80 124T98 150Q104 164 111 218T115 274Q76 275 57 304T41 376Q25 411 43 477T102
598T183 652ZM239 596L234 573Q229 550 223 518T209 450T196 382T186 334Q186 330 193 330Q214 330 222 335Q228 337 229 342Q273 569 276 598Q276 601 271 604T260 608Q241 608 239 596Z" />
<glyph unicode="&#xb7;" glyph-name="middot" horiz-adv-x="197" d="M31 251Q31 282 54 306T107 330Q128 330 142 315T156 278Q156 247 133 222T81 196Q59 196 45 212T31 251Z" />
<glyph unicode="&#xb8;" glyph-name="cedilla" horiz-adv-x="245" d="M125 -3H152L131 -30Q149 -29 153 -29Q171 -29 182 -41T194 -73Q194 -104 164 -136T78 -168Q50 -168 37 -159Q35 -153 35 -142Q35 -132 41 -126T53 -120Q60 -120 72 -128T95 -137Q117 -137
131 -125T145 -95Q145 -84 139 -77T122 -70Q111 -70 92 -77Q90 -77 86 -71T83 -62Q86 -56 101 -35T125 -3Z" />
<glyph unicode="&#xb9;" glyph-name="uni00B9" horiz-adv-x="252" d="M56 573Q223 650 224 650Q227 650 230 641T233 628Q209 556 207 546L167 336Q163 316 163 311Q163 301 168 294Q172 289 188 285T211 280Q213 280 213 274Q213 258 207 252Q197 252 165 254T115
256T61 254T15 252Q14 253 14 257Q14 263 16 271T21 279Q30 279 49 284T73 294Q84 309 89 335L125 521Q129 549 129 552Q129 564 119 564Q113 564 61 545Q58 546 55 551T52 562Q52 571 56 573Z" />
<glyph unicode="&#xba;" glyph-name="ordmasculine" horiz-adv-x="314" d="M186 520Q159 520 131 472T102 367Q102 283 142 283Q168 283 196 333T225 437Q225 520 186 520ZM200 555Q241 555 270 521T299 443Q299 366 250 307T128 248Q86 248 58 282T29 362Q29
436 82 495T200 555Z" />
<glyph unicode="&#xbb;" glyph-name="guillemotright" horiz-adv-x="470" d="M98 423Q110 407 159 359T265 268Q269 260 269 254Q269 233 257 228Q191 189 135 151T55 93T31 73Q25 74 17 80T8 92T19 108T85 167L175 248L115 329Q67 391 67 399Q67 411 98 423ZM274
423Q280 415 301 393T362 334T441 268Q445 263 445 255Q445 233 432 228Q369 190 313 152T232 94T207 73Q201 74 193 80T184 92T195 108T261 167L351 248L292 329Q243 391 243 399Q243 415 274 423Z" />
<glyph unicode="&#xbc;" glyph-name="onequarter" horiz-adv-x="603" d="M48 573Q215 650 216 650Q219 650 222 641T225 628Q225 627 222 618T214 599T206 574T198 546L158 336Q155 321 155 311Q155 299 159 294T179 285T202 280Q205 280 205 274Q205 258 199
252Q190 252 157 254T106 256Q88 256 51 254T6 252V257Q6 279 12 279Q21 279 40 284T64 294Q75 309 80 335L116 521Q120 549 120 552Q120 564 111 564Q105 564 53 545Q50 546 47 552T43 562Q43 570 48 573ZM571 617L126 -14Q120 -14 106 -8T91 5Q91 9 93 11L538
643Q542 644 557 637T572 623Q572 618 571 617ZM543 389Q551 397 560 397Q581 397 580 390L534 161V160Q534 158 538 158H560Q567 158 567 145Q567 117 556 108H528Q526 108 524 102L503 1Q493 -4 468 -4Q461 -4 455 -4T444 -2T436 0T432 2T430 4L449 104L450 105Q450
108 446 108H304Q297 115 298 132L543 389ZM372 158H454Q459 158 460 162L484 276Q484 282 482 282L480 281L370 165Q369 164 369 162Q369 158 372 158Z" />
<glyph unicode="&#xbd;" glyph-name="onehalf" horiz-adv-x="662" d="M518 393T556 393T616 370T639 309Q639 269 610 225T550 153T480 96T439 65T437 61T439 59H555Q573 59 585 70T603 93T613 104Q627 104 630 100Q614 72 587 0L483 1Q365 0 363 0Q356 7 356
21Q356 24 360 34Q560 219 560 288Q560 308 550 322T518 337Q504 337 485 326T452 303T436 292T430 300T426 314Q426 322 429 326Q440 345 479 369ZM48 573Q215 650 216 650Q219 650 222 641T225 628Q225 627 222 618T214 599T206 574T198 546L158 336Q155 321
155 311Q155 299 159 294T179 285T202 280Q205 280 205 274Q205 258 199 252Q190 252 157 254T106 256Q88 256 51 254T6 252V257Q6 279 12 279Q21 279 40 284T64 294Q75 309 80 335L116 521Q120 549 120 552Q120 564 111 564Q105 564 53 545Q50 546 47 552T43 562Q43
570 48 573ZM571 617L126 -14Q120 -14 106 -8T91 5Q91 9 93 11L538 643Q542 644 557 637T572 623Q572 618 571 617Z" />
<glyph unicode="&#xbe;" glyph-name="threequarters" horiz-adv-x="618" d="M100 282Q140 282 165 317T190 391Q190 442 135 442Q122 442 100 439Q96 447 96 454Q96 465 104 469Q133 475 154 488T183 516T195 543T199 563Q199 578 189 587T166 596Q145 596 121
578T94 559Q89 559 86 571T84 586Q105 611 139 628T208 646Q231 646 251 631T272 586Q272 552 246 524T188 478Q211 478 238 458T265 401Q265 343 210 295T74 246Q52 246 29 254T5 273Q5 288 16 302T43 316Q56 316 70 299T100 282ZM586 617L141 -14Q135 -14 121
-8T106 5Q106 9 108 11L553 643Q557 644 572 637T587 623Q587 618 586 617ZM558 389Q566 397 575 397Q596 397 595 390L549 161V160Q549 158 553 158H575Q582 158 582 145Q582 117 571 108H543Q541 108 539 102L518 1Q508 -4 483 -4Q476 -4 470 -4T459 -2T451 0T447
2T445 4L464 104L465 105Q465 108 461 108H319Q312 115 313 132L558 389ZM387 158H469Q474 158 475 162L499 276Q499 282 497 282L495 281L385 165Q384 164 384 162Q384 158 387 158Z" />
<glyph unicode="&#xbf;" glyph-name="questiondown" horiz-adv-x="334" d="M317 388Q317 356 294 333T243 309Q221 309 207 323T192 361Q192 392 215 417T267 442Q288 442 302 427T317 388ZM163 224Q163 235 175 242Q199 242 240 210T282 140Q282 77 227 46L117
-18Q65 -46 65 -86Q65 -111 79 -127T120 -143Q138 -143 158 -120T192 -96Q216 -96 227 -117T233 -164Q209 -209 155 -209Q93 -209 48 -169T2 -72Q2 11 61 48Q94 70 171 113Q207 133 207 164Q207 177 196 190T174 211T163 224Z" />
<glyph unicode="&#xc0;" glyph-name="Agrave" horiz-adv-x="648" d="M475 715Q455 715 375 744T295 792Q295 807 314 815T359 823Q374 823 384 818Q410 802 449 769T488 729Q488 724 484 720T475 715ZM323 231Q286 231 229 228Q225 228 223 224Q218 215 196 179T166
131Q135 79 135 60Q135 44 159 36T195 27Q197 27 197 22Q197 9 191 -3Q180 -2 152 0T99 3Q74 3 39 1T-10 -3Q-12 1 -12 4Q-12 27 -6 27Q5 27 31 37T66 58Q80 75 116 136L393 610Q424 664 445 664Q451 664 455 660L549 136Q552 120 563 63Q566 48 586 38T617 27Q619
27 619 21Q619 5 615 -3Q504 3 501 3Q490 3 376 -3Q375 -2 375 3Q375 27 381 27Q391 27 411 34T436 50Q442 62 442 80Q442 89 422 223Q422 228 417 228Q399 231 323 231ZM335 285Q364 285 407 288Q411 288 411 292Q408 312 394 395T378 492L263 290V288Q293 285
335 285Z" />
<glyph unicode="&#xc1;" glyph-name="Aacute" horiz-adv-x="648" d="M414 715Q410 715 406 720T401 730Q401 736 440 769T506 818Q516 823 530 823Q556 823 575 815T595 792Q595 774 515 745T414 715ZM323 231Q286 231 229 228Q225 228 223 224Q218 215 196 179T166
131Q135 79 135 60Q135 44 159 36T195 27Q197 27 197 22Q197 9 191 -3Q180 -2 152 0T99 3Q74 3 39 1T-10 -3Q-12 1 -12 4Q-12 27 -6 27Q5 27 31 37T66 58Q80 75 116 136L393 610Q424 664 445 664Q451 664 455 660L549 136Q552 120 563 63Q566 48 586 38T617 27Q619
27 619 21Q619 5 615 -3Q504 3 501 3Q490 3 376 -3Q375 -2 375 3Q375 27 381 27Q391 27 411 34T436 50Q442 62 442 80Q442 89 422 223Q422 228 417 228Q399 231 323 231ZM335 285Q364 285 407 288Q411 288 411 292Q408 312 394 395T378 492L263 290V288Q293 285
335 285Z" />
<glyph unicode="&#xc2;" glyph-name="Acircumflex" horiz-adv-x="648" d="M537 728Q518 728 431 788Q401 770 355 749T300 728Q288 728 294 747Q295 748 323 767T378 808Q411 833 433 855Q444 864 447 864Q455 864 460 855Q462 851 473 835T492 809Q506 792 520
778T543 756T552 747Q547 728 537 728ZM323 231Q286 231 229 228Q225 228 223 224Q218 215 196 179T166 131Q135 79 135 60Q135 44 159 36T195 27Q197 27 197 22Q197 9 191 -3Q180 -2 152 0T99 3Q74 3 39 1T-10 -3Q-12 1 -12 4Q-12 27 -6 27Q5 27 31 37T66 58Q80
75 116 136L393 610Q424 664 445 664Q451 664 455 660L549 136Q552 120 563 63Q566 48 586 38T617 27Q619 27 619 21Q619 5 615 -3Q504 3 501 3Q490 3 376 -3Q375 -2 375 3Q375 27 381 27Q391 27 411 34T436 50Q442 62 442 80Q442 89 422 223Q422 228 417 228Q399
231 323 231ZM335 285Q364 285 407 288Q411 288 411 292Q408 312 394 395T378 492L263 290V288Q293 285 335 285Z" />
<glyph unicode="&#xc3;" glyph-name="Atilde" horiz-adv-x="648" d="M276 738Q268 738 273 757Q278 778 297 801Q340 847 383 847Q416 847 462 817T541 786Q558 786 585 811T615 837Q622 837 618 817Q616 800 593 773Q554 728 509 728Q475 728 430 758T351 789Q335
789 307 764T276 738ZM323 231Q286 231 229 228Q225 228 223 224Q218 215 196 179T166 131Q135 79 135 60Q135 44 159 36T195 27Q197 27 197 22Q197 9 191 -3Q180 -2 152 0T99 3Q74 3 39 1T-10 -3Q-12 1 -12 4Q-12 27 -6 27Q5 27 31 37T66 58Q80 75 116 136L393
610Q424 664 445 664Q451 664 455 660L549 136Q552 120 563 63Q566 48 586 38T617 27Q619 27 619 21Q619 5 615 -3Q504 3 501 3Q490 3 376 -3Q375 -2 375 3Q375 27 381 27Q391 27 411 34T436 50Q442 62 442 80Q442 89 422 223Q422 228 417 228Q399 231 323 231ZM335
285Q364 285 407 288Q411 288 411 292Q408 312 394 395T378 492L263 290V288Q293 285 335 285Z" />
<glyph unicode="&#xc4;" glyph-name="Adieresis" horiz-adv-x="648" d="M500 790Q504 815 525 833T570 852T607 834T616 790Q612 765 591 747T546 728T509 746T500 790ZM305 764T310 790T335 834T379 852T417 834T426 790Q422 765 401 747T355 728T318 746ZM323
231Q286 231 229 228Q225 228 223 224Q218 215 196 179T166 131Q135 79 135 60Q135 44 159 36T195 27Q197 27 197 22Q197 9 191 -3Q180 -2 152 0T99 3Q74 3 39 1T-10 -3Q-12 1 -12 4Q-12 27 -6 27Q5 27 31 37T66 58Q80 75 116 136L393 610Q424 664 445 664Q451
664 455 660L549 136Q552 120 563 63Q566 48 586 38T617 27Q619 27 619 21Q619 5 615 -3Q504 3 501 3Q490 3 376 -3Q375 -2 375 3Q375 27 381 27Q391 27 411 34T436 50Q442 62 442 80Q442 89 422 223Q422 228 417 228Q399 231 323 231ZM335 285Q364 285 407 288Q411
288 411 292Q408 312 394 395T378 492L263 290V288Q293 285 335 285Z" />
<glyph unicode="&#xc5;" glyph-name="Aring" horiz-adv-x="648" d="M464 817Q437 817 418 796T399 747Q399 727 410 714T442 701Q468 701 487 722T506 771Q506 791 495 804T464 817ZM472 857Q505 857 525 835T546 778Q546 732 511 696T434 660Q401 660 380 683T359
740Q359 787 395 822T472 857ZM323 231Q286 231 229 228Q225 228 223 224Q218 215 196 179T166 131Q135 79 135 60Q135 44 159 36T195 27Q197 27 197 22Q197 9 191 -3Q180 -2 152 0T99 3Q74 3 39 1T-10 -3Q-12 1 -12 4Q-12 27 -6 27Q5 27 31 37T66 58Q80 75 116
136L393 610Q424 664 445 664Q451 664 455 660L549 136Q552 120 563 63Q566 48 586 38T617 27Q619 27 619 21Q619 5 615 -3Q504 3 501 3Q490 3 376 -3Q375 -2 375 3Q375 27 381 27Q391 27 411 34T436 50Q442 62 442 80Q442 89 422 223Q422 228 417 228Q399 231
323 231ZM335 285Q364 285 407 288Q411 288 411 292Q408 312 394 395T378 492L263 290V288Q293 285 335 285Z" />
<glyph unicode="&#xc6;" glyph-name="AE" horiz-adv-x="873" d="M553 657Q594 657 703 660T865 664Q864 648 863 619T860 567T859 523Q854 518 839 518Q827 518 827 525Q823 572 795 592T730 613H675Q607 613 603 600Q595 574 589 512L573 358V357Q573 350 609
350H650Q704 350 716 358T747 416Q750 423 763 423Q777 423 780 418Q775 397 768 329T758 228Q754 224 740 224Q728 224 727 231Q726 242 725 250T723 263T721 273T719 280T716 285T714 287T710 290L708 292Q697 300 622 300Q568 300 567 290L553 148Q547 83 549
66T611 49H631Q698 49 744 72Q779 90 815 166Q818 172 830 172Q850 172 854 166Q798 49 780 -3Q728 -3 627 -1T485 2L357 -4Q355 0 355 8Q355 15 358 23T363 32Q374 32 397 38T425 52Q436 74 442 134Q442 137 452 246Q454 252 446 252Q416 254 369 254Q349 254
289 252Q285 252 281 248Q220 163 193 131Q189 125 182 116T171 102T163 90T155 79T150 70T146 62T145 55Q145 46 155 40Q179 27 203 27Q204 27 204 24Q204 9 196 -4Q187 -3 155 -1T99 2Q74 2 38 0T-11 -4Q-13 0 -13 6Q-13 11 -10 18T-5 26Q6 26 30 34T67 56Q94
83 135 136L449 540Q487 582 489 600Q490 613 482 618T461 624Q456 624 456 632Q456 653 464 658H480Q496 658 517 658T553 657ZM483 508Q357 349 331 312V308Q349 306 392 306Q431 306 456 308Q457 308 459 310T461 313L483 508Z" />
<glyph unicode="&#xc7;" glyph-name="Ccedilla" horiz-adv-x="610" d="M274 -30Q274 -30 298 -30Q320 -30 332 -47T340 -88Q332 -129 299 -154T218 -179Q191 -179 176 -164Q176 -158 178 -146Q182 -130 192 -130Q196 -130 210 -138T236 -146Q258 -146 271 -136T288
-110Q291 -94 285 -84T266 -73Q250 -73 233 -80Q231 -80 227 -74T224 -64Q232 -53 249 -28T268 -1H297L274 -30ZM404 667Q489 667 614 630Q614 624 607 563T598 494Q595 479 573 479Q564 479 560 482Q559 500 554 518T534 562T484 602T398 618Q298 618 221 509T143
253Q143 160 187 101T317 42Q400 42 453 76Q474 90 491 111T516 146T525 160Q529 160 538 154T549 142Q548 140 539 115T520 68T505 40Q483 19 424 7T299 -6Q174 -6 100 72T25 263Q25 362 78 456T220 608T404 667Z" />
<glyph unicode="&#xc8;" glyph-name="Egrave" horiz-adv-x="544" d="M409 715Q389 715 309 744T229 792Q229 807 248 815T293 823Q308 823 318 818Q344 802 383 769T422 729Q422 724 418 720T409 715ZM240 658Q286 657 389 660T538 664Q536 642 536 599Q536 586
536 561T537 522Q532 517 517 517Q505 517 505 524Q493 613 400 613H355Q290 613 286 600Q270 555 266 528L236 363Q236 361 238 360T247 358T259 357T274 356H336Q381 356 392 365T425 422Q428 430 440 430Q453 430 457 424L421 234Q417 230 403 230Q391 230 390
238Q388 285 376 297Q366 306 290 306Q224 306 222 298L193 146Q184 103 184 74Q184 57 192 53T244 49H279Q352 49 394 70Q410 78 434 104T476 166Q479 172 490 172Q510 172 514 166Q440 23 431 -3Q378 -3 266 -1T115 2L-6 -3Q-8 -1 -8 6Q-8 27 -1 27Q9 27 33 35T62
52Q76 82 86 138L160 518Q172 579 170 603Q169 611 148 621T116 632Q115 632 115 636Q115 656 121 662Q178 658 240 658Z" />
<glyph unicode="&#xc9;" glyph-name="Eacute" horiz-adv-x="544" d="M309 715Q305 715 301 720T296 730Q296 736 335 769T401 818Q411 823 425 823Q451 823 470 815T490 792Q490 774 410 745T309 715ZM240 658Q286 657 389 660T538 664Q536 642 536 599Q536 586
536 561T537 522Q532 517 517 517Q505 517 505 524Q493 613 400 613H355Q290 613 286 600Q270 555 266 528L236 363Q236 361 238 360T247 358T259 357T274 356H336Q381 356 392 365T425 422Q428 430 440 430Q453 430 457 424L421 234Q417 230 403 230Q391 230 390
238Q388 285 376 297Q366 306 290 306Q224 306 222 298L193 146Q184 103 184 74Q184 57 192 53T244 49H279Q352 49 394 70Q410 78 434 104T476 166Q479 172 490 172Q510 172 514 166Q440 23 431 -3Q378 -3 266 -1T115 2L-6 -3Q-8 -1 -8 6Q-8 27 -1 27Q9 27 33 35T62
52Q76 82 86 138L160 518Q172 579 170 603Q169 611 148 621T116 632Q115 632 115 636Q115 656 121 662Q178 658 240 658Z" />
<glyph unicode="&#xca;" glyph-name="Ecircumflex" horiz-adv-x="544" d="M470 728Q451 728 364 788Q334 770 288 749T233 728Q221 728 227 747Q228 748 256 767T311 808Q344 833 366 855Q377 864 380 864Q388 864 393 855Q395 851 406 835T425 809Q439 792 453
778T476 756T485 747Q480 728 470 728ZM240 658Q286 657 389 660T538 664Q536 642 536 599Q536 586 536 561T537 522Q532 517 517 517Q505 517 505 524Q493 613 400 613H355Q290 613 286 600Q270 555 266 528L236 363Q236 361 238 360T247 358T259 357T274 356H336Q381
356 392 365T425 422Q428 430 440 430Q453 430 457 424L421 234Q417 230 403 230Q391 230 390 238Q388 285 376 297Q366 306 290 306Q224 306 222 298L193 146Q184 103 184 74Q184 57 192 53T244 49H279Q352 49 394 70Q410 78 434 104T476 166Q479 172 490 172Q510
172 514 166Q440 23 431 -3Q378 -3 266 -1T115 2L-6 -3Q-8 -1 -8 6Q-8 27 -1 27Q9 27 33 35T62 52Q76 82 86 138L160 518Q172 579 170 603Q169 611 148 621T116 632Q115 632 115 636Q115 656 121 662Q178 658 240 658Z" />
<glyph unicode="&#xcb;" glyph-name="Edieresis" horiz-adv-x="544" d="M401 790Q405 815 426 833T471 852T508 834T517 790Q513 765 492 747T447 728T410 746T401 790ZM206 764T211 790T236 834T280 852T318 834T327 790Q323 765 302 747T256 728T219 746ZM240
658Q286 657 389 660T538 664Q536 642 536 599Q536 586 536 561T537 522Q532 517 517 517Q505 517 505 524Q493 613 400 613H355Q290 613 286 600Q270 555 266 528L236 363Q236 361 238 360T247 358T259 357T274 356H336Q381 356 392 365T425 422Q428 430 440 430Q453
430 457 424L421 234Q417 230 403 230Q391 230 390 238Q388 285 376 297Q366 306 290 306Q224 306 222 298L193 146Q184 103 184 74Q184 57 192 53T244 49H279Q352 49 394 70Q410 78 434 104T476 166Q479 172 490 172Q510 172 514 166Q440 23 431 -3Q378 -3 266
-1T115 2L-6 -3Q-8 -1 -8 6Q-8 27 -1 27Q9 27 33 35T62 52Q76 82 86 138L160 518Q172 579 170 603Q169 611 148 621T116 632Q115 632 115 636Q115 656 121 662Q178 658 240 658Z" />
<glyph unicode="&#xcc;" glyph-name="Igrave" horiz-adv-x="350" d="M318 715Q298 715 218 744T138 792Q138 807 157 815T202 823Q217 823 227 818Q253 802 292 769T331 729Q331 724 327 720T318 715ZM264 519L191 139Q180 78 180 54Q180 43 201 35T232 27Q234
27 234 22Q234 9 227 -3Q116 3 112 3Q87 3 45 0T-6 -3Q-8 -1 -8 4Q-8 27 -2 27Q10 27 32 33T60 49Q76 80 86 138L160 520Q170 572 170 602Q170 615 150 623T118 632Q116 632 116 636Q116 655 123 662Q228 657 238 657Q262 657 357 662V658Q357 632 350 632Q342
632 318 624T289 608Q279 586 264 519Z" />
<glyph unicode="&#xcd;" glyph-name="Iacute" horiz-adv-x="350" d="M186 715Q182 715 178 720T173 730Q173 736 212 769T278 818Q288 823 302 823Q328 823 347 815T367 792Q367 774 287 745T186 715ZM264 519L191 139Q180 78 180 54Q180 43 201 35T232 27Q234
27 234 22Q234 9 227 -3Q116 3 112 3Q87 3 45 0T-6 -3Q-8 -1 -8 4Q-8 27 -2 27Q10 27 32 33T60 49Q76 80 86 138L160 520Q170 572 170 602Q170 615 150 623T118 632Q116 632 116 636Q116 655 123 662Q228 657 238 657Q262 657 357 662V658Q357 632 350 632Q342
632 318 624T289 608Q279 586 264 519Z" />
<glyph unicode="&#xce;" glyph-name="Icircumflex" horiz-adv-x="350" d="M367 728Q348 728 261 788Q231 770 185 749T130 728Q118 728 124 747Q125 748 153 767T208 808Q241 833 263 855Q274 864 277 864Q285 864 290 855Q292 851 303 835T322 809Q336 792 350
778T373 756T382 747Q377 728 367 728ZM264 519L191 139Q180 78 180 54Q180 43 201 35T232 27Q234 27 234 22Q234 9 227 -3Q116 3 112 3Q87 3 45 0T-6 -3Q-8 -1 -8 4Q-8 27 -2 27Q10 27 32 33T60 49Q76 80 86 138L160 520Q170 572 170 602Q170 615 150 623T118
632Q116 632 116 636Q116 655 123 662Q228 657 238 657Q262 657 357 662V658Q357 632 350 632Q342 632 318 624T289 608Q279 586 264 519Z" />
<glyph unicode="&#xcf;" glyph-name="Idieresis" horiz-adv-x="350" d="M295 790Q299 815 320 833T365 852T402 834T411 790Q407 765 386 747T341 728T304 746T295 790ZM100 764T105 790T130 834T174 852T212 834T221 790Q217 765 196 747T150 728T113 746ZM264
519L191 139Q180 78 180 54Q180 43 201 35T232 27Q234 27 234 22Q234 9 227 -3Q116 3 112 3Q87 3 45 0T-6 -3Q-8 -1 -8 4Q-8 27 -2 27Q10 27 32 33T60 49Q76 80 86 138L160 520Q170 572 170 602Q170 615 150 623T118 632Q116 632 116 636Q116 655 123 662Q228 657
238 657Q262 657 357 662V658Q357 632 350 632Q342 632 318 624T289 608Q279 586 264 519Z" />
<glyph unicode="&#xd0;" glyph-name="Eth" horiz-adv-x="690" d="M403 608Q309 608 295 592Q277 570 270 522L239 366H354Q360 366 360 351Q360 338 352 321T338 298H226L196 138Q183 73 192 64Q205 48 302 48Q403 48 470 139T552 377Q562 477 525 542T403 608ZM407
658Q538 658 605 586T672 404Q672 336 646 266T571 135T446 36T277 -3Q259 -3 206 -1T119 2L-2 -4Q-4 -2 -4 6Q-4 13 -1 22T4 32Q16 32 39 38T66 52Q80 82 90 138L121 298H53Q47 298 47 312Q47 325 55 343T69 366H134L164 518Q176 579 174 603Q173 611 152 619T120
628Q119 628 119 632Q119 653 128 662Q182 658 244 658H407Z" />
<glyph unicode="&#xd1;" glyph-name="Ntilde" horiz-adv-x="763" d="M264 738Q256 738 261 757Q266 778 285 801Q328 847 371 847Q404 847 450 817T529 786Q546 786 573 811T603 837Q610 837 606 817Q604 800 581 773Q542 728 497 728Q463 728 418 758T339 789Q323
789 295 764T264 738ZM243 658Q296 658 336 662Q339 649 345 633T360 594T378 552T402 502T426 451T454 395T482 340T511 282T539 227Q544 240 549 268L597 518Q607 576 607 592T577 620T531 632Q529 632 529 638Q529 657 536 662Q620 658 653 658Q694 658 770
662Q770 632 763 632Q752 632 722 623T679 600Q664 577 653 518L578 138Q571 105 564 53T555 -2Q551 -6 537 -6Q526 -6 512 16Q299 442 251 552L169 141Q159 91 159 69Q159 49 189 38T233 27Q235 27 235 22Q235 9 229 -3Q136 2 113 2Q102 2 -5 -3Q-7 1 -7 5Q-7
10 -6 15T-3 23T0 27Q15 27 46 36T88 60Q99 79 113 144L189 526Q197 566 197 601Q197 615 170 623T127 632Q124 632 124 638Q124 657 131 662Q211 658 243 658Z" />
<glyph unicode="&#xd2;" glyph-name="Ograve" horiz-adv-x="656" d="M430 715Q410 715 330 744T250 792Q250 807 269 815T314 823Q329 823 339 818Q365 802 404 769T443 729Q443 724 439 720T430 715ZM374 618Q280 618 212 509T144 252Q144 160 181 100T290 40Q359
40 413 104T494 252T520 415Q520 504 484 561T374 618ZM398 667Q502 667 570 592T638 404Q638 298 585 202T446 48T264 -10Q158 -10 92 66T26 258Q26 362 80 457T221 610T398 667Z" />
<glyph unicode="&#xd3;" glyph-name="Oacute" horiz-adv-x="656" d="M325 715Q321 715 317 720T312 730Q312 736 351 769T417 818Q427 823 441 823Q467 823 486 815T506 792Q506 774 426 745T325 715ZM374 618Q280 618 212 509T144 252Q144 160 181 100T290 40Q359
40 413 104T494 252T520 415Q520 504 484 561T374 618ZM398 667Q502 667 570 592T638 404Q638 298 585 202T446 48T264 -10Q158 -10 92 66T26 258Q26 362 80 457T221 610T398 667Z" />
<glyph unicode="&#xd4;" glyph-name="Ocircumflex" horiz-adv-x="656" d="M515 728Q496 728 409 788Q379 770 333 749T278 728Q266 728 272 747Q273 748 301 767T356 808Q389 833 411 855Q422 864 425 864Q433 864 438 855Q440 851 451 835T470 809Q484 792 498
778T521 756T530 747Q525 728 515 728ZM374 618Q280 618 212 509T144 252Q144 160 181 100T290 40Q359 40 413 104T494 252T520 415Q520 504 484 561T374 618ZM398 667Q502 667 570 592T638 404Q638 298 585 202T446 48T264 -10Q158 -10 92 66T26 258Q26 362 80
457T221 610T398 667Z" />
<glyph unicode="&#xd5;" glyph-name="Otilde" horiz-adv-x="656" d="M243 738Q235 738 240 757Q245 778 264 801Q307 847 350 847Q383 847 429 817T508 786Q525 786 552 811T582 837Q589 837 585 817Q583 800 560 773Q521 728 476 728Q442 728 397 758T318 789Q302
789 274 764T243 738ZM374 618Q280 618 212 509T144 252Q144 160 181 100T290 40Q359 40 413 104T494 252T520 415Q520 504 484 561T374 618ZM398 667Q502 667 570 592T638 404Q638 298 585 202T446 48T264 -10Q158 -10 92 66T26 258Q26 362 80 457T221 610T398
667Z" />
<glyph unicode="&#xd6;" glyph-name="Odieresis" horiz-adv-x="656" d="M455 790Q459 815 480 833T525 852T562 834T571 790Q567 765 546 747T501 728T464 746T455 790ZM260 764T265 790T290 834T334 852T372 834T381 790Q377 765 356 747T310 728T273 746ZM374
618Q280 618 212 509T144 252Q144 160 181 100T290 40Q359 40 413 104T494 252T520 415Q520 504 484 561T374 618ZM398 667Q502 667 570 592T638 404Q638 298 585 202T446 48T264 -10Q158 -10 92 66T26 258Q26 362 80 457T221 610T398 667Z" />
<glyph unicode="&#xd7;" glyph-name="multiply" horiz-adv-x="410" d="M38 57Q32 57 24 76T16 108L169 243Q171 245 171 246Q171 249 169 251L71 384Q71 394 89 415T113 436Q116 436 120 432L221 296Q223 294 225 294Q226 294 227 295L381 432Q385 436 387 436Q392
436 400 416T409 383L259 249Q258 248 258 246Q258 245 259 244L356 110Q356 100 339 79T315 58Q311 58 309 62L209 198Q207 200 205 200T201 198L45 60Q42 57 38 57Z" />
<glyph unicode="&#xd8;" glyph-name="Oslash" horiz-adv-x="656" d="M374 618Q280 618 212 509T144 252Q144 184 167 132L475 571Q438 618 374 618ZM398 667Q464 667 519 634L543 668Q547 669 562 662T577 647Q577 643 576 641L553 608Q638 531 638 404Q638 298
585 202T446 48T264 -10Q197 -10 141 25L120 -5Q113 -5 99 0T85 13Q85 17 88 20L108 50Q26 126 26 258Q26 362 80 457T221 610T398 667ZM290 40Q359 40 413 104T494 252T520 415Q520 481 497 530L188 91Q225 40 290 40Z" />
<glyph unicode="&#xd9;" glyph-name="Ugrave" horiz-adv-x="667" d="M407 715Q387 715 307 744T227 792Q227 807 246 815T291 823Q306 823 316 818Q342 802 381 769T420 729Q420 724 416 720T407 715ZM90 520Q100 572 100 602Q100 615 80 623T49 632Q48 632 48
636Q48 656 54 662Q159 657 170 657Q193 657 288 662V658Q288 632 281 632Q273 632 249 624T220 608Q214 594 196 519L152 297Q142 245 142 202Q142 62 264 62Q340 62 390 107T464 272L510 514Q524 585 523 606Q522 618 493 625T448 632Q447 632 447 638Q447 655
454 662Q538 658 561 658Q599 658 675 662Q675 632 668 632Q658 632 626 625T589 612Q581 595 564 514L518 276Q488 119 418 59T230 -2Q140 -2 88 49T36 203Q36 241 48 304L90 520Z" />
<glyph unicode="&#xda;" glyph-name="Uacute" horiz-adv-x="667" d="M268 715Q264 715 260 720T255 730Q255 736 294 769T360 818Q370 823 384 823Q410 823 429 815T449 792Q449 774 369 745T268 715ZM90 520Q100 572 100 602Q100 615 80 623T49 632Q48 632 48
636Q48 656 54 662Q159 657 170 657Q193 657 288 662V658Q288 632 281 632Q273 632 249 624T220 608Q214 594 196 519L152 297Q142 245 142 202Q142 62 264 62Q340 62 390 107T464 272L510 514Q524 585 523 606Q522 618 493 625T448 632Q447 632 447 638Q447 655
454 662Q538 658 561 658Q599 658 675 662Q675 632 668 632Q658 632 626 625T589 612Q581 595 564 514L518 276Q488 119 418 59T230 -2Q140 -2 88 49T36 203Q36 241 48 304L90 520Z" />
<glyph unicode="&#xdb;" glyph-name="Ucircumflex" horiz-adv-x="667" d="M483 728Q464 728 377 788Q347 770 301 749T246 728Q234 728 240 747Q241 748 269 767T324 808Q357 833 379 855Q390 864 393 864Q401 864 406 855Q408 851 419 835T438 809Q452 792 466
778T489 756T498 747Q493 728 483 728ZM90 520Q100 572 100 602Q100 615 80 623T49 632Q48 632 48 636Q48 656 54 662Q159 657 170 657Q193 657 288 662V658Q288 632 281 632Q273 632 249 624T220 608Q214 594 196 519L152 297Q142 245 142 202Q142 62 264 62Q340
62 390 107T464 272L510 514Q524 585 523 606Q522 618 493 625T448 632Q447 632 447 638Q447 655 454 662Q538 658 561 658Q599 658 675 662Q675 632 668 632Q658 632 626 625T589 612Q581 595 564 514L518 276Q488 119 418 59T230 -2Q140 -2 88 49T36 203Q36 241
48 304L90 520Z" />
<glyph unicode="&#xdc;" glyph-name="Udieresis" horiz-adv-x="667" d="M402 790Q406 815 427 833T472 852T509 834T518 790Q514 765 493 747T448 728T411 746T402 790ZM207 764T212 790T237 834T281 852T319 834T328 790Q324 765 303 747T257 728T220 746ZM90
520Q100 572 100 602Q100 615 80 623T49 632Q48 632 48 636Q48 656 54 662Q159 657 170 657Q193 657 288 662V658Q288 632 281 632Q273 632 249 624T220 608Q214 594 196 519L152 297Q142 245 142 202Q142 62 264 62Q340 62 390 107T464 272L510 514Q524 585 523
606Q522 618 493 625T448 632Q447 632 447 638Q447 655 454 662Q538 658 561 658Q599 658 675 662Q675 632 668 632Q658 632 626 625T589 612Q581 595 564 514L518 276Q488 119 418 59T230 -2Q140 -2 88 49T36 203Q36 241 48 304L90 520Z" />
<glyph unicode="&#xdd;" glyph-name="Yacute" horiz-adv-x="592" d="M280 715Q276 715 272 720T267 730Q267 736 306 769T372 818Q382 823 396 823Q422 823 441 815T461 792Q461 774 381 745T280 715ZM197 654Q212 654 326 660Q326 659 326 653Q326 645 324 637T318
628Q304 628 283 620T260 596Q259 587 263 574L330 379Q336 387 365 425T409 483T447 532T479 579T490 602Q491 613 474 620T432 628Q430 628 430 636Q430 654 437 660Q530 654 539 654Q554 654 652 660Q653 655 652 648Q651 628 645 628Q632 628 606 619T564 595Q544
573 443 440T340 294L310 142Q300 89 300 54Q301 44 323 36T353 28Q356 28 354 17Q353 4 349 -4Q347 -3 302 0T233 3Q208 3 164 0T109 -4Q107 -1 108 8Q110 28 115 28Q126 28 151 36T180 52Q193 76 204 138L234 294Q235 299 216 360T176 482L156 541Q139 594 118
610Q109 616 93 622T67 628Q65 628 65 635Q65 654 73 660Q83 660 126 657T197 654Z" />
<glyph unicode="&#xde;" glyph-name="Thorn" horiz-adv-x="520" d="M337 524Q414 524 462 475T503 352Q496 267 424 206T263 144Q241 144 221 148T198 152Q195 152 193 148Q191 142 191 138Q181 94 181 52Q181 42 202 35T231 27Q233 27 233 17Q233 9 227 -3Q116
3 113 3Q88 3 46 0T-6 -3Q-7 -1 -7 8Q-7 27 -1 27Q13 27 34 32T61 50Q76 85 85 138L160 520Q171 579 169 606Q168 615 148 623T117 632Q116 632 116 641Q116 655 123 662Q228 657 241 657Q262 657 357 662V652Q357 632 350 632Q342 632 317 624T289 608Q280 588
266 525Q266 520 269 520Q271 520 281 521T307 523T337 524ZM319 481Q283 481 270 477T252 454L206 218Q205 216 206 214T207 209Q207 190 282 190Q324 190 358 234T397 335Q404 396 385 438T319 481Z" />
<glyph unicode="&#xdf;" glyph-name="germandbls" horiz-adv-x="565" d="M411 695Q472 695 517 663T556 573Q553 544 542 520T511 478T480 451T447 430Q444 428 434 422T421 414T409 406T398 396T391 386T385 372T383 356Q383 321 442 276Q482 244 503 216T525
148Q525 91 482 44T378 -4Q331 -4 294 10T252 39Q259 115 300 115Q315 115 325 104T340 79T355 54T382 42Q404 42 417 59T434 93T437 122T433 146T420 168T405 185T384 204T365 220Q363 221 353 230T341 242T330 253T320 267T313 280T308 297T306 315Q306 326 308
336T311 354T319 370T328 383T342 397T356 410T374 425T393 440Q454 489 463 569T386 649Q318 649 284 474L199 34Q149 -226 -6 -226Q-41 -226 -64 -213T-92 -185Q-87 -108 -43 -108Q-31 -108 -23 -119T-12 -143T1 -168T24 -179Q65 -179 100 -4Q101 2 102 5L170
358V360L171 362Q171 366 167 366H105Q101 366 101 373Q101 382 118 400T154 418H177Q181 418 184 431Q205 541 266 618T411 695Z" />
<glyph unicode="&#xe0;" glyph-name="agrave" horiz-adv-x="450" d="M346 504Q330 504 257 547T184 614Q184 628 201 639T237 651Q247 651 254 646Q271 630 315 580T359 524Q359 518 355 511T346 504ZM337 442Q386 442 420 424L361 117Q358 108 358 93Q358 68
368 68Q378 68 395 81T422 106T438 122Q440 122 447 113T454 99Q443 75 392 34T304 -7Q285 -7 273 7T260 46Q260 57 264 79Q267 95 268 100Q259 84 248 69T220 35T183 5T142 -6Q93 -6 65 34T36 135Q36 205 77 276T190 394T337 442ZM287 387Q230 387 183 301T135
138Q135 60 176 60Q210 60 248 132T302 281L321 377Q312 387 287 387Z" />
<glyph unicode="&#xe1;" glyph-name="aacute" horiz-adv-x="450" d="M236 504Q233 504 229 510T225 520Q225 526 267 575T335 646Q343 650 355 650Q373 650 387 640T401 616Q401 592 326 548T236 504ZM337 442Q386 442 420 424L361 117Q358 108 358 93Q358 68
368 68Q378 68 395 81T422 106T438 122Q440 122 447 113T454 99Q443 75 392 34T304 -7Q285 -7 273 7T260 46Q260 57 264 79Q267 95 268 100Q259 84 248 69T220 35T183 5T142 -6Q93 -6 65 34T36 135Q36 205 77 276T190 394T337 442ZM287 387Q230 387 183 301T135
138Q135 60 176 60Q210 60 248 132T302 281L321 377Q312 387 287 387Z" />
<glyph unicode="&#xe2;" glyph-name="acircumflex" horiz-adv-x="450" d="M379 760Q372 760 342 783T292 826Q267 807 228 784T181 760Q177 760 176 768T176 781Q178 783 187 791T212 813T245 845Q277 877 295 900Q305 910 309 910Q312 910 317 900Q334 867 343
852Q354 834 366 817T384 792T392 781Q387 760 379 760ZM337 442Q386 442 420 424L361 117Q358 108 358 93Q358 68 368 68Q378 68 395 81T422 106T438 122Q440 122 447 113T454 99Q443 75 392 34T304 -7Q285 -7 273 7T260 46Q260 57 264 79Q267 95 268 100Q259
84 248 69T220 35T183 5T142 -6Q93 -6 65 34T36 135Q36 205 77 276T190 394T337 442ZM287 387Q230 387 183 301T135 138Q135 60 176 60Q210 60 248 132T302 281L321 377Q312 387 287 387Z" />
<glyph unicode="&#xe3;" glyph-name="atilde" horiz-adv-x="450" d="M241 856Q269 856 307 828T374 799Q388 799 412 822L436 845Q442 845 442 833Q442 814 411 780T347 745Q318 745 280 773T212 801Q199 801 175 777T149 753Q144 753 144 766Q144 791 176 823T241
856ZM337 442Q386 442 420 424L361 117Q358 108 358 93Q358 68 368 68Q378 68 395 81T422 106T438 122Q440 122 447 113T454 99Q443 75 392 34T304 -7Q285 -7 273 7T260 46Q260 57 264 79Q267 95 268 100Q259 84 248 69T220 35T183 5T142 -6Q93 -6 65 34T36 135Q36
205 77 276T190 394T337 442ZM287 387Q230 387 183 301T135 138Q135 60 176 60Q210 60 248 132T302 281L321 377Q312 387 287 387Z" />
<glyph unicode="&#xe4;" glyph-name="adieresis" horiz-adv-x="450" d="M378 628Q398 628 411 612T424 574Q424 545 404 524T356 503Q337 503 326 519T314 556Q314 585 332 606T378 628ZM188 628Q208 628 221 612T234 574Q234 545 214 524T166 503Q147 503 136
519T124 556Q124 585 142 606T188 628ZM337 442Q386 442 420 424L361 117Q358 108 358 93Q358 68 368 68Q378 68 395 81T422 106T438 122Q440 122 447 113T454 99Q443 75 392 34T304 -7Q285 -7 273 7T260 46Q260 57 264 79Q267 95 268 100Q259 84 248 69T220 35T183
5T142 -6Q93 -6 65 34T36 135Q36 205 77 276T190 394T337 442ZM287 387Q230 387 183 301T135 138Q135 60 176 60Q210 60 248 132T302 281L321 377Q312 387 287 387Z" />
<glyph unicode="&#xe5;" glyph-name="aring" horiz-adv-x="450" d="M331 660Q304 660 285 639T266 590Q266 570 277 557T309 544Q335 544 354 565T373 614Q373 634 362 647T331 660ZM339 700Q372 700 392 678T413 621Q413 575 378 539T301 503Q268 503 247 526T226
583Q226 630 262 665T339 700ZM337 442Q386 442 420 424L361 117Q358 108 358 93Q358 68 368 68Q378 68 395 81T422 106T438 122Q440 122 447 113T454 99Q443 75 392 34T304 -7Q285 -7 273 7T260 46Q260 57 264 79Q267 95 268 100Q259 84 248 69T220 35T183 5T142
-6Q93 -6 65 34T36 135Q36 205 77 276T190 394T337 442ZM287 387Q230 387 183 301T135 138Q135 60 176 60Q210 60 248 132T302 281L321 377Q312 387 287 387Z" />
<glyph unicode="&#xe6;" glyph-name="ae" horiz-adv-x="577" d="M453 394Q428 394 400 370T358 315Q344 282 344 256Q344 252 349 252Q393 252 435 282T477 354Q477 394 453 394ZM477 442Q521 442 545 415T569 355Q569 311 524 274T429 220T345 202Q337 202 337
187Q337 120 360 88T415 56Q434 56 455 73T491 108T507 126Q509 125 515 115T521 100Q513 76 469 35T377 -6Q338 -6 308 15T261 68Q219 -8 129 -8Q82 -8 50 17T17 83Q17 107 25 127T50 163T82 189T124 209T164 223T206 235T240 243Q249 246 251 258L263 324Q266
334 266 349Q266 368 256 381T229 394Q205 394 183 371T154 311Q151 297 136 289T101 280Q67 280 67 306Q67 347 132 395T262 443Q329 443 347 393Q407 442 477 442ZM227 128L238 189Q116 164 116 99Q116 59 157 59Q183 59 202 80T227 128Z" />
<glyph unicode="&#xe7;" glyph-name="ccedilla" horiz-adv-x="348" d="M125 -1H152L131 -28Q149 -27 153 -27Q171 -27 182 -39T194 -71Q194 -102 164 -134T78 -166Q50 -166 37 -157Q35 -151 35 -140Q35 -130 41 -124T53 -118Q60 -118 72 -126T95 -135Q117 -135
131 -123T145 -93Q145 -82 139 -75T122 -68Q111 -68 92 -75Q90 -75 86 -69T83 -60Q86 -54 101 -33T125 -1ZM264 442Q323 442 364 402Q368 386 368 376Q368 354 357 339T328 324Q314 324 304 335T290 359T276 383T252 394Q226 394 198 362T151 275T132 166Q132 62
196 62Q218 62 242 76T276 100T294 118Q296 118 303 109T310 95Q297 69 250 32T158 -6Q95 -6 64 36T32 151Q32 219 65 287T153 398T264 442Z" />
<glyph unicode="&#xe8;" glyph-name="egrave" horiz-adv-x="356" d="M295 760Q279 760 206 803T133 870Q133 884 150 895T186 907Q196 907 203 902Q220 886 264 836T308 780Q308 774 304 767T295 760ZM268 442Q316 442 345 418T375 358Q375 311 328 268T226 203T140
181Q136 181 136 158Q136 62 200 62Q222 62 246 76T280 100T298 118Q300 118 307 109T314 95Q301 69 254 32T162 -6Q100 -6 68 35T36 152Q36 219 69 286T157 398T268 442ZM258 394Q222 394 184 334T145 228Q145 224 149 224Q190 224 236 269T282 360Q282 375 276
384T258 394Z" />
<glyph unicode="&#xe9;" glyph-name="eacute" horiz-adv-x="356" d="M216 504Q213 504 209 510T205 520Q205 526 247 575T315 646Q323 650 335 650Q353 650 367 640T381 616Q381 592 306 548T216 504ZM268 442Q316 442 345 418T375 358Q375 311 328 268T226 203T140
181Q136 181 136 158Q136 62 200 62Q222 62 246 76T280 100T298 118Q300 118 307 109T314 95Q301 69 254 32T162 -6Q100 -6 68 35T36 152Q36 219 69 286T157 398T268 442ZM258 394Q222 394 184 334T145 228Q145 224 149 224Q190 224 236 269T282 360Q282 375 276
384T258 394Z" />
<glyph unicode="&#xea;" glyph-name="ecircumflex" horiz-adv-x="356" d="M332 760Q325 760 295 783T245 826Q220 807 181 784T134 760Q130 760 129 768T129 781Q131 783 140 791T165 813T198 845Q230 877 248 900Q258 910 262 910Q265 910 270 900Q287 867 296
852Q307 834 319 817T337 792T345 781Q340 760 332 760ZM268 442Q316 442 345 418T375 358Q375 311 328 268T226 203T140 181Q136 181 136 158Q136 62 200 62Q222 62 246 76T280 100T298 118Q300 118 307 109T314 95Q301 69 254 32T162 -6Q100 -6 68 35T36 152Q36
219 69 286T157 398T268 442ZM258 394Q222 394 184 334T145 228Q145 224 149 224Q190 224 236 269T282 360Q282 375 276 384T258 394Z" />
<glyph unicode="&#xeb;" glyph-name="edieresis" horiz-adv-x="356" d="M324 628Q344 628 357 612T370 574Q370 545 350 524T302 503Q283 503 272 519T260 556Q260 585 278 606T324 628ZM134 628Q154 628 167 612T180 574Q180 545 160 524T112 503Q93 503 82 519T70
556Q70 585 88 606T134 628ZM268 442Q316 442 345 418T375 358Q375 311 328 268T226 203T140 181Q136 181 136 158Q136 62 200 62Q222 62 246 76T280 100T298 118Q300 118 307 109T314 95Q301 69 254 32T162 -6Q100 -6 68 35T36 152Q36 219 69 286T157 398T268
442ZM258 394Q222 394 184 334T145 228Q145 224 149 224Q190 224 236 269T282 360Q282 375 276 384T258 394Z" />
<glyph unicode="&#xec;" glyph-name="igrave" horiz-adv-x="279" d="M448 760Q432 760 359 803T286 870Q286 884 303 895T339 907Q349 907 356 902Q373 886 417 836T461 780Q461 774 457 767T448 760ZM144 442Q173 442 191 422T210 358Q210 332 167 117Q166 113
166 100Q166 66 186 66Q197 66 220 99L244 132Q247 132 255 123T265 106Q252 73 216 33T137 -8Q106 -8 89 14T72 77Q72 101 77 126L113 310Q116 325 116 332Q116 368 92 368Q82 368 59 335L36 302Q33 302 26 311T16 328Q29 361 65 401T144 442Z" />
<glyph unicode="&#xed;" glyph-name="iacute" horiz-adv-x="279" d="M106 760Q103 760 99 766T95 776Q95 782 137 831T205 902Q213 906 225 906Q243 906 257 896T271 872Q271 848 196 804T106 760ZM144 442Q173 442 191 422T210 358Q210 332 167 117Q166 113 166
100Q166 66 186 66Q197 66 220 99L244 132Q247 132 255 123T265 106Q252 73 216 33T137 -8Q106 -8 89 14T72 77Q72 101 77 126L113 310Q116 325 116 332Q116 368 92 368Q82 368 59 335L36 302Q33 302 26 311T16 328Q29 361 65 401T144 442Z" />
<glyph unicode="&#xee;" glyph-name="icircumflex" horiz-adv-x="279" d="M507 760Q500 760 470 783T420 826Q395 807 356 784T309 760Q305 760 304 768T304 781Q306 783 315 791T340 813T373 845Q405 877 423 900Q433 910 437 910Q440 910 445 900Q462 867 471
852Q482 834 494 817T512 792T520 781Q515 760 507 760ZM144 442Q173 442 191 422T210 358Q210 332 167 117Q166 113 166 100Q166 66 186 66Q197 66 220 99L244 132Q247 132 255 123T265 106Q252 73 216 33T137 -8Q106 -8 89 14T72 77Q72 101 77 126L113 310Q116
325 116 332Q116 368 92 368Q82 368 59 335L36 302Q33 302 26 311T16 328Q29 361 65 401T144 442Z" />
<glyph unicode="&#xef;" glyph-name="idieresis" horiz-adv-x="279" d="M514 627Q535 627 548 612T562 576Q562 547 542 525T495 502Q475 502 462 518T449 556Q449 584 468 605T514 627ZM350 628Q371 628 384 613T398 576Q398 547 378 525T331 503Q310 503 297
519T284 557Q284 585 303 606T350 628ZM144 442Q173 442 191 422T210 358Q210 332 167 117Q166 113 166 100Q166 66 186 66Q197 66 220 99L244 132Q247 132 255 123T265 106Q252 73 216 33T137 -8Q106 -8 89 14T72 77Q72 101 77 126L113 310Q116 325 116 332Q116
368 92 368Q82 368 59 335L36 302Q33 302 26 311T16 328Q29 361 65 401T144 442Z" />
<glyph unicode="&#xf0;" glyph-name="eth" horiz-adv-x="420" d="M249 350Q206 350 174 313T128 226T114 123Q114 83 129 64T169 44Q212 44 243 88T289 207Q300 266 300 292Q300 316 285 333T249 350ZM233 398Q276 398 301 373L303 372Q307 372 307 389Q307 491
241 576L137 476Q128 479 119 488T110 506Q110 511 113 514L211 609Q183 636 143 658Q143 668 151 679T170 692Q231 658 248 645L355 749Q360 747 370 738T381 721T378 710L282 616Q406 500 406 331Q406 248 382 181T321 75T243 15T163 -6Q99 -6 59 39T18 153Q18
247 85 322T233 398Z" />
<glyph unicode="&#xf1;" glyph-name="ntilde" horiz-adv-x="502" d="M223 856Q251 856 289 828T356 799Q370 799 394 822L418 845Q424 845 424 833Q424 814 393 780T329 745Q300 745 262 773T194 801Q181 801 157 777T131 753Q126 753 126 766Q126 791 158 823T223
856ZM188 442Q207 442 219 428T232 388Q232 369 225 329Q224 325 223 319T220 300T216 279T214 270Q236 315 292 378T387 442Q455 442 455 354Q455 318 440 246L414 117Q411 108 411 93Q411 68 421 68Q431 68 448 81T475 106T490 122Q493 122 499 113T506 99Q495
75 444 34T356 -7Q338 -7 326 7T313 48Q313 68 322 111L351 253Q359 294 359 309Q359 351 335 351Q317 351 285 311T221 208T180 92L160 0Q144 -5 117 -5Q90 -5 70 0L130 310Q134 332 134 342Q134 366 124 366Q112 366 91 347T60 316Q57 316 51 326T44 340Q55 363
104 402T188 442Z" />
<glyph unicode="&#xf2;" glyph-name="ograve" horiz-adv-x="402" d="M306 760Q290 760 217 803T144 870Q144 884 161 895T197 907Q207 907 214 902Q231 886 275 836T319 780Q319 774 315 767T306 760ZM262 395Q231 395 203 353T158 250T142 134Q143 91 156 67T192
42Q224 42 252 86T294 190T308 302Q308 346 296 370T262 395ZM273 442Q341 442 374 400T408 284Q408 213 375 146T289 36T178 -6Q109 -6 76 36T42 150Q42 218 75 286T162 398T273 442Z" />
<glyph unicode="&#xf3;" glyph-name="oacute" horiz-adv-x="402" d="M206 504Q203 504 199 510T195 520Q195 526 237 575T305 646Q313 650 325 650Q343 650 357 640T371 616Q371 592 296 548T206 504ZM262 395Q231 395 203 353T158 250T142 134Q143 91 156 67T192
42Q224 42 252 86T294 190T308 302Q308 346 296 370T262 395ZM273 442Q341 442 374 400T408 284Q408 213 375 146T289 36T178 -6Q109 -6 76 36T42 150Q42 218 75 286T162 398T273 442Z" />
<glyph unicode="&#xf4;" glyph-name="ocircumflex" horiz-adv-x="402" d="M352 760Q345 760 315 783T265 826Q240 807 201 784T154 760Q150 760 149 768T149 781Q151 783 160 791T185 813T218 845Q250 877 268 900Q278 910 282 910Q285 910 290 900Q307 867 316
852Q327 834 339 817T357 792T365 781Q360 760 352 760ZM262 395Q231 395 203 353T158 250T142 134Q143 91 156 67T192 42Q224 42 252 86T294 190T308 302Q308 346 296 370T262 395ZM273 442Q341 442 374 400T408 284Q408 213 375 146T289 36T178 -6Q109 -6 76
36T42 150Q42 218 75 286T162 398T273 442Z" />
<glyph unicode="&#xf5;" glyph-name="otilde" horiz-adv-x="402" d="M209 856Q237 856 275 828T342 799Q356 799 380 822L404 845Q410 845 410 833Q410 814 379 780T315 745Q286 745 248 773T180 801Q167 801 143 777T117 753Q112 753 112 766Q112 791 144 823T209
856ZM262 395Q231 395 203 353T158 250T142 134Q143 91 156 67T192 42Q224 42 252 86T294 190T308 302Q308 346 296 370T262 395ZM273 442Q341 442 374 400T408 284Q408 213 375 146T289 36T178 -6Q109 -6 76 36T42 150Q42 218 75 286T162 398T273 442Z" />
<glyph unicode="&#xf6;" glyph-name="odieresis" horiz-adv-x="402" d="M356 628Q376 628 389 612T402 574Q402 545 382 524T334 503Q315 503 304 519T292 556Q292 585 310 606T356 628ZM166 628Q186 628 199 612T212 574Q212 545 192 524T144 503Q125 503 114
519T102 556Q102 585 120 606T166 628ZM262 395Q231 395 203 353T158 250T142 134Q143 91 156 67T192 42Q224 42 252 86T294 190T308 302Q308 346 296 370T262 395ZM273 442Q341 442 374 400T408 284Q408 213 375 146T289 36T178 -6Q109 -6 76 36T42 150Q42 218
75 286T162 398T273 442Z" />
<glyph unicode="&#xf7;" glyph-name="divide" horiz-adv-x="459" d="M273 494Q292 494 304 481T316 448Q316 422 299 402T256 381Q238 381 226 395T214 430Q214 455 231 474T273 494ZM200 115Q219 115 231 102T243 69Q243 43 226 23T183 2Q165 2 153 16T141 51Q141
76 158 95T200 115ZM27 282H454Q458 282 458 268Q458 239 435 214H7Q3 214 3 228Q3 254 27 282Z" />
<glyph unicode="&#xf8;" glyph-name="oslash" horiz-adv-x="406" d="M178 44Q223 44 258 118T294 276Q294 296 293 306L133 80Q148 44 178 44ZM240 392Q195 392 158 318T121 162Q121 145 122 136L281 362Q267 392 240 392ZM260 442Q296 442 324 423L338 442Q342
443 357 436T372 421Q372 416 371 415L355 393Q391 344 391 278Q391 165 321 80T154 -6Q117 -6 88 15L72 -6Q65 -6 51 -1T37 12Q37 15 40 18L59 45Q24 94 24 162Q24 271 94 356T260 442Z" />
<glyph unicode="&#xf9;" glyph-name="ugrave" horiz-adv-x="492" d="M327 760Q311 760 238 803T165 870Q165 884 182 895T218 907Q228 907 235 902Q252 886 296 836T340 780Q340 774 336 767T327 760ZM183 442Q202 442 214 428T226 388Q226 359 218 324L189 182Q181
139 181 126Q181 84 205 84Q222 84 254 124T315 227T356 344L375 435Q392 440 419 440Q445 440 465 435L404 117Q402 106 402 93Q402 68 412 68Q421 68 438 81T465 106T481 122Q483 122 490 113T497 99Q486 75 435 34T347 -7Q328 -7 316 7T304 48Q304 64 311 106Q312
110 313 116T316 135T320 156T322 165Q309 139 282 101T217 28T153 -7Q85 -7 85 80Q85 117 100 188L124 310Q128 328 128 342Q128 366 118 366Q106 366 85 347T54 316Q52 316 45 326T38 340Q49 363 99 402T183 442Z" />
<glyph unicode="&#xfa;" glyph-name="uacute" horiz-adv-x="492" d="M235 504Q232 504 228 510T224 520Q224 526 266 575T334 646Q342 650 354 650Q372 650 386 640T400 616Q400 592 325 548T235 504ZM183 442Q202 442 214 428T226 388Q226 359 218 324L189 182Q181
139 181 126Q181 84 205 84Q222 84 254 124T315 227T356 344L375 435Q392 440 419 440Q445 440 465 435L404 117Q402 106 402 93Q402 68 412 68Q421 68 438 81T465 106T481 122Q483 122 490 113T497 99Q486 75 435 34T347 -7Q328 -7 316 7T304 48Q304 64 311 106Q312
110 313 116T316 135T320 156T322 165Q309 139 282 101T217 28T153 -7Q85 -7 85 80Q85 117 100 188L124 310Q128 328 128 342Q128 366 118 366Q106 366 85 347T54 316Q52 316 45 326T38 340Q49 363 99 402T183 442Z" />
<glyph unicode="&#xfb;" glyph-name="ucircumflex" horiz-adv-x="492" d="M366 760Q359 760 329 783T279 826Q254 807 215 784T168 760Q164 760 163 768T163 781Q165 783 174 791T199 813T232 845Q264 877 282 900Q292 910 296 910Q299 910 304 900Q321 867 330
852Q341 834 353 817T371 792T379 781Q374 760 366 760ZM183 442Q202 442 214 428T226 388Q226 359 218 324L189 182Q181 139 181 126Q181 84 205 84Q222 84 254 124T315 227T356 344L375 435Q392 440 419 440Q445 440 465 435L404 117Q402 106 402 93Q402 68 412
68Q421 68 438 81T465 106T481 122Q483 122 490 113T497 99Q486 75 435 34T347 -7Q328 -7 316 7T304 48Q304 64 311 106Q312 110 313 116T316 135T320 156T322 165Q309 139 282 101T217 28T153 -7Q85 -7 85 80Q85 117 100 188L124 310Q128 328 128 342Q128 366
118 366Q106 366 85 347T54 316Q52 316 45 326T38 340Q49 363 99 402T183 442Z" />
<glyph unicode="&#xfc;" glyph-name="udieresis" horiz-adv-x="492" d="M374 628Q394 628 407 612T420 574Q420 545 400 524T352 503Q333 503 322 519T310 556Q310 585 328 606T374 628ZM184 628Q204 628 217 612T230 574Q230 545 210 524T162 503Q143 503 132
519T120 556Q120 585 138 606T184 628ZM183 442Q202 442 214 428T226 388Q226 359 218 324L189 182Q181 139 181 126Q181 84 205 84Q222 84 254 124T315 227T356 344L375 435Q392 440 419 440Q445 440 465 435L404 117Q402 106 402 93Q402 68 412 68Q421 68 438
81T465 106T481 122Q483 122 490 113T497 99Q486 75 435 34T347 -7Q328 -7 316 7T304 48Q304 64 311 106Q312 110 313 116T316 135T320 156T322 165Q309 139 282 101T217 28T153 -7Q85 -7 85 80Q85 117 100 188L124 310Q128 328 128 342Q128 366 118 366Q106 366
85 347T54 316Q52 316 45 326T38 340Q49 363 99 402T183 442Z" />
<glyph unicode="&#xfd;" glyph-name="yacute" horiz-adv-x="484" d="M306 504Q303 504 299 510T295 520Q295 526 337 575T405 646Q413 650 425 650Q443 650 457 640T471 616Q471 592 396 548T306 504ZM213 442Q233 442 249 416T276 348T294 260T305 166T310 91T312
47Q340 81 377 153T414 279Q414 338 383 390Q386 412 402 427T440 442Q465 442 477 421T490 375Q490 299 458 211T373 48T260 -90T139 -189T34 -226Q8 -226 -9 -214T-26 -178Q-26 -150 -6 -134Q27 -146 66 -146Q145 -146 196 -76Q218 -46 218 35Q218 121 204 216T161
352Q151 359 122 343Q117 343 110 341T97 336T85 331T78 328Q80 333 102 360T157 414T213 442Z" />
<glyph unicode="&#xfe;" glyph-name="thorn" horiz-adv-x="498" d="M331 371Q307 371 282 361T243 340T227 324L189 130Q184 106 184 94Q184 70 197 54T230 38Q283 38 329 119T376 312Q376 339 363 355T331 371ZM383 435Q430 435 458 401T486 322Q486 243 446
166T344 41T223 -6Q194 -6 177 4Q171 8 169 8Q166 8 163 -4L140 -125Q138 -139 138 -154Q138 -180 165 -186Q174 -188 197 -188Q203 -188 203 -199Q203 -212 199 -218H155Q84 -218 -10 -228Q-14 -226 -14 -214Q-14 -198 -9 -198Q19 -198 29 -186Q35 -178 48 -125L127
280L76 250Q67 264 67 278Q67 284 72 287Q119 322 138 334L179 550Q188 589 188 606Q188 628 139 628Q135 628 135 634T139 648T145 656Q171 656 224 670T295 694H299Q307 694 307 678Q289 643 278 587L238 382Q254 399 292 417T383 435Z" />
<glyph unicode="&#xff;" glyph-name="ydieresis" horiz-adv-x="484" d="M435 628Q455 628 468 612T481 574Q481 545 461 524T413 503Q394 503 383 519T371 556Q371 585 389 606T435 628ZM245 628Q265 628 278 612T291 574Q291 545 271 524T223 503Q204 503 193
519T181 556Q181 585 199 606T245 628ZM213 442Q233 442 249 416T276 348T294 260T305 166T310 91T312 47Q340 81 377 153T414 279Q414 338 383 390Q386 412 402 427T440 442Q465 442 477 421T490 375Q490 299 458 211T373 48T260 -90T139 -189T34 -226Q8 -226
-9 -214T-26 -178Q-26 -150 -6 -134Q27 -146 66 -146Q145 -146 196 -76Q218 -46 218 35Q218 121 204 216T161 352Q151 359 122 343Q117 343 110 341T97 336T85 331T78 328Q80 333 102 360T157 414T213 442Z" />
<glyph unicode="&#x2013;" glyph-name="endash" horiz-adv-x="531" d="M470 265Q476 265 476 250Q476 237 468 220T454 197H54Q47 197 47 212Q47 225 55 242T69 265H470Z" />
<glyph unicode="&#x2014;" glyph-name="emdash" horiz-adv-x="826" d="M764 265Q771 265 771 250Q771 237 763 220T749 197H54Q47 197 47 212Q47 225 55 242T69 265H764Z" />
<glyph unicode="&#x2018;" glyph-name="quoteleft" horiz-adv-x="241" d="M57 555Q65 597 97 634T155 689T189 706Q195 706 202 699T211 684Q183 668 163 647T136 614T127 594Q125 581 140 559T152 522Q148 504 127 491T83 478Q68 478 58 485Q47 509 57 555Z" />
<glyph unicode="&#x2019;" glyph-name="quoteright" horiz-adv-x="238" d="M197 630Q189 588 158 551T100 496T67 479Q61 479 54 486T45 501Q73 517 93 538T120 572T128 592Q130 605 115 627T103 664Q107 682 128 694T173 707Q186 707 197 700Q207 678 197 630Z" />
<glyph unicode="&#x201a;" glyph-name="quotesinglbase" horiz-adv-x="245" d="M186 48Q178 6 146 -31T88 -85T54 -102Q48 -102 41 -96T32 -81Q60 -65 80 -44T107 -10T116 10Q118 23 103 45T90 82Q94 100 115 113T160 126Q172 126 184 118Q196 93 186 48Z" />
<glyph unicode="&#x201c;" glyph-name="quotedblleft" horiz-adv-x="376" d="M193 555Q201 597 233 634T291 689T325 706Q330 706 337 699T346 684Q318 668 298 647T271 613T263 594Q261 581 276 559T288 522Q284 504 263 491T219 478Q204 478 193 485Q183 507
193 555ZM57 555Q65 597 97 634T155 689T189 706Q195 706 202 699T211 684Q183 668 163 647T136 614T127 594Q125 581 140 559T152 522Q148 504 127 491T83 478Q68 478 58 485Q47 509 57 555Z" />
<glyph unicode="&#x201d;" glyph-name="quotedblright" horiz-adv-x="380" d="M338 630Q330 588 298 551T240 496T207 479Q201 479 194 486T185 501Q213 517 233 538T260 572T269 592Q271 605 256 627T244 664Q248 682 269 694T313 707Q328 707 338 700Q348 678
338 630ZM197 630Q189 588 158 551T100 496T67 479Q61 479 54 486T45 501Q73 517 93 538T120 572T128 592Q130 605 115 627T103 664Q107 682 128 694T173 707Q186 707 197 700Q207 678 197 630Z" />
<glyph unicode="&#x201e;" glyph-name="quotedblbase" horiz-adv-x="385" d="M326 48Q318 6 286 -31T228 -85T194 -102Q188 -102 181 -96T173 -81Q201 -65 221 -44T248 -10T256 10Q258 23 243 45T231 82Q235 100 256 112T300 125Q316 125 326 118Q336 96 326 48ZM186
48Q178 6 146 -31T88 -85T54 -102Q48 -102 41 -96T32 -81Q60 -65 80 -44T107 -10T116 10Q118 23 103 45T90 82Q94 100 115 112T160 125Q174 125 185 118Q196 94 186 48Z" />
<glyph unicode="&#x2022;" glyph-name="bullet" horiz-adv-x="335" d="M40 212T50 263T100 350T189 387T263 351T280 263T230 176T141 139T67 175Z" />
<glyph unicode="&#x2039;" glyph-name="guilsinglleft" horiz-adv-x="325" d="M277 423Q285 421 292 415T299 403Q299 399 297 396T277 376T222 328L131 248L189 167Q197 157 206 145T221 127T230 114T237 103T239 96Q239 84 207 73Q202 80 185 98T127 154T41
227Q36 230 36 237Q36 255 49 268Q107 301 163 339T246 398T277 423Z" />
<glyph unicode="&#x203a;" glyph-name="guilsinglright" horiz-adv-x="330" d="M117 423Q129 407 178 359T284 268Q288 260 288 254Q288 233 276 228Q210 189 154 151T74 93T50 73Q44 74 36 80T27 92T38 108T104 167L194 248L134 329Q86 391 86 399Q86 411 117 423Z" />
</font>
</defs>
</svg>
